osu file format v9

[General]
AudioFilename: Second Heaven.mp3
AudioLeadIn: 2000
PreviewTime: 45695
Countdown: 0
SampleSet: Normal
StackLeniency: 0.7
Mode: 0
LetterboxInBreaks: 1

[Editor]
DistanceSpacing: 0.9
BeatDivisor: 4
GridSize: 8

[Metadata]
Title:Second Heaven
Artist:Ryu*
Creator:dksslqj
Version:Standard
Source:Beatmania IIDX
Tags:Natteke samiljul 14 GOLD

[Difficulty]
HPDrainRate:3
CircleSize:4
OverallDifficulty:4
ApproachRate:4
SliderMultiplier:1.2
SliderTickRate:0.5

[Events]
//Background and Video events
0,0,"heaven.jpg"
//Break Periods
2,31399,36321
2,90996,95919
//Storyboard Layer 0 (Background)
//Storyboard Layer 1 (Fail)
//Storyboard Layer 2 (Pass)
//Storyboard Layer 3 (Foreground)
//Storyboard Sound Samples
//Background Colour Transformations
3,100,163,162,255

[TimingPoints]
595,402.684563758389,4,1,0,61,1,0
14990,-100,4,2,0,61,0,0
24353,-100,4,1,0,61,0,0
30594,-100,4,2,0,61,0,0
44890,-100,4,1,0,61,0,0
45695,-100,4,1,0,61,0,1
58581,-100,4,1,0,61,0,0
90695,-100,4,2,0,61,0,0
100460,-100,4,1,0,61,0,1
113346,-100,4,2,0,61,0,0

[Colours]
Combo1 : 132,242,137
Combo2 : 39,226,222
Combo3 : 49,49,251
Combo4 : 170,242,242

[HitObjects]
256,192,595,1,4
256,192,797,1,4
256,344,2205,6,0,B|200:336|136:344,1,120,4|0
40,296,3011,1,0
40,296,3413,1,0
88,200,3816,6,0,B|112:144|88:80,1,120
192,56,4621,2,0,B|168:112|192:176,1,120
224,216,5225,1,0
264,248,5427,6,0,B|384:208,3,120,4|0|0|0
480,168,7037,2,0,B|360:128,3,120
256,128,8648,5,4
256,128,8850,1,4
256,256,10259,5,4
256,256,10460,1,4
168,272,11870,6,0,B|192:344|256:360|320:344|344:272,2,240,4|4|4
168,272,13682,1,4
256,208,14084,2,0,B|256:88,2,120
256,264,15091,1,2
256,192,15292,12,0,18313
256,192,19923,5,2
144,192,21534,6,0,B|256:112|368:192,2,240,2|2|2
256,344,24756,5,0
200,136,25561,2,0,B|256:96|312:136,1,120
312,352,26769,2,0,B|256:392|200:352,1,120
200,136,27977,6,0,B|208:192|256:240|256:240|304:192|312:136,1,240
256,40,29185,1,0
200,248,29990,2,0,B|256:272|256:272|312:248,1,120
256,152,30796,1,2
256,40,31199,1,0
40,336,37641,5,2
472,336,39252,1,2
40,336,40863,5,2
256,296,41668,1,2
472,336,42474,5,2
376,288,42876,1,2
328,192,43279,1,2
376,96,43682,1,2
472,40,44084,5,0
256,344,45695,5,4
368,344,46098,1,0
312,248,46501,2,0,B|352:200,2,60
200,248,47306,6,0,B|160:200|184:120,1,120,4|0
80,104,48111,2,0,B|256:56,1,180
304,48,48917,6,0,B|416:96,1,120,4|0
464,192,49722,2,0,B|528:192,2,60
368,248,50527,6,0,B|304:248,3,60,4|0|0|0
256,248,51333,2,0,B|152:248|152:248|112:224|112:224|16:224,1,240,0|4
24,112,52541,5,0
120,64,52943,2,0,B|184:64|184:64|240:32,1,120
288,40,53548,1,0
344,40,53749,6,0,B|488:32|480:208,1,240,4|0
480,248,54756,1,0
440,280,54957,2,0,B|416:304|376:304,1,60
336,312,55360,6,0,B|288:264|208:272,1,120,4|0
120,296,56165,2,0,B|64:312,2,60
80,192,56970,5,4
120,96,57373,1,0
232,96,57776,2,0,B|312:72|320:128|416:96,1,180
456,80,58581,5,0
472,184,58984,1,0
488,288,59386,1,0
336,352,59990,2,0,B|264:368|208:328,1,120
232,232,60796,2,0,B|304:216|360:256,1,120
347,248,61400,1,0
440,192,61803,6,0,B|440:144|440:144|448:120|448:120|448:64,1,120
352,24,62608,2,0,B|352:72|352:72|344:96|344:96|344:152,1,120
304,176,63212,2,0,B|176:176,1,120
72,176,64017,1,0
72,176,64219,1,0
256,288,65024,5,0
368,288,65427,2,0,B|432:280|448:208,1,120
352,80,66433,2,0,B|224:80,1,120
232,192,67239,2,0,B|360:192,1,120
408,192,67843,1,0
408,304,68246,6,0,B|360:336|288:336,1,120
192,304,69051,2,0,B|144:272|72:272,1,120
24,280,69655,1,0
8,176,70058,1,0
384,192,71467,5,4
272,192,71870,1,0
184,136,72272,1,0
72,136,72675,1,0
72,248,73078,6,0,B|128:288|184:248,1,120
272,192,73883,2,0,B|328:232|384:192,1,120
488,192,74688,6,0,B|488:128|488:128|440:96,1,120,4|0
344,48,75494,2,0,B|313:94|313:94|249:95,1,120
152,48,76299,6,0,B|24:48,3,120
72,152,77910,5,4
72,152,78111,1,4
448,152,79521,5,4
448,152,79722,1,4
112,320,81131,6,4,B|88:168|256:192,1,240
472,192,82742,1,4
472,192,82943,1,4
256,192,84353,5,0
72,312,85158,2,0,B|72:192,1,120
256,312,86366,2,0,B|256:192,1,120
256,192,87574,5,0
440,72,88379,2,0,B|440:192,1,120
256,72,89587,2,0,B|256:192,1,120
256,192,90796,5,0
256,192,97239,5,0
256,192,98850,12,4,100460
256,192,100863,5,0
144,192,101266,1,0
96,176,101467,1,0
48,192,101668,1,0
96,288,102071,6,0,B|240:288,1,120,4|0
328,288,102876,2,0,B|352:216,2,60
440,288,103682,6,0,B|472:168,1,120,4|0
488,64,104487,2,0,B|360:64,1,120
256,64,105292,2,0,B|248:88|256:128,4,60,4|0|0|0|0
40,64,106903,5,4
40,64,107105,1,4
40,168,107507,2,0,B|80:216,1,60
112,256,107910,2,0,B|160:208,1,60
256,176,108514,5,4
296,136,108715,1,4
336,96,108917,2,0,B|480:96,1,120
496,128,109521,2,0,B|504:160|496:192,1,60
496,296,110125,5,4
408,360,110527,2,0,B|344:256,1,120
320,360,111333,2,0,B|256:256,1,120
224,216,111937,2,0,B|144:216,3,60
376,216,113346,5,4
