osu file format v9

[General]
AudioFilename: Second Heaven.mp3
AudioLeadIn: 2000
PreviewTime: 45695
Countdown: 0
SampleSet: Normal
StackLeniency: 0.7
Mode: 1
LetterboxInBreaks: 1

[Editor]
DistanceSpacing: 0.9
BeatDivisor: 6
GridSize: 8

[Metadata]
Title:Second Heaven
Artist:Ryu*
Creator:dksslqj
Version:NTK Taiko Oni
Source:Beatmania IIDX
Tags:Natteke samiljul 14 GOLD

[Difficulty]
HPDrainRate:5
CircleSize:5
OverallDifficulty:5
ApproachRate:5
SliderMultiplier:1.4
SliderTickRate:0.5

[Events]
//Background and Video events
0,0,"Taiko BG.jpg"
//Break Periods
//Storyboard Layer 0 (Background)
//Storyboard Layer 1 (Fail)
//Storyboard Layer 2 (Pass)
//Storyboard Layer 3 (Foreground)
//Storyboard Sound Samples
//Background Colour Transformations
3,100,163,162,255

[TimingPoints]
595,402.684563758389,4,1,0,80,1,0
18313,-200,4,1,0,80,0,0
31199,-133.333333333333,4,1,0,80,0,0
44084,-100,4,1,0,80,0,0
45695,-100,4,1,0,80,0,1
58581,-100,4,1,0,80,0,0
84353,-200,4,1,0,80,0,0
90796,-100,4,1,0,80,0,0
100460,-100,4,1,0,80,0,1
113346,-100,4,2,0,80,0,0

[Colours]
Combo1 : 132,242,137
Combo2 : 39,226,222
Combo3 : 49,49,251
Combo4 : 170,242,242

[HitObjects]
256,192,595,1,4
256,192,796,1,6
256,192,997,12,0,2004
256,192,2205,5,0
256,192,2407,1,2
256,192,2608,1,0
256,192,2809,1,2
256,192,3011,1,0
256,192,3212,1,2
256,192,3413,1,0
256,192,3615,1,2
256,192,3816,1,0
256,192,4219,1,0
256,192,4521,1,0
256,192,4621,1,0
256,192,4823,1,0
256,192,5024,1,0
256,192,5125,1,0
256,192,5225,1,0
256,192,5326,1,0
256,192,5427,1,0
256,192,5628,1,2
256,192,5829,1,0
256,192,6031,1,2
256,192,6232,1,0
256,192,6433,1,2
256,192,6635,1,0
256,192,6836,1,2
256,192,7037,1,0
256,192,7440,1,0
256,192,7742,1,0
256,192,7843,1,0
256,192,8044,1,0
256,192,8246,1,2
256,192,8346,1,0
256,192,8447,1,0
256,192,8548,1,0
256,192,8648,1,0
256,192,8850,1,0
256,192,9051,2,0,B|80:192,1,140
256,192,9655,1,0
256,192,9856,1,2
256,192,9957,1,0
256,192,10058,1,0
256,192,10158,1,0
256,192,10259,1,0
256,192,10460,1,0
256,192,10662,2,0,B|400:192,1,140
256,192,11266,1,0
256,192,11467,1,2
256,192,11568,1,0
256,192,11668,1,0
256,192,11769,1,0
256,192,11870,1,0
256,192,12071,1,0
256,192,12272,1,2
256,192,12373,1,0
256,192,12474,1,0
256,192,12675,1,0
256,192,12876,1,0
256,192,13078,1,2
256,192,13178,1,0
256,192,13279,1,0
256,192,13480,1,4
256,192,13682,1,4
256,192,13883,12,0,15091
256,192,18313,5,0
256,192,18514,1,0
256,192,18715,1,2
256,192,18917,1,0
256,192,19118,1,0
256,192,19319,1,0
256,192,19521,1,2
256,192,19722,1,0
256,192,19923,1,0
256,192,20125,1,0
256,192,20326,1,2
256,192,20527,1,0
256,192,20729,1,0
256,192,20930,1,2
256,192,21131,1,2
256,192,21333,1,0
256,192,21534,1,0
256,192,21735,1,0
256,192,21937,1,2
256,192,22138,1,0
256,192,22339,1,0
256,192,22541,1,0
256,192,22742,1,2
256,192,22943,1,0
256,192,23346,1,0
256,192,23548,1,2
256,192,23749,1,0
256,192,23950,1,2
256,192,24152,1,0
256,192,24353,1,2
256,192,24554,1,2
256,192,24756,1,0
256,192,25158,1,2
256,192,25360,1,0
256,192,25561,1,2
256,192,25964,2,0,B|176:192,1,70
256,192,26769,1,0
256,192,27172,1,2
256,192,27574,1,2
256,192,27776,1,0
256,192,27977,1,0
256,192,28380,1,2
256,192,28581,1,0
256,192,28782,1,2
256,192,29185,2,0,B|176:192,1,70
256,192,29990,1,0
256,192,30393,1,2
256,192,30796,1,2
256,192,31199,1,0
256,192,31400,1,0
256,192,31601,1,0
256,192,31803,1,2
256,192,32004,1,0
256,192,32205,1,0
256,192,32407,1,0
256,192,32608,1,2
256,192,32809,1,0
256,192,33011,1,0
256,192,33212,1,0
256,192,33413,1,2
256,192,33615,1,2
256,192,33816,1,0
256,192,34017,1,2
256,192,34219,1,0
256,192,34420,1,0
256,192,34621,1,0
256,192,34823,1,0
256,192,35024,1,2
256,192,35225,1,0
256,192,35427,1,0
256,192,35628,1,0
256,192,35829,1,2
256,192,36031,1,0
256,192,36232,1,0
256,192,36433,1,2
256,192,36635,1,0
256,192,36836,1,2
256,192,37037,1,2
256,192,37239,1,0
256,192,37440,1,2
256,192,37641,1,0
256,192,37843,1,0
256,192,38044,1,2
256,192,38648,1,0
256,192,38850,1,2
256,192,39252,1,0
256,192,39454,1,0
256,192,39655,1,2
256,192,40259,1,0
256,192,40460,1,2
256,192,40863,1,0
256,192,41064,1,0
256,192,41266,1,2
256,192,41668,1,0
256,192,41870,1,0
256,192,42071,1,2
256,192,42474,1,4
256,192,42876,1,6
256,192,43279,1,4
256,192,43682,1,6
256,192,44084,12,0,45494
256,192,45695,5,0
256,192,45897,1,0
256,192,45997,1,0
256,192,46098,1,2
256,192,46199,1,0
256,192,46299,1,0
256,192,46400,1,0
256,192,46501,1,2
256,192,46702,1,0
256,192,46903,1,2
256,192,47105,1,0
256,192,47205,1,0
256,192,47306,1,2
256,192,47507,1,0
256,192,47608,1,0
256,192,47709,1,2
256,192,47809,1,0
256,192,47910,1,0
256,192,48011,1,0
256,192,48111,1,2
256,192,48313,1,0
256,192,48514,1,2
256,192,48715,1,0
256,192,48917,1,0
256,192,49118,1,0
256,192,49219,1,0
256,192,49319,1,2
256,192,49420,1,0
256,192,49521,1,0
256,192,49621,1,0
256,192,49722,1,2
256,192,49923,1,0
256,192,50125,1,2
256,192,50326,1,0
256,192,50427,1,0
256,192,50527,1,2
256,192,50729,1,0
256,192,50930,1,2
256,192,51131,1,0
256,192,51333,2,0,B|80:192,1,140
256,192,51937,1,0
256,192,52138,1,0
256,192,52339,1,0
256,192,52440,1,0
256,192,52541,1,2
256,192,52641,1,2
256,192,52742,1,0
256,192,52843,1,0
256,192,52943,1,2
256,192,53145,1,0
256,192,53346,1,2
256,192,53548,1,0
256,192,53648,1,0
256,192,53749,1,2
256,192,53950,1,0
256,192,54051,1,0
256,192,54152,1,2
256,192,54252,1,2
256,192,54353,1,0
256,192,54454,1,0
256,192,54554,1,2
256,192,54756,1,0
256,192,54856,1,0
256,192,54957,1,2
256,192,55158,1,0
256,192,55360,1,0
256,192,55561,1,2
256,192,55662,1,2
256,192,55762,1,0
256,192,55964,1,0
256,192,56064,1,0
256,192,56165,1,2
256,192,56366,1,0
256,192,56568,1,2
256,192,56769,1,0
256,192,56870,1,0
256,192,56970,1,2
256,192,57172,1,0
256,192,57373,1,2
256,192,57574,1,0
256,192,57776,2,0,B|88:192,1,140
256,192,58380,1,0
256,192,58581,1,0
256,192,58984,1,0
256,192,59386,1,0
256,192,59789,1,2
256,192,59990,1,0
256,192,60192,1,2
256,192,60393,1,0
256,192,60594,1,2
256,192,60796,1,0
256,192,60997,1,2
256,192,61098,1,2
256,192,61199,1,0
256,192,61400,1,2
256,192,61501,1,2
256,192,61601,1,0
256,192,61803,1,0
256,192,62205,1,0
256,192,62608,1,0
256,192,63011,1,2
256,192,63212,1,0
256,192,63413,1,2
256,192,63615,1,0
256,192,63816,1,2
256,192,64017,1,0
256,192,64219,1,2
256,192,64319,1,2
256,192,64420,1,0
256,192,64521,1,0
256,192,64621,1,2
256,192,64823,1,0
256,192,65024,1,0
256,192,65427,1,0
256,192,65829,1,0
256,192,66232,1,2
256,192,66433,1,0
256,192,66635,1,2
256,192,66836,1,0
256,192,67037,1,2
256,192,67239,1,0
256,192,67440,1,2
256,192,67541,1,0
256,192,67641,1,0
256,192,67742,1,0
256,192,67843,1,2
256,192,68044,1,0
256,192,68246,1,0
256,192,68648,1,0
256,192,69051,1,0
256,192,69252,1,0
256,192,69353,1,0
256,192,69454,1,2
256,192,69655,1,0
256,192,69856,1,0
256,192,69957,1,2
256,192,70058,1,2
256,192,70158,1,2
256,192,70259,1,0
256,192,70460,1,0
256,192,70561,1,0
256,192,70662,1,2
256,192,70863,1,0
256,192,71064,1,2
256,192,71266,1,0
256,192,71467,1,0
256,192,71668,1,2
256,192,71870,1,0
256,192,71970,1,0
256,192,72071,1,2
256,192,72272,1,0
256,192,72373,1,0
256,192,72474,1,2
256,192,72574,1,2
256,192,72675,1,0
256,192,72776,1,0
256,192,72876,1,2
256,192,73078,1,0
256,192,73178,1,0
256,192,73279,1,2
256,192,73480,1,0
256,192,73682,1,2
256,192,73883,1,0
256,192,73984,1,2
256,192,74185,1,2
256,192,74286,1,0
256,192,74487,1,2
256,192,74688,1,0
256,192,74890,1,2
256,192,75091,1,0
256,192,75192,1,0
256,192,75292,1,2
256,192,75494,1,0
256,192,75594,1,2
256,192,75695,1,2
256,192,75897,1,0
256,192,76098,1,2
256,192,76299,1,0
256,192,76501,1,0
256,192,76601,1,0
256,192,76702,1,2
256,192,76903,1,0
256,192,77105,1,0
256,192,77205,1,0
256,192,77306,1,2
256,192,77407,1,2
256,192,77507,1,0
256,192,77608,1,0
256,192,77709,1,2
256,192,77809,1,2
256,192,77910,1,0
256,192,78111,1,0
256,192,78313,1,2
256,192,78413,1,0
256,192,78514,1,0
256,192,78715,1,0
256,192,78917,1,0
256,192,79118,1,2
256,192,79521,1,0
256,192,79722,1,0
256,192,79923,1,2
256,192,80024,1,0
256,192,80125,1,0
256,192,80326,1,0
256,192,80527,1,0
256,192,80729,1,2
256,192,81131,1,0
256,192,81333,1,0
256,192,81534,1,2
256,192,81635,1,0
256,192,81735,1,0
256,192,81937,1,0
256,192,82138,1,0
256,192,82339,1,2
256,192,82440,1,0
256,192,82541,1,0
256,192,82742,1,4
256,192,82943,1,4
256,192,83145,1,6
256,192,83346,1,6
256,192,83548,12,0,84353
256,192,84756,5,2
256,192,84957,1,0
256,192,85158,1,2
256,192,85561,1,0
256,192,86366,1,0
256,192,86568,1,0
256,192,86668,1,0
256,192,86769,1,2
256,192,87172,1,0
256,192,87574,1,0
256,192,87977,1,2
256,192,88178,1,0
256,192,88380,1,2
256,192,88782,1,0
256,192,89588,1,0
256,192,89789,1,0
256,192,89890,1,0
256,192,89990,1,2
256,192,90796,1,2
256,192,90997,1,2
256,192,91098,1,0
256,192,91199,1,2
256,192,91299,1,0
256,192,91400,1,2
256,192,91501,1,0
256,192,91601,1,2
256,192,91803,1,0
256,192,92004,1,2
256,192,92205,1,0
256,192,92306,1,0
256,192,92407,1,2
256,192,92608,1,2
256,192,92709,1,0
256,192,92809,1,2
256,192,92910,1,0
256,192,93011,1,2
256,192,93111,1,0
256,192,93212,1,2
256,192,93413,1,0
256,192,93615,1,2
256,192,93816,1,0
256,192,93917,1,0
256,192,94017,1,2
256,192,94219,1,2
256,192,94319,1,0
256,192,94420,1,2
256,192,94621,1,2
256,192,94722,1,0
256,192,94823,1,2
256,192,95024,1,2
256,192,95125,1,0
256,192,95225,1,2
256,192,95427,1,2
256,192,95527,1,0
256,192,95628,1,2
256,192,95829,1,2
256,192,96031,1,2
256,192,96232,1,2
256,192,96433,1,2
256,192,96534,1,2
256,192,96635,1,2
256,192,96735,1,2
256,192,96836,1,2
256,192,96937,1,2
256,192,97037,1,2
256,192,97239,12,0,98648
256,192,98850,5,2
256,192,98950,1,2
256,192,99051,1,2
256,192,99152,1,2
256,192,99252,1,2
256,192,99353,1,2
256,192,99454,1,2
256,192,99554,1,2
256,192,100460,1,0
256,192,100662,1,0
256,192,100762,1,0
256,192,100863,1,2
256,192,100964,1,0
256,192,101064,1,0
256,192,101165,1,0
256,192,101266,1,2
256,192,101467,1,0
256,192,101668,1,2
256,192,101870,1,0
256,192,101970,1,0
256,192,102071,1,2
256,192,102272,1,0
256,192,102373,1,0
256,192,102474,1,2
256,192,102574,1,0
256,192,102675,1,0
256,192,102776,1,0
256,192,102876,1,2
256,192,103078,1,2
256,192,103178,1,2
256,192,103279,1,0
256,192,103480,1,2
256,192,103682,1,0
256,192,103883,1,0
256,192,103984,1,0
256,192,104084,1,2
256,192,104185,1,2
256,192,104286,1,0
256,192,104386,1,0
256,192,104487,1,2
256,192,104688,1,0
256,192,104890,1,2
256,192,105091,1,0
256,192,105192,1,2
256,192,105292,1,0
256,192,105494,1,0
256,192,105594,1,0
256,192,105695,1,2
256,192,105897,1,0
256,192,106098,1,2
256,192,106299,1,6
256,192,106702,1,6
256,192,106903,1,0
256,192,107105,1,0
256,192,107205,1,0
256,192,107306,1,2
256,192,107407,1,0
256,192,107507,1,0
256,192,107574,1,0
256,192,107641,1,0
256,192,107709,1,0
256,192,107910,1,0
256,192,108111,1,2
256,192,108313,1,0
256,192,108413,1,0
256,192,108514,1,2
256,192,108715,1,0
256,192,108917,1,0
256,192,109017,1,0
256,192,109118,1,0
256,192,109185,1,0
256,192,109252,1,0
256,192,109319,1,0
256,192,109521,1,0
256,192,109722,1,2
256,192,109923,1,0
256,192,110125,1,0
256,192,110326,1,0
256,192,110527,1,2
256,192,110628,1,2
256,192,110729,1,2
256,192,110829,1,2
256,192,110930,1,0
256,192,111131,1,0
256,192,111333,1,0
256,192,111433,1,0
256,192,111534,1,0
256,192,111601,1,0
256,192,111668,1,0
256,192,111735,1,0
256,192,111937,1,0
256,192,112138,1,2
256,192,112339,1,0
256,192,112541,2,0,B|112:192|112:344|112:344|184:344,1,280
