osu file format v9

[General]
AudioFilename: Second Heaven.mp3
AudioLeadIn: 2000
PreviewTime: 45695
Countdown: 0
SampleSet: Normal
StackLeniency: 0.7
Mode: 0
LetterboxInBreaks: 1

[Editor]
DistanceSpacing: 0.9
BeatDivisor: 4
GridSize: 8

[Metadata]
Title:Second Heaven
Artist:Ryu*
Creator:dksslqj
Version:Hyper
Source:Beatmania IIDX
Tags:Natteke samiljul 14 GOLD

[Difficulty]
HPDrainRate:6
CircleSize:4
OverallDifficulty:7
ApproachRate:7
SliderMultiplier:1.8
SliderTickRate:0.5

[Events]
//Background and Video events
0,0,"heaven.jpg"
//Break Periods
//Storyboard Layer 0 (Background)
//Storyboard Layer 1 (Fail)
//Storyboard Layer 2 (Pass)
//Storyboard Layer 3 (Foreground)
//Storyboard Sound Samples
//Background Colour Transformations
3,100,163,162,255

[TimingPoints]
595,402.684563758389,4,1,1,61,1,0
2004,-100,4,2,1,61,0,0
7943,-100,4,2,0,50,0,0
8345,-100,4,2,1,61,0,0
37541,-100,4,2,0,21,0,0
37742,-100,4,2,1,61,0,0
39152,-100,4,2,0,26,0,0
39353,-100,4,2,1,61,0,0
40762,-100,4,2,0,26,0,0
40963,-100,4,2,1,61,0,0
41567,-100,4,2,0,29,0,0
41768,-100,4,2,1,61,0,0
42372,-100,4,2,0,39,0,0
43982,-100,4,1,0,61,0,0
58581,-100,4,2,1,70,0,0
78313,-100,4,1,1,45,0,0
79118,-100,4,2,1,70,0,0
79923,-100,4,1,1,42,0,0
80728,-100,4,2,1,70,0,0
84756,-100,4,1,1,41,0,0
87876,-100,4,2,0,62,0,0
88278,-100,4,1,1,42,0,0
89084,-100,4,2,0,50,0,0
89285,-100,4,1,1,50,0,0
90594,-100,4,2,1,81,0,0
100460,-100,4,1,0,70,0,1
113346,-100,4,2,1,40,0,0

[Colours]
Combo1 : 132,242,137
Combo2 : 39,226,222
Combo3 : 49,49,251
Combo4 : 170,242,242

[HitObjects]
312,192,595,5,0
200,192,796,1,0
40,192,2205,6,0,B|32:96,1,90,4|0
112,40,2608,2,0,B|120:136,1,90,4|0
128,216,3011,2,0,B|176:240|216:200,1,90,4|0
288,112,3413,2,0,B|240:88|200:128,1,90,4|0
368,96,3816,6,4,B|388:277,2,180
256,240,5024,1,4
304,312,5225,1,4
208,312,5427,6,0,B|120:312,1,90,4|0
256,240,5829,2,0,B|352:240,1,90,4|0
256,152,6232,2,0,B|160:152,1,90,4|0
304,80,6635,2,0,B|392:80,1,90,4|0
456,144,7037,5,4
256,240,7440,1,4
56,144,7843,1,4
144,160,8044,1,0
144,160,8145,1,0
144,160,8246,1,4
368,160,8648,5,4
320,240,8850,1,4
184,352,9252,2,0,B|-8:352,2,180,2|2|2
192,240,10259,5,4
144,160,10461,1,4
328,32,10863,2,0,B|520:32,2,180,2|2|2
256,88,11870,5,4
256,88,12071,1,4
256,296,12474,5,2
256,296,12675,1,4
256,296,12876,1,4
184,128,13279,5,2
256,88,13480,1,4
328,128,13682,1,4
176,288,14084,6,0,B|209:321|256:334|305:321|339:287,1,180,2|2
256,88,14890,1,2
256,88,15091,1,0
376,328,17709,6,0,B|392:264|392:264|432:240|432:240|448:168,1,180
464,88,18313,5,0
376,112,18514,1,0
304,168,18715,1,0
256,248,18917,1,0
256,248,19319,1,0
208,168,19521,1,0
136,112,19722,1,0
255,182,20124,5,0
328,128,20326,1,0
300,37,20527,1,0
210,37,20728,1,0
183,128,20930,1,0
255,182,21131,1,0
256,104,21333,1,0
80,320,21735,5,0
160,288,21937,1,0
96,240,22138,1,0
432,320,22541,5,0
352,288,22743,1,0
416,240,22944,1,0
344,208,23145,6,0,B|312:168|320:120,1,90,0|0
192,124,23548,2,0,B|200:168|168:208,1,90,0|0
256,240,23950,5,0
216,312,24152,1,0
296,312,24353,1,0
256,240,24554,1,0
216,312,24756,6,0,B|160:336|160:336|104:304|136:224,1,180,4|0
378,231,25561,2,0,B|408:304|352:336|352:336|296:312,1,180,4|4
168,72,26769,6,0,B|240:112|272:40|344:72,2,180,4|4|0
88,96,27776,1,0
152,144,27977,5,4
360,144,28380,1,0
256,272,28782,1,4
216,200,28984,1,0
296,200,29185,1,4
168,272,29588,5,0
344,272,29990,1,4
344,112,30393,1,4
168,112,30795,1,0
256,272,31199,5,0
168,248,31400,2,0,B|72:216,2,90
256,272,32004,1,0
344,248,32205,2,0,B|440:216,2,90
256,272,32809,1,0
255,182,33011,5,0
328,128,33213,1,0
300,37,33414,1,0
210,37,33615,1,0
183,128,33817,1,0
255,182,34018,1,0
256,104,34220,1,0
136,312,34621,6,0,B|88:320|48:296,2,90
376,312,35427,2,0,B|424:320|464:296,2,90
352,224,36031,2,0,B|336:128,1,90
152,160,36433,2,0,B|168:256,1,90
256,272,36836,1,0
256,184,37037,2,0,B|240:88,2,90
256,272,37641,5,4
96,328,38044,2,0,B|32:304|0:208|16:136|88:80,1,270
176,232,39051,1,0
256,272,39252,5,4
416,328,39655,2,0,B|480:304|512:208|496:136|424:80,1,270
328,232,40662,1,0
256,272,40863,5,4
80,80,41266,1,0
256,272,41668,1,4
432,80,42071,1,0
256,96,42474,5,4
456,192,42876,1,4
256,304,43279,1,4
56,192,43682,1,4
256,192,44084,12,4,45695
32,192,46098,5,0
184,240,46501,1,0
184,240,46702,1,0
328,144,46903,1,0
328,144,47105,1,0
480,192,47306,5,4
328,144,47709,1,0
184,240,48111,1,0
184,240,48313,1,0
112,184,48514,1,0
64,120,48715,1,0
32,192,48917,5,4
80,256,49118,1,0
80,256,49219,1,0
80,256,49319,2,0,B|88:304|128:328,1,90
288,232,49722,2,0,B|280:184|240:160,1,90
184,240,50125,1,0
240,304,50326,1,0
240,304,50427,1,0
240,304,50527,6,0,B|288:328|344:296,1,90,0|0
328,160,50930,2,0,B|280:136|224:168,1,90,0|0
152,160,51333,1,0
312,248,51735,1,0
400,224,51937,1,0
328,160,52138,6,0,B|352:56|480:32,2,180,4|0|0
256,224,53145,1,0
256,224,53346,2,0,B|160:248,1,90
147,252,53648,1,0
125,259,53749,1,0
40,96,53950,1,0
56,104,54051,1,0
72,112,54152,1,0
88,120,54252,1,0
104,128,54353,1,0
120,136,54454,1,0
136,144,54554,6,0,B|224:88,1,90
352,96,54957,2,0,B|264:152,1,90
208,208,55360,6,0,B|256:304|360:296,2,180,4|0|0
248,128,56366,1,0
248,128,56568,1,0
160,128,56769,1,0
160,128,56870,1,0
160,128,56970,2,0,B|152:176|96:200,1,90,0|0
16,184,57373,2,0,B|24:136|80:112,1,90
128,48,57776,5,0
384,48,58178,1,0
400,136,58380,1,0
384,224,58581,5,4
128,224,58984,1,4
384,224,59386,1,4
296,264,59588,2,0,B|296:352,2,90,0|4|0
216,216,60192,2,0,B|216:128,1,90,4|0
304,96,60594,1,4
232,48,60796,6,0,B|128:40|56:120,1,180,0|0
40,192,61400,1,4
104,256,61601,1,4
128,168,61803,5,4
384,168,62205,1,4
128,168,62608,1,4
211,201,62809,1,0
299,201,63011,1,4
384,168,63212,6,0,B|440:256|384:352,1,180,0|0
299,341,63816,1,4
211,341,64017,1,0
256,272,64219,1,4
192,104,64621,2,4,B|104:72,1,90
112,160,65024,6,0,B|160:248|112:344,2,180,4|4|4
256,48,66232,1,4
400,160,66635,2,4,B|352:248|400:344,2,180
472,104,67641,2,0,B|496:16,2,90,0|4|4
384,72,68246,6,4,B|200:56,1,180
128,312,69051,2,4,B|312:328,1,180
56,136,69856,1,4
120,88,70058,1,0
192,128,70259,1,4
168,208,70460,1,0
88,216,70662,1,4
344,208,71064,1,4
320,128,71265,1,4
392,88,71466,5,4
312,296,71870,1,4
256,88,72272,1,4
176,296,72675,1,4
120,88,73078,6,4,B|120:192|32:264,1,180
49,248,73682,2,0,B|248:272,2,180,2|2|4
32,168,74688,5,4
144,352,75091,1,4
256,168,75494,1,4
368,352,75897,1,4
480,168,76299,6,4,B|432:88|336:56,1,180
342,58,76903,2,0,B|256:216,2,180,2|2|0
256,40,77910,5,4
192,88,78111,1,4
320,144,78514,1,4
192,216,78917,1,8
320,296,79319,1,2
256,344,79521,5,4
192,296,79722,1,4
320,216,80125,1,4
192,144,80527,1,8
320,72,80930,1,2
256,24,81131,5,4
256,360,81937,5,4
200,192,82742,5,4
312,192,82943,1,4
256,192,83145,12,4,84353
424,128,85158,5,8
424,128,85561,1,8
88,128,86366,5,4
88,128,86769,1,4
80,336,87574,6,8,B|288:328,1,180,8|0
352,288,88178,1,0
352,288,88380,2,4,B|344:96,2,180,4|8|0
160,256,89588,1,8
240,72,89990,1,4
416,296,90796,6,0,B|456:152,2,135
320,328,91601,2,0,B|216:320,1,90
168,248,92004,1,0
96,88,92407,6,0,B|56:232,2,135
192,56,93212,2,0,B|296:64,1,90
344,136,93615,1,0
256,312,94017,5,0
168,264,94219,2,0,B|112:224,2,45
344,264,94621,2,0,B|400:224,2,45
216,192,95024,2,0,B|168:144,2,45
296,192,95427,2,0,B|344:144,2,45
256,112,95829,5,0
256,112,96031,1,0
256,112,96232,1,0
256,272,96433,6,0,B|256:328,7,45
200,320,98850,5,0
216,320,98950,1,0
232,320,99051,1,0
248,320,99152,1,0
264,320,99252,1,0
280,320,99353,1,0
296,320,99454,1,0
312,320,99554,1,0
256,192,99655,12,4,100460
304,80,100863,6,0,B|408:80,1,90
208,80,101266,2,0,B|104:80,1,90
176,160,101668,2,0,B|240:216|280:128|352:176,1,180,0|4
384,264,102272,1,0
384,264,102373,1,0
384,264,102474,2,0,B|312:336,1,90
191,327,102876,2,0,B|128:264,1,90
256,248,103279,2,0,B|256:152,1,90
200,80,103682,6,0,B|112:112|72:208,2,180,4|0|0
296,112,104688,1,0
224,176,104890,1,0
352,264,105091,5,0
352,264,105192,1,0
352,264,105292,2,0,B|392:232|400:176,1,90
342,36,105695,2,0,B|302:68|294:124,1,90
280,208,106098,2,0,B|200:256|88:208,1,180
88,120,106702,1,0
88,120,106903,5,4
88,120,107105,1,0
256,256,107507,6,0,B|256:304,2,45
184,200,107910,1,0
256,152,108111,1,0
328,200,108313,1,0
256,256,108514,6,0,B|256:344,1,90,4|0
168,344,108917,1,0
152,336,109017,1,0
136,328,109118,1,0
120,320,109219,1,0
104,312,109319,2,0,B|80:216,1,90
163,113,109722,2,0,B|187:209,1,90
256,256,110125,5,4
256,256,110326,1,0
320,192,110527,2,0,B|352:160,4,45,0|0|0|0|4
256,128,111131,1,0
192,192,111333,2,0,B|160:224,4,45,0|0|0|0|4
152,112,111937,1,0
208,40,112138,1,0
304,40,112339,1,0
360,112,112540,1,0
256,192,112641,12,0,113346
