osu file format v5

[General]
AudioFilename: Second Heaven.mp3
AudioLeadIn: 1996
PreviewTime: -1
Countdown: 0
SampleSet: Normal
StackLeniency: 0.2
Mode: 0
LetterboxInBreaks: 1

[Editor]
DistanceSpacing: 0.800000011920929
BeatDivisor: 2
GridSize: 8

[Metadata]
Title:Second Heaven
Artist:Ryu
Creator:daniel32333
Version:Normal
Source:beatmania IIDX 14 GOLD
Tags:beatmania IIDX 14 GOLD Ryu

[Difficulty]
HPDrainRate:1
CircleSize:4
OverallDifficulty:3
SliderMultiplier:0.7
SliderTickRate:1

[Events]
//Background and Video events
Video,-833,"SecondHeaven.avi"
0,0,"bm2dx14_title.jpg"
//Break Periods
2,30555,42612
2,70220,82886
//Storyboard Layer 0 (Background)
//Storyboard Layer 1 (Fail)
//Storyboard Layer 2 (Pass)
//Storyboard Layer 3 (Foreground)
//Storyboard Sound Samples
//Background Colour Transformations
3,100,255,0,255

[TimingPoints]
2168,402.684563758389,4,1,0,100,1,0
18109,-100,4,2,0,100,0,0
43653,-100,4,1,0,100,0,0
45667,-100,4,1,0,100,0,1
58555,-100,4,2,0,100,0,0
84114,-100,4,1,0,100,0,0
100440,-100,4,1,0,100,0,1

[HitObjects]
256,192,758,5,0
192,128,2369,6,2,L|264:128,3,70,2|2|2|2
320,128,3980,2,2,L|320:208,3,70
320,256,5590,6,2,L|216:256,3,70,2|2|2|2
192,256,7201,2,2,L|192:184,3,70
256,192,8813,5,0
256,192,10424,5,2
144,192,12035,5,0
256,80,12840,1,0
368,192,13645,1,0
256,304,14451,1,0
176,296,15053,6,0,C|176:152|312:280|320:104,1,490
376,112,18277,5,0
264,112,19080,1,0
184,192,19886,5,2
240,192,20288,1,2
296,192,20691,1,2
264,296,21496,5,0
152,296,22299,1,0
56,240,23107,6,0,C|56:72,1,140
160,136,24718,5,0
248,64,25523,1,2
296,32,25926,1,0
360,120,26731,5,0
384,168,27134,1,0
296,232,27939,5,0
224,320,28744,1,2
168,320,29147,1,0
168,208,29952,5,0
168,152,30355,1,0
256,192,44052,12,4,45260
56,280,45657,5,0
112,280,46060,1,0
168,280,46463,2,2,C|232:208,1,70
256,192,47268,5,0
312,192,47671,1,0
368,192,48074,2,2,C|368:112,1,70
320,88,48879,5,0
264,88,49282,1,0
208,88,49684,2,2,C|120:88,1,70
128,144,50490,5,4
168,184,50892,1,4
208,216,51295,1,4
96,224,52100,5,0
96,280,52503,1,0
152,280,52906,2,2,C|152:336,2,35
208,280,53711,5,0
264,280,54114,1,0
320,280,54517,2,2,C|368:280,2,35
320,224,55322,5,0
320,168,55725,1,0
320,112,56127,2,2,C|376:112,2,35
264,112,56933,5,6
208,112,57335,1,6
152,112,57738,1,6
56,48,58543,5,0
56,104,58946,1,0
56,160,59349,1,0
168,160,59953,2,2,C|168:208,2,35
224,160,60758,1,0
280,160,61161,2,2,C|280:120,1,35
280,64,61765,5,2
336,64,62167,1,2
392,64,62570,1,2
392,144,63174,1,0
392,200,63577,1,2
240,320,64986,5,0
200,280,65389,1,0
160,240,65792,1,0
96,184,66396,1,2
96,184,66597,1,2
96,184,66798,1,2
96,128,67201,1,0
96,72,67604,1,2
96,72,67805,1,2
152,72,68208,5,2
192,112,68610,1,2
232,152,69013,1,2
312,152,69617,1,0
368,152,70020,1,2
88,128,84326,5,0
168,48,85132,1,8
224,48,85534,1,0
296,136,86340,1,0
336,176,86743,1,8
256,256,87548,5,0
336,336,88354,1,8
376,296,88756,1,0
424,192,89562,1,0
368,192,89965,1,8
256,192,90770,5,0
256,192,92381,5,0
256,192,93992,5,0
256,192,94395,1,0
256,192,94797,1,0
256,192,95200,1,0
256,192,95590,12,0,97000
256,192,97214,12,4,98422
256,192,98825,6,2,B|256:168,7,17.5
256,48,100423,5,2
312,48,100825,1,2
352,88,101228,1,0
368,104,101429,1,0
384,120,101631,1,0
392,176,102033,5,2
392,232,102436,1,2
352,272,102839,1,0
328,288,103040,1,0
304,304,103241,1,0
248,304,103644,5,2
192,304,104047,1,2
152,264,104449,1,0
136,240,104651,1,0
120,216,104852,1,0
112,160,105255,5,0
112,160,105456,1,0
112,160,105657,1,0
112,160,105859,1,0
112,160,106060,1,0
112,48,106865,5,0
168,48,107268,1,0
224,48,107671,1,8
224,48,107872,1,8
224,48,108074,1,8
264,88,108476,5,0
320,88,108879,1,0
376,88,109282,1,8
376,88,109483,1,8
376,88,109684,1,8
376,144,110087,5,0
376,200,110490,1,0
376,256,110892,1,8
376,256,111094,1,8
376,256,111295,1,8
328,288,111698,6,2,C|272:288,4,35
256,192,113308,5,4
