osu file format v5

[General]
AudioFilename: Second Heaven.mp3
AudioLeadIn: 1985
PreviewTime: -1
Countdown: 0
SampleSet: Normal
StackLeniency: 0.2
Mode: 0
LetterboxInBreaks: 1

[Editor]
DistanceSpacing: 0.800000011920929
BeatDivisor: 4
GridSize: 8

[Metadata]
Title:Second Heaven
Artist:Ryu
Creator:daniel32333
Version:Another
Source:beatmania IIDX 14 GOLD
Tags:beatmania IIDX 14 GOLD Ryu

[Difficulty]
HPDrainRate:3
CircleSize:5
OverallDifficulty:7
SliderMultiplier:2
SliderTickRate:1

[Events]
//Background and Video events
Video,-833,"SecondHeaven.avi"
0,0,"bm2dx14_skin_2.jpg"
//Break Periods
2,29959,36562
2,70836,83130
//Storyboard Layer 0 (Background)
//Storyboard Layer 1 (Fail)
//Storyboard Layer 2 (Pass)
//Storyboard Layer 3 (Foreground)
Sprite,Foreground,Centre,"Speed_Up.png",320,240 M,0,98711,99819,403,79,322,387 S,0,99819,,1.34816 M,0,99819,100221,322,387 F,0,100221,100423,1,0
//Storyboard Sound Samples
//Background Colour Transformations
3,100,255,0,255

[TimingPoints]
2168,402.684563758389,4,1,0,100,1,0
18109,-200,4,2,0,100,0,0
43754,-100,4,1,0,100,0,0
45667,-100,4,1,0,100,0,1
58555,-100,4,2,0,100,0,0
83927,-100,4,1,0,100,0,0
98627,-100,4,1,0,100,0,0
100440,-50,4,1,0,100,0,1

[HitObjects]
256,192,557,1,0
256,192,758,1,0
40,56,2167,5,0
72,128,2369,1,2
112,56,2570,1,0
144,128,2772,1,2
184,56,2973,1,0
216,128,3174,1,2
256,56,3376,1,0
288,128,3577,1,2
328,56,3778,5,0
392,96,3980,1,2
392,176,4181,1,2
328,232,4382,1,2
168,232,4785,1,2
40,312,5188,5,0
72,240,5389,1,0
112,312,5591,1,2
144,240,5792,1,0
184,312,5993,1,2
216,240,6195,1,0
256,312,6396,1,2
296,240,6598,1,0
336,304,6799,5,2
392,248,7000,1,0
392,168,7202,1,2
392,88,7403,1,2
312,88,7604,1,2
152,88,8007,1,2
48,192,8410,1,2
48,192,8611,6,0,B|168:192,1,100,0|0
464,192,10222,6,0,B|344:192,1,100
376,312,11833,6,0,B|296:232,1,100
376,72,12639,6,0,B|280:168,1,100
136,72,13444,6,0,B|256:192,1,100
136,304,14250,6,0,B|216:232,1,100
40,352,15055,6,0,L|40:0|320:0|368:176|112:176|400:352,1,1400,0|0
408,280,18277,5,0
328,280,18680,1,0
248,280,19082,1,0
128,280,19687,5,2
128,240,19888,1,2
128,200,20089,1,2
128,120,20492,1,2
208,120,20895,1,2
248,120,21096,1,2
216,40,21499,5,0
136,40,21902,1,0
56,40,22304,1,0
56,160,22908,1,2
56,240,23311,1,2
320,328,24721,6,0,B|448:328,2,100
320,208,26130,2,2,B|384:208,2,50
320,128,26936,1,0
320,48,27339,1,2
280,48,27540,1,2
200,48,27943,6,0,B|64:48,2,100
200,168,29352,1,2
200,248,29755,1,2
40,56,37608,5,0
472,64,39219,5,0
328,320,40830,5,2
184,320,41636,5,2
184,192,42441,5,4
256,120,42844,5,4
328,192,43247,5,4
256,264,43649,5,4
256,192,44052,12,4,45260
72,64,45663,5,0
152,64,45865,1,0
184,88,45965,1,0
264,88,46167,1,0
304,80,46267,1,0
344,72,46368,1,0
384,64,46469,1,0
440,112,46670,1,2
440,192,46871,1,2
440,272,47073,6,0,L|440:328,2,50
360,296,47476,1,0
320,296,47576,1,2
248,328,47778,1,0
224,296,47878,1,0
184,312,47979,1,0
144,312,48080,1,0
144,232,48281,1,2
144,152,48482,1,2
216,152,48684,1,2
296,152,48885,5,0
376,152,49086,1,2
400,184,49187,1,2
352,248,49389,1,0
328,280,49489,1,0
304,312,49590,1,0
264,304,49691,1,0
192,272,49892,1,2
112,272,50093,1,2
56,216,50295,6,0,L|120:176,2,50
56,136,50697,1,2
120,88,50899,1,0
192,120,51100,1,2
256,80,51302,2,2,L|472:176,1,200
440,320,52107,5,0
360,304,52309,1,0
336,336,52409,1,0
264,304,52611,1,0
232,280,52711,1,0
200,256,52812,1,0
168,232,52913,1,0
112,176,53114,1,2
160,112,53315,1,2
232,80,53517,6,0,L|232:136,2,50
312,80,53920,1,0
352,80,54020,1,2
408,136,54222,1,0
392,176,54322,1,0
368,208,54423,1,0
336,232,54524,1,0
256,248,54725,1,2
176,248,54926,1,2
96,248,55128,1,2
48,176,55329,5,0
88,104,55530,1,2
120,88,55631,1,2
192,64,55832,1,0
232,48,55933,1,0
272,48,56034,1,0
312,48,56135,1,0
384,72,56336,1,2
448,112,56537,1,2
448,192,56739,6,0,L|448:288,2,50
368,192,57141,1,2
328,264,57343,1,0
288,336,57544,1,2
248,264,57746,2,2,L|248:32,1,200
104,80,58752,5,0
184,80,58954,1,0
264,80,59155,1,0
424,80,59558,5,2
424,160,59759,1,2
424,240,59960,1,2
288,328,60363,5,0
216,288,60565,1,0
152,240,60766,1,2
80,200,60967,1,2
80,120,61169,1,0
144,72,61370,1,2
208,32,61571,1,2
368,32,61974,5,0
424,88,62175,1,0
472,152,62377,1,0
312,152,62780,5,2
232,152,62981,1,2
152,152,63182,1,2
104,216,63384,1,0
152,280,63585,1,0
232,280,63786,1,2
312,280,63988,1,0
392,280,64189,1,2
320,240,64391,1,2
248,200,64592,1,2
176,160,64793,1,2
112,120,64986,5,0
112,32,65196,2,2,B|0:32,2,100,0|2|0
192,32,65792,5,0
272,32,66001,2,2,B|368:128,2,100,2|2|2
344,32,66597,5,0
432,32,66807,1,0
432,112,67008,1,0
432,192,67210,1,0
432,272,67411,2,2,B|352:344,3,100
280,336,68208,5,0
192,336,68418,2,2,B|72:336,2,100,2|2|2
192,256,69013,5,0
192,168,69223,2,0,B|72:168,2,100
272,168,69827,6,2,B|352:80,4,100
64,128,84326,5,0
128,88,84527,2,2,L|176:56,1,50
224,112,84830,2,0,L|256:152,3,50
336,152,85333,1,2
416,152,85534,1,2
424,232,85736,6,0,L|424:288,2,50
352,264,86138,2,2,L|280:264,1,50
224,264,86440,2,0,L|224:200,3,50
144,232,86944,1,2
88,168,87145,1,2
80,88,87347,1,2
152,48,87548,5,0
232,48,87749,1,0
232,48,87850,1,0
312,48,88051,1,0
312,48,88152,1,0
312,48,88253,1,0
312,48,88353,1,0
384,80,88555,1,2
424,152,88756,1,2
352,192,88958,5,0
320,216,89058,1,0
288,192,89159,1,2
208,168,89360,1,2
128,192,89562,1,0
80,256,89763,1,0
144,304,89964,2,2,L|344:304,1,200
256,192,90770,5,0
320,144,90971,1,2
344,112,91072,1,2
280,56,91273,2,0,L|232:24,3,50
160,48,91777,1,2
136,120,91978,1,2
192,168,92179,1,0
224,184,92280,1,2
256,192,92381,5,0
320,240,92582,1,2
344,272,92683,1,2
280,328,92884,2,0,L|232:360,3,50
160,336,93388,1,2
136,264,93589,1,2
192,216,93790,1,0
220,205,93891,1,0
256,192,93992,5,0
211,125,94193,1,0
234,157,94294,1,0
256,192,94395,5,0
312,128,94596,1,0
288,160,94697,1,0
256,192,94797,5,0
328,256,94999,1,0
296,224,95099,1,0
256,192,95200,5,0
224,280,95401,1,0
224,232,95502,1,0
224,192,95603,6,0,L|120:192,3,100
288,192,96408,6,0,L|344:192,7,50
256,192,97214,12,4,98422
256,192,98825,6,2,L|336:192,7,50
80,80,100436,5,0
200,80,100637,2,0,B|312:80,1,100,0|0
416,88,100939,2,2,B|416:192,3,100
416,304,101442,1,0
320,232,101644,1,2
200,232,101845,6,0,L|120:304,2,100
200,112,102248,2,2,B|104:192,1,100
128,56,102550,2,0,B|256:56,3,100
344,56,103053,1,2
408,160,103255,1,2
344,272,103456,1,2
224,272,103658,5,0
104,272,103859,2,2,B|104:168,1,100
104,48,104161,2,2,B|208:48,3,100
288,136,104664,1,0
288,256,104866,1,0
408,256,105067,6,2,B|408:152,1,100
408,96,105268,1,0
304,32,105470,1,0
184,32,105671,1,2
80,96,105873,1,0
80,208,106060,2,2,C|208:304|296:312|440:160,1,400
112,40,106879,5,0
264,40,107067,2,2,C|368:40,1,100
440,192,107383,2,0,L|368:192,5,50
264,296,107886,1,2
104,296,108088,1,2
400,48,108490,5,2
240,48,108692,1,2
96,128,108893,2,0,L|96:184,8,50
160,272,109497,1,2
312,224,109699,1,2
232,96,109900,1,2
80,144,110101,5,0
400,152,110504,2,0,B|328:152,5,50
400,264,110907,5,0
80,264,111310,2,0,B|152:264,5,50
128,160,111712,5,0
256,64,111914,1,0
376,160,112115,1,0
328,320,112316,1,0
184,320,112518,1,0
256,192,113323,5,4
