osu file format v12

[General]
AudioFilename: Ryu - Second Heaven.mp3
AudioLeadIn: 0
PreviewTime: 44084
Countdown: 0
SampleSet: Soft
StackLeniency: 0.7
Mode: 3
LetterboxInBreaks: 0
SpecialStyle: 0
WidescreenStoryboard: 0

[Editor]
DistanceSpacing: 0.9
BeatDivisor: 4
GridSize: 8

[Metadata]
Title:Second Heaven
TitleUnicode:Second Heaven
Artist:Ryu*
ArtistUnicode:Ryu☆
Creator:Spy
Version:4K Another
Source:beatmania IIDX
Tags:-_R_u_m_i_a_- Kuo Kyoka Mashiro-Fang victorica_db Simple_Star 14 GOLD DanceDanceRevolution X2 jubeat saucer pop'n music 17 THE MOVIE REFLEC BEAT + plus starmine HANDZ UP collab
BeatmapID:378316
BeatmapSetID:153971

[Difficulty]
HPDrainRate:8
CircleSize:4
OverallDifficulty:10
ApproachRate:5
SliderMultiplier:1.4
SliderTickRate:1

[Events]
//Background and Video events
0,0,"BG.jpg",0,0
Video,-1150,"BGA.avi"
//Break Periods
//Storyboard Layer 0 (Background)
//Storyboard Layer 1 (Fail)
//Storyboard Layer 2 (Pass)
//Storyboard Layer 3 (Foreground)
//Storyboard Sound Samples
//Background Colour Transformations
3,100,163,162,255

[TimingPoints]
595,402.684563758389,4,2,1,55,1,0
45695,-100,4,2,1,55,0,1
58581,-100,4,2,1,55,0,0
100460,-100,4,2,1,55,0,1
113346,-100,4,2,1,55,0,0

[HitObjects]
64,192,595,1,0,0:0:0:0:
448,192,595,1,8,0:0:0:0:
192,192,796,1,4,0:0:0:0:
320,192,796,1,8,0:0:0:0:
320,192,2205,1,4,0:0:0:0:
448,192,2205,1,8,0:0:0:0:
192,192,2407,1,0,0:0:0:0:
320,192,2608,1,0,0:0:0:0:
448,192,2608,1,8,0:0:0:0:
320,192,3011,1,0,0:0:0:0:
448,192,3011,1,8,0:0:0:0:
192,192,3212,1,0,0:0:0:0:
320,192,3313,1,0,0:0:0:0:
192,192,3413,1,0,0:0:0:0:
64,192,3413,1,8,0:0:0:0:
320,192,3615,1,0,0:0:0:0:
192,192,3715,1,0,0:0:0:0:
320,192,3816,1,0,0:0:0:0:
448,192,3816,1,8,0:0:0:0:
192,192,4219,1,0,0:0:0:0:
448,192,4219,1,8,0:0:0:0:
320,192,4219,1,0,0:0:0:0:
64,192,4420,1,0,0:0:0:0:
320,192,4420,1,0,0:0:0:0:
448,192,4621,1,8,0:0:0:0:
192,192,4621,1,0,0:0:0:0:
64,192,4823,1,0,0:0:0:0:
192,192,4923,1,0,0:0:0:0:
320,192,5024,1,0,0:0:0:0:
448,192,5024,1,8,0:0:0:0:
64,192,5225,1,0,0:0:0:0:
192,192,5225,1,0,0:0:0:0:
448,192,5225,1,8,0:0:0:0:
320,192,5427,1,8,0:0:0:0:
192,192,5427,1,4,0:0:0:0:
64,192,5427,1,0,0:0:0:0:
448,192,5628,1,0,0:0:0:0:
64,192,5829,1,0,0:0:0:0:
320,192,5829,1,8,0:0:0:0:
192,192,6031,1,0,0:0:0:0:
448,192,6232,1,8,0:0:0:0:
64,192,6232,1,0,0:0:0:0:
320,192,6433,1,0,0:0:0:0:
448,192,6534,1,0,0:0:0:0:
320,192,6635,1,8,0:0:0:0:
64,192,6635,1,0,0:0:0:0:
192,192,6836,1,0,0:0:0:0:
64,192,6937,1,0,0:0:0:0:
192,192,7037,1,0,0:0:0:0:
448,192,7037,1,8,0:0:0:0:
64,192,7440,1,0,0:0:0:0:
192,192,7440,1,0,0:0:0:0:
320,192,7440,1,8,0:0:0:0:
448,192,7641,1,0,0:0:0:0:
64,192,7843,1,0,0:0:0:0:
320,192,7843,1,8,0:0:0:0:
192,192,8044,1,0,0:0:0:0:
320,192,8145,1,0,0:0:0:0:
64,192,8246,1,0,0:0:0:0:
448,192,8246,1,4,0:0:0:0:
192,192,8447,1,0,0:0:0:0:
64,192,8648,1,0,0:0:0:0:
320,192,8648,1,0,0:0:0:0:
448,192,8648,1,8,0:0:0:0:
192,192,8850,1,4,0:0:0:0:
320,192,8850,1,8,0:0:0:0:
448,192,9252,1,0,0:0:0:0:
448,192,9655,1,0,0:0:0:0:
320,192,9756,1,0,0:0:0:0:
192,192,9856,1,0,0:0:0:0:
320,192,10058,1,8,0:0:0:0:
64,192,10058,1,0,0:0:0:0:
192,192,10259,1,0,0:0:0:0:
64,192,10259,1,0,0:0:0:0:
448,192,10259,1,8,0:0:0:0:
192,192,10460,1,4,0:0:0:0:
320,192,10460,1,8,0:0:0:0:
64,192,10460,1,0,0:0:0:0:
448,192,10662,1,0,0:0:0:0:
320,192,10863,1,0,0:0:0:0:
64,192,11266,1,0,0:0:0:0:
192,192,11366,1,0,0:0:0:0:
320,192,11467,1,0,0:0:0:0:
64,192,11668,1,0,0:0:0:0:
192,192,11870,1,0,0:0:0:0:
320,192,11870,1,0,0:0:0:0:
448,192,11870,1,8,0:0:0:0:
64,192,12071,1,4,0:0:0:0:
448,192,12071,1,0,0:0:0:0:
320,192,12474,1,0,0:0:0:0:
192,192,12675,1,0,0:0:0:0:
64,192,12675,1,0,0:0:0:0:
448,192,12675,1,8,0:0:0:0:
192,192,12876,1,0,0:0:0:0:
320,192,12876,1,4,0:0:0:0:
448,192,12977,1,0,0:0:0:0:
320,192,13078,1,0,0:0:0:0:
192,192,13279,1,0,0:0:0:0:
64,192,13480,1,8,0:0:0:0:
320,192,13480,1,0,0:0:0:0:
448,192,13480,1,0,0:0:0:0:
192,192,13682,1,4,0:0:0:0:
448,192,13682,1,8,0:0:0:0:
64,192,13883,1,0,0:0:0:0:
192,192,13984,1,0,0:0:0:0:
320,192,14084,1,0,0:0:0:0:
448,192,14084,1,0,0:0:0:0:
192,192,14185,1,0,0:0:0:0:
64,192,14286,1,0,0:0:0:0:
192,192,14386,1,0,0:0:0:0:
320,192,14487,1,0,0:0:0:0:
192,192,14588,1,0,0:0:0:0:
448,192,14688,1,0,0:0:0:0:
320,192,14688,1,0,0:0:0:0:
192,192,14789,1,0,0:0:0:0:
64,192,14789,1,0,0:0:0:0:
448,192,14890,1,0,0:0:0:0:
320,192,14940,1,0,0:0:0:0:
192,192,14990,1,0,0:0:0:0:
64,192,15041,1,0,0:0:0:0:
192,192,15091,1,0,0:0:0:0:
448,192,15091,1,4,0:0:0:0:
448,192,18313,1,0,0:0:0:0:
320,192,18514,1,0,0:0:0:0:
192,192,18715,1,0,0:0:0:0:
64,192,18917,1,0,0:0:0:0:
64,192,19118,1,0,0:0:0:0:
192,192,19319,1,0,0:0:0:0:
320,192,19521,1,0,0:0:0:0:
448,192,19722,1,0,0:0:0:0:
448,192,19923,1,0,0:0:0:0:
320,192,20125,1,0,0:0:0:0:
192,192,20326,1,0,0:0:0:0:
64,192,20527,1,0,0:0:0:0:
64,192,20729,1,0,0:0:0:0:
448,192,20729,1,0,0:0:0:0:
192,192,20729,1,0,0:0:0:0:
320,192,20930,1,0,0:0:0:0:
64,192,20930,1,0,0:0:0:0:
192,192,21131,1,0,0:0:0:0:
320,192,21131,1,0,0:0:0:0:
448,192,21131,1,0,0:0:0:0:
448,192,21333,1,0,0:0:0:0:
192,192,21333,1,0,0:0:0:0:
448,192,21534,1,0,0:0:0:0:
320,192,21735,1,0,0:0:0:0:
192,192,21937,1,0,0:0:0:0:
64,192,22138,1,0,0:0:0:0:
64,192,22339,1,0,0:0:0:0:
192,192,22541,1,0,0:0:0:0:
320,192,22742,1,0,0:0:0:0:
448,192,22943,1,0,0:0:0:0:
192,192,23145,1,0,0:0:0:0:
64,192,23346,1,0,0:0:0:0:
192,192,23548,1,0,0:0:0:0:
320,192,23749,1,0,0:0:0:0:
192,192,23950,1,0,0:0:0:0:
64,192,24152,1,0,0:0:0:0:
192,192,24353,1,0,0:0:0:0:
320,192,24554,1,0,0:0:0:0:
320,192,24756,1,0,0:0:0:0:
448,192,24756,1,8,0:0:0:0:
64,192,24756,1,0,0:0:0:0:
192,192,24957,1,0,0:0:0:0:
320,192,25158,1,0,0:0:0:0:
64,192,25158,1,0,0:0:0:0:
192,192,25360,1,0,0:0:0:0:
192,192,25561,1,0,0:0:0:0:
320,192,25561,1,2,0:0:0:0:
448,192,25561,1,2,0:0:0:0:
320,192,25762,1,0,0:0:0:0:
64,192,25964,1,0,0:0:0:0:
320,192,25964,1,8,0:0:0:0:
192,192,26165,1,0,0:0:0:0:
320,192,26366,1,0,0:0:0:0:
448,192,26568,1,0,0:0:0:0:
320,192,26769,1,8,0:0:0:0:
64,192,26769,1,0,0:0:0:0:
192,192,26970,1,0,0:0:0:0:
320,192,27172,1,2,0:0:0:0:
448,192,27172,1,2,0:0:0:0:
64,192,27172,1,0,0:0:0:0:
192,192,27373,1,0,0:0:0:0:
320,192,27574,1,0,0:0:0:0:
64,192,27574,1,0,0:0:0:0:
192,192,27776,1,0,0:0:0:0:
64,192,27977,1,0,0:0:0:0:
448,192,27977,1,8,0:0:0:0:
192,192,28178,1,0,0:0:0:0:
320,192,28380,1,0,0:0:0:0:
64,192,28380,1,0,0:0:0:0:
192,192,28581,1,0,0:0:0:0:
320,192,28782,1,2,0:0:0:0:
448,192,28782,1,2,0:0:0:0:
64,192,28782,1,0,0:0:0:0:
192,192,28984,1,0,0:0:0:0:
320,192,29185,1,8,0:0:0:0:
64,192,29185,1,0,0:0:0:0:
192,192,29386,1,0,0:0:0:0:
448,192,29588,1,0,0:0:0:0:
320,192,29789,1,0,0:0:0:0:
192,192,29990,1,0,0:0:0:0:
448,192,29990,1,8,0:0:0:0:
64,192,30192,1,0,0:0:0:0:
320,192,30393,1,2,0:0:0:0:
448,192,30393,1,2,0:0:0:0:
192,192,30393,1,0,0:0:0:0:
64,192,30594,1,0,0:0:0:0:
192,192,30796,1,0,0:0:0:0:
320,192,30997,1,0,0:0:0:0:
64,192,31199,1,0,0:0:0:0:
448,192,31199,1,0,0:0:0:0:
192,192,31400,1,0,0:0:0:0:
320,192,31601,1,0,0:0:0:0:
192,192,31803,1,0,0:0:0:0:
64,192,32004,1,0,0:0:0:0:
448,192,32205,1,0,0:0:0:0:
320,192,32407,1,0,0:0:0:0:
448,192,32608,1,0,0:0:0:0:
64,192,32809,1,0,0:0:0:0:
192,192,33011,1,0,0:0:0:0:
320,192,33212,1,0,0:0:0:0:
448,192,33413,1,0,0:0:0:0:
64,192,33615,1,0,0:0:0:0:
320,192,33615,1,0,0:0:0:0:
192,192,33816,1,0,0:0:0:0:
320,192,34017,1,0,0:0:0:0:
64,192,34017,1,0,0:0:0:0:
448,192,34219,1,0,0:0:0:0:
64,192,34420,1,0,0:0:0:0:
192,192,34621,1,0,0:0:0:0:
320,192,34823,1,0,0:0:0:0:
448,192,35024,1,0,0:0:0:0:
64,192,35225,1,0,0:0:0:0:
192,192,35427,1,0,0:0:0:0:
64,192,35628,1,0,0:0:0:0:
192,192,35829,1,0,0:0:0:0:
320,192,36031,1,0,0:0:0:0:
64,192,36031,1,0,0:0:0:0:
192,192,36232,1,0,0:0:0:0:
448,192,36232,1,0,0:0:0:0:
320,192,36433,1,0,0:0:0:0:
64,192,36433,1,0,0:0:0:0:
192,192,36635,1,0,0:0:0:0:
448,192,36635,1,0,0:0:0:0:
320,192,36836,1,0,0:0:0:0:
64,192,36836,1,0,0:0:0:0:
448,192,37037,1,0,0:0:0:0:
320,192,37239,1,0,0:0:0:0:
64,192,37440,1,0,0:0:0:0:
192,192,37641,1,0,0:0:0:0:
448,192,37641,1,0,0:0:0:0:
320,192,37641,1,0,0:0:0:0:
64,192,37641,1,4,0:0:0:0:
320,192,37843,1,0,0:0:0:0:
448,192,38044,1,0,0:0:0:0:
320,192,38246,1,0,0:0:0:0:
192,192,38648,1,0,0:0:0:0:
64,192,38850,1,0,0:0:0:0:
192,192,39051,1,0,0:0:0:0:
192,192,39252,1,0,0:0:0:0:
320,192,39252,1,0,0:0:0:0:
448,192,39252,1,0,0:0:0:0:
64,192,39252,1,4,0:0:0:0:
192,192,39454,1,0,0:0:0:0:
320,192,39655,1,0,0:0:0:0:
192,192,39856,1,0,0:0:0:0:
320,192,40058,1,0,0:0:0:0:
448,192,40259,1,0,0:0:0:0:
320,192,40460,1,0,0:0:0:0:
192,192,40662,1,0,0:0:0:0:
64,192,40863,1,4,0:0:0:0:
192,192,40863,1,0,0:0:0:0:
320,192,40863,1,0,0:0:0:0:
448,192,40863,1,0,0:0:0:0:
64,192,41064,1,0,0:0:0:0:
192,192,41266,1,0,0:0:0:0:
320,192,41467,1,0,0:0:0:0:
64,192,41668,1,4,0:0:0:0:
192,192,41668,1,0,0:0:0:0:
320,192,41668,1,0,0:0:0:0:
448,192,41668,1,0,0:0:0:0:
192,192,41870,1,0,0:0:0:0:
320,192,42071,1,0,0:0:0:0:
448,192,42272,1,0,0:0:0:0:
64,192,42474,1,4,0:0:0:0:
192,192,42474,1,0,0:0:0:0:
320,192,42474,1,0,0:0:0:0:
448,192,42474,1,0,0:0:0:0:
192,192,42675,1,0,0:0:0:0:
320,192,42876,1,0,0:0:0:0:
192,192,42876,1,0,0:0:0:0:
64,192,42876,1,4,0:0:0:0:
320,192,43078,1,0,0:0:0:0:
192,192,43279,1,0,0:0:0:0:
64,192,43279,1,4,0:0:0:0:
448,192,43480,1,0,0:0:0:0:
64,192,43682,1,4,0:0:0:0:
64,192,44084,1,0,0:0:0:0:
448,192,44084,1,0,0:0:0:0:
320,192,44084,1,0,0:0:0:0:
64,192,45695,1,0,0:0:0:0:
320,192,45695,1,0,0:0:0:0:
448,192,45695,1,8,0:0:0:0:
192,192,45897,1,0,0:0:0:0:
320,192,45997,1,0,0:0:0:0:
192,192,46098,1,0,0:0:0:0:
448,192,46098,1,8,0:0:0:0:
320,192,46199,1,0,0:0:0:0:
192,192,46299,1,0,0:0:0:0:
64,192,46400,1,0,0:0:0:0:
192,192,46501,1,0,0:0:0:0:
448,192,46501,1,8,0:0:0:0:
320,192,46702,1,0,0:0:0:0:
64,192,46903,1,0,0:0:0:0:
448,192,46903,1,8,0:0:0:0:
192,192,46903,1,0,0:0:0:0:
320,192,47105,1,0,0:0:0:0:
192,192,47205,1,0,0:0:0:0:
320,192,47306,1,0,0:0:0:0:
64,192,47306,1,0,0:0:0:0:
448,192,47306,1,8,0:0:0:0:
192,192,47507,1,0,0:0:0:0:
320,192,47608,1,0,0:0:0:0:
448,192,47709,1,8,0:0:0:0:
192,192,47709,1,0,0:0:0:0:
64,192,47809,1,0,0:0:0:0:
192,192,47910,1,0,0:0:0:0:
320,192,48011,1,0,0:0:0:0:
448,192,48111,1,8,0:0:0:0:
192,192,48111,1,0,0:0:0:0:
320,192,48313,1,0,0:0:0:0:
64,192,48313,1,0,0:0:0:0:
448,192,48514,1,8,0:0:0:0:
320,192,48514,1,0,0:0:0:0:
64,192,48514,1,0,0:0:0:0:
192,192,48715,1,8,0:0:0:0:
448,192,48715,1,8,0:0:0:0:
448,192,48917,1,8,0:0:0:0:
320,192,48917,1,0,0:0:0:0:
64,192,48917,1,0,0:0:0:0:
192,192,49118,1,0,0:0:0:0:
64,192,49219,1,0,0:0:0:0:
448,192,49319,1,8,0:0:0:0:
192,192,49319,1,0,0:0:0:0:
320,192,49420,1,0,0:0:0:0:
192,192,49521,1,0,0:0:0:0:
64,192,49621,1,0,0:0:0:0:
192,192,49722,1,0,0:0:0:0:
448,192,49722,1,8,0:0:0:0:
64,192,49923,1,0,0:0:0:0:
192,192,50125,1,0,0:0:0:0:
320,192,50125,1,0,0:0:0:0:
448,192,50125,1,8,0:0:0:0:
64,192,50326,1,0,0:0:0:0:
192,192,50427,1,0,0:0:0:0:
320,192,50527,1,0,0:0:0:0:
448,192,50527,1,8,0:0:0:0:
64,192,50729,1,0,0:0:0:0:
192,192,50930,1,0,0:0:0:0:
320,192,50930,1,8,0:0:0:0:
448,192,51131,1,0,0:0:0:0:
320,192,51333,1,8,0:0:0:0:
64,192,51333,1,0,0:0:0:0:
320,192,51735,1,0,0:0:0:0:
448,192,51735,1,8,0:0:0:0:
64,192,51937,1,8,0:0:0:0:
192,192,51937,1,0,0:0:0:0:
320,192,52138,1,0,0:0:0:0:
448,192,52138,1,8,0:0:0:0:
64,192,52138,1,0,0:0:0:0:
192,192,52339,1,0,0:0:0:0:
64,192,52440,1,0,0:0:0:0:
192,192,52541,1,0,0:0:0:0:
448,192,52541,1,8,0:0:0:0:
320,192,52641,1,0,0:0:0:0:
192,192,52742,1,0,0:0:0:0:
320,192,52843,1,0,0:0:0:0:
448,192,52943,1,8,0:0:0:0:
192,192,52943,1,0,0:0:0:0:
64,192,53145,1,0,0:0:0:0:
192,192,53346,1,0,0:0:0:0:
448,192,53346,1,8,0:0:0:0:
320,192,53548,1,0,0:0:0:0:
192,192,53648,1,0,0:0:0:0:
64,192,53749,1,0,0:0:0:0:
448,192,53749,1,8,0:0:0:0:
192,192,53950,1,0,0:0:0:0:
320,192,54051,1,0,0:0:0:0:
192,192,54152,1,0,0:0:0:0:
64,192,54152,1,8,0:0:0:0:
320,192,54252,1,0,0:0:0:0:
448,192,54353,1,0,0:0:0:0:
320,192,54454,1,0,0:0:0:0:
192,192,54554,1,0,0:0:0:0:
64,192,54554,1,8,0:0:0:0:
320,192,54756,1,0,0:0:0:0:
192,192,54957,1,0,0:0:0:0:
64,192,54957,1,8,0:0:0:0:
320,192,55158,1,8,0:0:0:0:
448,192,55158,1,8,0:0:0:0:
192,192,55360,1,0,0:0:0:0:
64,192,55360,1,0,0:0:0:0:
448,192,55360,1,8,0:0:0:0:
320,192,55561,1,0,0:0:0:0:
192,192,55662,1,0,0:0:0:0:
320,192,55762,1,0,0:0:0:0:
448,192,55762,1,8,0:0:0:0:
192,192,55863,1,0,0:0:0:0:
64,192,55964,1,0,0:0:0:0:
192,192,56064,1,0,0:0:0:0:
320,192,56165,1,0,0:0:0:0:
448,192,56165,1,8,0:0:0:0:
192,192,56366,1,0,0:0:0:0:
64,192,56568,1,0,0:0:0:0:
448,192,56568,1,8,0:0:0:0:
192,192,56769,1,0,0:0:0:0:
320,192,56870,1,0,0:0:0:0:
192,192,56970,1,0,0:0:0:0:
64,192,56970,1,8,0:0:0:0:
448,192,57172,1,0,0:0:0:0:
320,192,57373,1,0,0:0:0:0:
64,192,57373,1,8,0:0:0:0:
192,192,57574,1,0,0:0:0:0:
448,192,57574,1,0,0:0:0:0:
320,192,57776,1,0,0:0:0:0:
64,192,57776,1,8,0:0:0:0:
192,192,57977,1,0,0:0:0:0:
64,192,58178,1,8,0:0:0:0:
320,192,58178,1,0,0:0:0:0:
448,192,58178,1,0,0:0:0:0:
192,192,58380,1,0,0:0:0:0:
320,192,58380,1,8,0:0:0:0:
64,192,58581,1,0,0:0:0:0:
192,192,58581,1,0,0:0:0:0:
448,192,58581,1,8,0:0:0:0:
320,192,58782,1,0,0:0:0:0:
192,192,58984,1,0,0:0:0:0:
448,192,58984,1,8,0:0:0:0:
64,192,59185,1,0,0:0:0:0:
320,192,59386,1,8,0:0:0:0:
192,192,59386,1,0,0:0:0:0:
64,192,59588,1,0,0:0:0:0:
192,192,59789,1,0,0:0:0:0:
320,192,59789,1,8,0:0:0:0:
320,192,59990,1,0,0:0:0:0:
448,192,60192,1,8,0:0:0:0:
192,192,60192,1,0,0:0:0:0:
320,192,60393,1,0,0:0:0:0:
448,192,60594,1,0,0:0:0:0:
64,192,60594,1,8,0:0:0:0:
320,192,60796,1,0,0:0:0:0:
64,192,60997,1,8,0:0:0:0:
448,192,60997,1,0,0:0:0:0:
192,192,61199,1,0,0:0:0:0:
448,192,61400,1,8,0:0:0:0:
320,192,61400,1,0,0:0:0:0:
64,192,61601,1,8,0:0:0:0:
192,192,61601,1,0,0:0:0:0:
64,192,61803,1,8,0:0:0:0:
320,192,61803,1,0,0:0:0:0:
448,192,61803,1,0,0:0:0:0:
192,192,62004,1,0,0:0:0:0:
320,192,62205,1,0,0:0:0:0:
448,192,62205,1,8,0:0:0:0:
192,192,62407,1,0,0:0:0:0:
64,192,62608,1,0,0:0:0:0:
448,192,62608,1,8,0:0:0:0:
192,192,62809,1,0,0:0:0:0:
448,192,63011,1,8,0:0:0:0:
320,192,63011,1,0,0:0:0:0:
64,192,63212,1,0,0:0:0:0:
192,192,63413,1,0,0:0:0:0:
448,192,63413,1,8,0:0:0:0:
320,192,63615,1,0,0:0:0:0:
192,192,63816,1,0,0:0:0:0:
64,192,63816,1,8,0:0:0:0:
320,192,64017,1,0,0:0:0:0:
192,192,64219,1,0,0:0:0:0:
64,192,64219,1,8,0:0:0:0:
320,192,64420,1,0,0:0:0:0:
192,192,64621,1,0,0:0:0:0:
448,192,64621,1,8,0:0:0:0:
192,192,64823,1,0,0:0:0:0:
448,192,64823,1,8,0:0:0:0:
64,192,65024,1,0,0:0:0:0:
320,192,65024,1,4,0:0:0:0:
448,192,65024,1,8,0:0:0:0:
192,192,65225,1,0,0:0:0:0:
320,192,65427,1,0,0:0:0:0:
64,192,65427,1,8,0:0:0:0:
192,192,65628,1,0,0:0:0:0:
448,192,65829,1,0,0:0:0:0:
64,192,65829,1,8,0:0:0:0:
320,192,66031,1,0,0:0:0:0:
64,192,66232,1,8,0:0:0:0:
192,192,66232,1,0,0:0:0:0:
64,192,66433,1,0,0:0:0:0:
192,192,66635,1,0,0:0:0:0:
448,192,66635,1,8,0:0:0:0:
64,192,66836,1,0,0:0:0:0:
448,192,67037,1,8,0:0:0:0:
192,192,67037,1,0,0:0:0:0:
320,192,67239,1,0,0:0:0:0:
192,192,67440,1,0,0:0:0:0:
448,192,67440,1,8,0:0:0:0:
320,192,67641,1,0,0:0:0:0:
192,192,67843,1,0,0:0:0:0:
64,192,67843,1,8,0:0:0:0:
192,192,68044,1,0,0:0:0:0:
64,192,68044,1,8,0:0:0:0:
64,192,68246,1,0,0:0:0:0:
320,192,68246,1,4,0:0:0:0:
448,192,68246,1,8,0:0:0:0:
192,192,68447,1,0,0:0:0:0:
320,192,68648,1,0,0:0:0:0:
448,192,68648,1,8,0:0:0:0:
192,192,68850,1,0,0:0:0:0:
64,192,69051,1,0,0:0:0:0:
448,192,69051,1,8,0:0:0:0:
192,192,69252,1,0,0:0:0:0:
320,192,69454,1,0,0:0:0:0:
448,192,69454,1,8,0:0:0:0:
64,192,69655,1,0,0:0:0:0:
192,192,69856,1,0,0:0:0:0:
448,192,69856,1,8,0:0:0:0:
320,192,70058,1,0,0:0:0:0:
448,192,70259,1,8,0:0:0:0:
64,192,70259,1,0,0:0:0:0:
320,192,70460,1,0,0:0:0:0:
64,192,70662,1,0,0:0:0:0:
448,192,70662,1,8,0:0:0:0:
448,192,70863,1,0,0:0:0:0:
320,192,70964,1,0,0:0:0:0:
64,192,71064,1,8,0:0:0:0:
192,192,71064,1,0,0:0:0:0:
320,192,71266,1,0,0:0:0:0:
448,192,71266,1,8,0:0:0:0:
64,192,71467,1,8,0:0:0:0:
448,192,71467,1,0,0:0:0:0:
192,192,71467,1,4,0:0:0:0:
320,192,71668,1,0,0:0:0:0:
64,192,71870,1,8,0:0:0:0:
192,192,71870,1,0,0:0:0:0:
320,192,72071,1,0,0:0:0:0:
192,192,72272,1,0,0:0:0:0:
64,192,72272,1,8,0:0:0:0:
64,192,72474,1,0,0:0:0:0:
192,192,72574,1,0,0:0:0:0:
320,192,72675,1,0,0:0:0:0:
448,192,72675,1,8,0:0:0:0:
192,192,72876,1,0,0:0:0:0:
64,192,72977,1,0,0:0:0:0:
320,192,73078,1,0,0:0:0:0:
448,192,73078,1,8,0:0:0:0:
64,192,73279,1,0,0:0:0:0:
320,192,73480,1,0,0:0:0:0:
448,192,73480,1,8,0:0:0:0:
192,192,73682,1,0,0:0:0:0:
320,192,73883,1,0,0:0:0:0:
448,192,73883,1,8,0:0:0:0:
192,192,74084,1,0,0:0:0:0:
320,192,74185,1,0,0:0:0:0:
192,192,74286,1,0,0:0:0:0:
64,192,74286,1,8,0:0:0:0:
320,192,74487,1,0,0:0:0:0:
448,192,74487,1,8,0:0:0:0:
192,192,74688,1,0,0:0:0:0:
320,192,74688,1,8,0:0:0:0:
448,192,74890,1,0,0:0:0:0:
64,192,75091,1,8,0:0:0:0:
192,192,75091,1,0,0:0:0:0:
320,192,75292,1,0,0:0:0:0:
192,192,75494,1,0,0:0:0:0:
64,192,75494,1,8,0:0:0:0:
448,192,75695,1,0,0:0:0:0:
320,192,75796,1,0,0:0:0:0:
192,192,75897,1,0,0:0:0:0:
64,192,75897,1,8,0:0:0:0:
320,192,76098,1,0,0:0:0:0:
448,192,76199,1,0,0:0:0:0:
192,192,76299,1,0,0:0:0:0:
64,192,76299,1,8,0:0:0:0:
64,192,76501,1,0,0:0:0:0:
192,192,76702,1,0,0:0:0:0:
448,192,76702,1,8,0:0:0:0:
64,192,76903,1,0,0:0:0:0:
192,192,77105,1,0,0:0:0:0:
448,192,77105,1,8,0:0:0:0:
320,192,77306,1,0,0:0:0:0:
192,192,77407,1,0,0:0:0:0:
64,192,77507,1,0,0:0:0:0:
192,192,77709,1,0,0:0:0:0:
64,192,77910,1,8,0:0:0:0:
448,192,77910,1,8,0:0:0:0:
192,192,78111,1,0,0:0:0:0:
320,192,78111,1,8,0:0:0:0:
448,192,78514,1,0,0:0:0:0:
320,192,78615,1,0,0:0:0:0:
448,192,78917,1,0,0:0:0:0:
320,192,79017,1,0,0:0:0:0:
192,192,79118,1,0,0:0:0:0:
448,192,79319,1,0,0:0:0:0:
320,192,79420,1,0,0:0:0:0:
64,192,79521,1,8,0:0:0:0:
192,192,79521,1,4,0:0:0:0:
320,192,79722,1,4,0:0:0:0:
448,192,79722,1,8,0:0:0:0:
64,192,79923,1,0,0:0:0:0:
192,192,80125,1,0,0:0:0:0:
192,192,80527,1,0,0:0:0:0:
320,192,80628,1,0,0:0:0:0:
448,192,80729,1,0,0:0:0:0:
192,192,80930,1,0,0:0:0:0:
320,192,81131,1,0,0:0:0:0:
448,192,81131,1,8,0:0:0:0:
192,192,81333,1,0,0:0:0:0:
64,192,81333,1,0,0:0:0:0:
192,192,81735,1,0,0:0:0:0:
320,192,81937,1,0,0:0:0:0:
448,192,81937,1,8,0:0:0:0:
192,192,82138,1,0,0:0:0:0:
64,192,82138,1,0,0:0:0:0:
320,192,82239,1,0,0:0:0:0:
192,192,82541,1,0,0:0:0:0:
64,192,82742,1,0,0:0:0:0:
320,192,82742,1,0,0:0:0:0:
448,192,82742,1,8,0:0:0:0:
192,192,82943,1,0,0:0:0:0:
320,192,82943,1,8,0:0:0:0:
448,192,83145,1,0,0:0:0:0:
320,192,83246,1,0,0:0:0:0:
448,192,83346,1,0,0:0:0:0:
320,192,83447,1,0,0:0:0:0:
192,192,83548,1,0,0:0:0:0:
64,192,83648,1,0,0:0:0:0:
192,192,83749,1,0,0:0:0:0:
320,192,83850,1,0,0:0:0:0:
448,192,83950,1,0,0:0:0:0:
320,192,84051,1,0,0:0:0:0:
192,192,84152,1,0,0:0:0:0:
64,192,84252,1,0,0:0:0:0:
192,192,84353,1,0,0:0:0:0:
448,192,84353,1,8,0:0:0:0:
320,192,84554,1,0,0:0:0:0:
192,192,84655,1,0,0:0:0:0:
320,192,84756,1,0,0:0:0:0:
192,192,84856,1,0,0:0:0:0:
64,192,84957,1,0,0:0:0:0:
192,192,85058,1,0,0:0:0:0:
320,192,85158,1,2,0:0:0:0:
448,192,85158,1,2,0:0:0:0:
64,192,85158,1,0,0:0:0:0:
192,192,85360,1,0,0:0:0:0:
64,192,85561,1,0,0:0:0:0:
448,192,85561,1,8,0:0:0:0:
192,192,85762,1,0,0:0:0:0:
320,192,85863,1,0,0:0:0:0:
192,192,85964,1,0,0:0:0:0:
320,192,86165,1,0,0:0:0:0:
448,192,86266,1,0,0:0:0:0:
320,192,86366,1,0,0:0:0:0:
64,192,86366,1,8,0:0:0:0:
192,192,86467,1,0,0:0:0:0:
320,192,86568,1,0,0:0:0:0:
192,192,86668,1,0,0:0:0:0:
64,192,86769,1,2,0:0:0:0:
448,192,86769,1,2,0:0:0:0:
320,192,86769,1,0,0:0:0:0:
64,192,86970,1,0,0:0:0:0:
192,192,87172,1,0,0:0:0:0:
320,192,87373,1,0,0:0:0:0:
448,192,87574,1,0,0:0:0:0:
64,192,87574,1,8,0:0:0:0:
320,192,87776,1,0,0:0:0:0:
448,192,87876,1,0,0:0:0:0:
320,192,87977,1,0,0:0:0:0:
192,192,88078,1,0,0:0:0:0:
64,192,88178,1,0,0:0:0:0:
192,192,88279,1,0,0:0:0:0:
64,192,88380,1,2,0:0:0:0:
320,192,88380,1,2,0:0:0:0:
448,192,88380,1,0,0:0:0:0:
192,192,88581,1,0,0:0:0:0:
320,192,88782,1,0,0:0:0:0:
448,192,88782,1,8,0:0:0:0:
192,192,88984,1,0,0:0:0:0:
64,192,89084,1,0,0:0:0:0:
192,192,89185,1,0,0:0:0:0:
320,192,89386,1,0,0:0:0:0:
64,192,89588,1,8,0:0:0:0:
192,192,89588,1,0,0:0:0:0:
320,192,89789,1,0,0:0:0:0:
448,192,89990,1,0,0:0:0:0:
192,192,89990,1,2,0:0:0:0:
64,192,89990,1,0,0:0:0:0:
448,192,90796,1,0,0:0:0:0:
64,192,90997,1,0,0:0:0:0:
192,192,91098,1,0,0:0:0:0:
320,192,91299,1,0,0:0:0:0:
448,192,91400,1,0,0:0:0:0:
320,192,91501,1,0,0:0:0:0:
192,192,91601,1,0,0:0:0:0:
320,192,91803,1,0,0:0:0:0:
448,192,92004,1,0,0:0:0:0:
192,192,92205,1,0,0:0:0:0:
320,192,92306,1,0,0:0:0:0:
448,192,92407,1,0,0:0:0:0:
448,192,92608,1,0,0:0:0:0:
320,192,92709,1,0,0:0:0:0:
320,192,92910,1,0,0:0:0:0:
192,192,93011,1,0,0:0:0:0:
64,192,93111,1,0,0:0:0:0:
192,192,93212,1,0,0:0:0:0:
320,192,93413,1,0,0:0:0:0:
448,192,93615,1,0,0:0:0:0:
320,192,93816,1,0,0:0:0:0:
192,192,93917,1,0,0:0:0:0:
64,192,94017,1,0,0:0:0:0:
64,192,94219,1,0,0:0:0:0:
192,192,94319,1,0,0:0:0:0:
64,192,94420,1,0,0:0:0:0:
64,192,94621,1,0,0:0:0:0:
192,192,94722,1,0,0:0:0:0:
64,192,94823,1,0,0:0:0:0:
448,192,95024,1,0,0:0:0:0:
320,192,95125,1,0,0:0:0:0:
448,192,95225,1,0,0:0:0:0:
448,192,95427,1,0,0:0:0:0:
320,192,95527,1,0,0:0:0:0:
64,192,95628,1,0,0:0:0:0:
64,192,95829,1,0,0:0:0:0:
64,192,96031,1,0,0:0:0:0:
64,192,96232,1,0,0:0:0:0:
64,192,96433,1,0,0:0:0:0:
192,192,96534,1,0,0:0:0:0:
320,192,96635,1,0,0:0:0:0:
448,192,96735,1,0,0:0:0:0:
320,192,96836,1,0,0:0:0:0:
192,192,96937,1,0,0:0:0:0:
64,192,97037,1,0,0:0:0:0:
192,192,97138,1,0,0:0:0:0:
320,192,97239,1,0,0:0:0:0:
448,192,97239,1,0,0:0:0:0:
448,192,98850,1,0,0:0:0:0:
320,192,98950,1,0,0:0:0:0:
192,192,99051,1,0,0:0:0:0:
64,192,99152,1,0,0:0:0:0:
448,192,99252,1,0,0:0:0:0:
320,192,99353,1,0,0:0:0:0:
192,192,99454,1,0,0:0:0:0:
64,192,99554,1,0,0:0:0:0:
192,192,100460,1,0,0:0:0:0:
320,192,100460,1,8,0:0:0:0:
448,192,100662,1,0,0:0:0:0:
320,192,100762,1,0,0:0:0:0:
192,192,100863,1,0,0:0:0:0:
64,192,100863,1,8,0:0:0:0:
320,192,100964,1,0,0:0:0:0:
192,192,101064,1,0,0:0:0:0:
64,192,101165,1,0,0:0:0:0:
320,192,101266,1,0,0:0:0:0:
448,192,101266,1,8,0:0:0:0:
192,192,101467,1,0,0:0:0:0:
64,192,101467,1,0,0:0:0:0:
320,192,101668,1,0,0:0:0:0:
448,192,101668,1,0,0:0:0:0:
64,192,101668,1,8,0:0:0:0:
192,192,101870,1,0,0:0:0:0:
64,192,101970,1,0,0:0:0:0:
192,192,102071,1,0,0:0:0:0:
320,192,102071,1,8,0:0:0:0:
448,192,102272,1,0,0:0:0:0:
320,192,102373,1,0,0:0:0:0:
192,192,102474,1,0,0:0:0:0:
64,192,102474,1,8,0:0:0:0:
320,192,102574,1,0,0:0:0:0:
448,192,102675,1,0,0:0:0:0:
320,192,102776,1,0,0:0:0:0:
64,192,102876,1,8,0:0:0:0:
448,192,102876,1,0,0:0:0:0:
192,192,103078,1,0,0:0:0:0:
320,192,103279,1,0,0:0:0:0:
64,192,103279,1,8,0:0:0:0:
448,192,103480,1,0,0:0:0:0:
192,192,103480,1,8,0:0:0:0:
64,192,103682,1,8,0:0:0:0:
320,192,103682,1,0,0:0:0:0:
64,192,103883,1,0,0:0:0:0:
192,192,103984,1,0,0:0:0:0:
320,192,104084,1,0,0:0:0:0:
448,192,104084,1,8,0:0:0:0:
192,192,104185,1,0,0:0:0:0:
320,192,104286,1,0,0:0:0:0:
448,192,104386,1,0,0:0:0:0:
320,192,104487,1,0,0:0:0:0:
64,192,104487,1,8,0:0:0:0:
192,192,104688,1,0,0:0:0:0:
448,192,104688,1,0,0:0:0:0:
64,192,104890,1,8,0:0:0:0:
320,192,104890,1,0,0:0:0:0:
64,192,105091,1,0,0:0:0:0:
192,192,105192,1,0,0:0:0:0:
320,192,105292,1,0,0:0:0:0:
448,192,105292,1,8,0:0:0:0:
192,192,105494,1,0,0:0:0:0:
192,192,105695,1,0,0:0:0:0:
64,192,105695,1,8,0:0:0:0:
192,192,105897,1,0,0:0:0:0:
320,192,105897,1,0,0:0:0:0:
320,192,106098,1,0,0:0:0:0:
448,192,106098,1,8,0:0:0:0:
192,192,106903,1,0,0:0:0:0:
64,192,106903,1,8,0:0:0:0:
320,192,107105,1,0,0:0:0:0:
64,192,107105,1,0,0:0:0:0:
192,192,107205,1,0,0:0:0:0:
320,192,107306,1,0,0:0:0:0:
192,192,107407,1,0,0:0:0:0:
448,192,107507,1,0,0:0:0:0:
320,192,107558,1,0,0:0:0:0:
192,192,107608,1,0,0:0:0:0:
64,192,107658,1,0,0:0:0:0:
320,192,107709,1,0,0:0:0:0:
448,192,107709,1,8,0:0:0:0:
192,192,107910,1,0,0:0:0:0:
320,192,107910,1,8,0:0:0:0:
192,192,108111,1,8,0:0:0:0:
64,192,108111,1,0,0:0:0:0:
192,192,108313,1,0,0:0:0:0:
448,192,108313,1,8,0:0:0:0:
320,192,108413,1,0,0:0:0:0:
192,192,108514,1,0,0:0:0:0:
64,192,108514,1,8,0:0:0:0:
448,192,108715,1,8,0:0:0:0:
320,192,108715,1,0,0:0:0:0:
192,192,108816,1,0,0:0:0:0:
448,192,108917,1,0,0:0:0:0:
320,192,108967,1,0,0:0:0:0:
192,192,109017,1,0,0:0:0:0:
64,192,109068,1,0,0:0:0:0:
448,192,109118,1,0,0:0:0:0:
320,192,109168,1,0,0:0:0:0:
192,192,109219,1,0,0:0:0:0:
64,192,109269,1,0,0:0:0:0:
320,192,109319,1,0,0:0:0:0:
448,192,109319,1,8,0:0:0:0:
192,192,109521,1,0,0:0:0:0:
320,192,109521,1,8,0:0:0:0:
64,192,109722,1,0,0:0:0:0:
192,192,109722,1,8,0:0:0:0:
192,192,109923,1,0,0:0:0:0:
320,192,109923,1,8,0:0:0:0:
64,192,110125,1,0,0:0:0:0:
448,192,110125,1,8,0:0:0:0:
192,192,110326,1,0,0:0:0:0:
320,192,110427,1,0,0:0:0:0:
448,192,110527,1,0,0:0:0:0:
320,192,110578,1,0,0:0:0:0:
192,192,110628,1,0,0:0:0:0:
64,192,110678,1,0,0:0:0:0:
448,192,110729,1,0,0:0:0:0:
320,192,110779,1,0,0:0:0:0:
192,192,110829,1,0,0:0:0:0:
64,192,110880,1,0,0:0:0:0:
448,192,110930,1,8,0:0:0:0:
320,192,110930,1,0,0:0:0:0:
320,192,111131,1,8,0:0:0:0:
192,192,111131,1,0,0:0:0:0:
64,192,111333,1,8,0:0:0:0:
192,192,111383,1,0,0:0:0:0:
320,192,111433,1,0,0:0:0:0:
448,192,111484,1,0,0:0:0:0:
64,192,111534,1,0,0:0:0:0:
192,192,111584,1,0,0:0:0:0:
320,192,111635,1,0,0:0:0:0:
448,192,111685,1,0,0:0:0:0:
192,192,111735,1,0,0:0:0:0:
64,192,111735,1,8,0:0:0:0:
320,192,111937,1,0,0:0:0:0:
448,192,111937,1,8,0:0:0:0:
192,192,112138,1,0,0:0:0:0:
320,192,112138,1,8,0:0:0:0:
64,192,112339,1,0,0:0:0:0:
448,192,112339,1,8,0:0:0:0:
192,192,112541,1,0,0:0:0:0:
320,192,112541,1,8,0:0:0:0:
64,192,113346,1,0,0:0:0:0:
448,192,113346,1,4,0:0:0:0:
