osu file format v6

[General]
AudioFilename: Second Heaven.mp3
AudioLeadIn: 3000
PreviewTime: -1
Countdown: 0
SampleSet: Normal
StackLeniency: 0.2
Mode: 0
LetterboxInBreaks: 0

[Editor]
Bookmarks: 2205,5426,8647,11869,15090,18312,21533,24755,27976,31198,34419,37641,40862,44084,45694,48916,52137,55359,58580,61802,65023,68245,71466,74688,77909,81131,84352,87574,90795,94017,97238,100460,103681,106902,110124,113345
DistanceSpacing: 1.20000004768372
BeatDivisor: 4
GridSize: 8

[Metadata]
Title:Second Heaven
Artist:Ryu
Creator:Al-Azif
Version:Normal
Source:
Tags:

[Difficulty]
HPDrainRate:4
CircleSize:4
OverallDifficulty:4
SliderMultiplier:1.4
SliderTickRate:1

[Events]
//Background and Video events
0,0,"bg.jpg"
//Break Periods
2,15290,16992
2,31196,36321
2,84552,89475
//Storyboard Layer 0 (Background)
//Storyboard Layer 1 (Fail)
//Storyboard Layer 2 (Pass)
//Storyboard Layer 3 (Foreground)
//Storyboard Sound Samples
//Background Colour Transformations
3,100,0,0,0

[TimingPoints]
2205,402.684563758389,4,1,0,100,1,0
11466,-100,4,1,1,100,0,0
13077,-100,4,1,0,100,0,0
14688,-100,4,2,0,20,0,0
15493,-100,4,2,0,100,0,0
24553,-100,4,1,0,100,0,0
30594,-100,4,2,0,100,0,0
36433,-100,4,1,0,50,0,0
40057,-100,4,1,0,60,0,0
42070,-100,4,1,1,70,0,0
42674,-100,4,1,1,80,0,0
43077,-100,4,1,1,90,0,0
43480,-100,4,1,1,100,0,0
45191,-100,4,2,0,20,0,0
45493,-100,4,1,1,100,0,0
45896,-100,4,1,0,100,0,0
46298,-100,4,1,1,100,0,0
46701,-100,4,1,0,100,0,0
48815,-100,4,1,1,100,0,0
49117,-100,4,1,0,100,0,0
49520,-100,4,1,1,100,0,0
49923,-100,4,1,0,100,0,0
55258,-100,4,1,1,100,0,0
55560,-100,4,1,0,100,0,0
55963,-100,4,1,1,100,0,0
56366,-100,4,1,0,100,0,0
78010,-100,4,1,1,100,0,0
78312,-100,4,1,0,100,0,0
79621,-100,4,1,1,100,0,0
79923,-100,4,1,0,100,0,0
89587,-100,4,1,1,50,0,0
92003,-100,4,1,1,70,0,0
93614,-100,4,1,1,90,0,0
95426,-100,4,1,1,100,0,0
97238,-100,4,1,0,100,0,0
98849,-100,4,2,0,20,0,0
99251,-100,4,1,0,100,0,0
113144,-100,4,1,0,0,0,0

[Colours]
Combo1 : 0,128,255
Combo2 : 255,81,168
Combo3 : 128,255,255
Combo4 : 255,0,128

[HitObjects]
256,192,594,1,0
256,192,795,1,0
56,120,2205,6,0,B|136:72|208:136,1,140
328,120,3010,2,0,B|408:72|480:136,1,140
464,256,3815,2,0,B|384:304|304:240,1,140
192,256,4621,2,0,B|112:304|32:240,1,140,0|0
56,184,5225,5,0
56,112,5426,1,0
192,112,5829,1,0
328,112,6231,1,0
328,256,6634,1,0
192,256,7037,1,0
192,112,7439,1,0
328,112,7842,1,0
328,112,8043,1,0
464,112,8446,5,0
464,184,8647,1,0
464,256,8849,1,0
256,152,10258,5,0
256,224,10460,1,0
48,192,11869,5,8
464,192,12674,1,4
256,152,13480,1,0
256,224,13681,1,0
256,192,15090,5,0
400,128,18312,6,0,B|440:200|392:272,2,140,0|0|0
112,128,19520,1,0
112,128,19721,2,0,B|72:200|120:272,2,140
256,192,20929,1,0
256,192,21131,1,0
456,136,21533,6,0,B|352:32,1,140,0|0
312,248,22339,2,0,B|424:360,1,140,0|0
432,240,22943,2,0,B|328:136,1,140,0|0
120,144,23748,2,0,B|48:216,1,70
72,296,24151,2,0,B|144:224,1,70
256,288,24755,6,0,B|360:208|456:288|456:288|456:192,1,280
456,80,25963,2,0,B|376:80|376:80|376:160|288:152|288:152|288:64,1,280
288,81,27171,1,0
32,192,27976,6,0,B|128:184|128:288|128:288|176:248|176:248|240:304,1,280
360,288,29184,2,0,B|440:288|440:288|440:192|352:200|352:200|352:128,1,280
352,142,30392,1,0
208,144,30795,1,0
208,144,30996,1,0
256,192,37641,5,0
256,192,39251,1,0
256,192,40862,1,0
256,192,41668,1,0
152,192,42473,5,8
360,192,42876,1,4
152,192,43278,1,8
360,192,43681,1,4
256,192,44084,12,0,45292
56,80,45694,6,0,B|208:80,1,140,8|0
456,304,46500,2,0,B|304:304,1,140,4|0
192,232,47305,1,0
320,152,47708,1,0
448,72,48111,2,0,B|352:72,1,70,0|0
296,72,48513,2,0,B|192:72,1,70
144,72,48916,5,8
256,200,49319,1,0
368,328,49721,1,4
256,200,50124,1,0
144,328,50527,1,0
80,264,50728,1,0
144,200,50929,1,0
80,136,51131,1,0
144,72,51332,1,0
312,64,51735,1,0
392,64,51936,1,0
424,144,52137,6,0,B|456:200|400:232|400:232|336:232,1,140,4|0
192,232,52943,2,0,B|136:232|136:288|136:288|72:288,1,140,0|0
80,120,53748,2,0,B|128:72|168:112|168:112|232:112,1,140,0|0
376,112,54553,1,0
376,112,54755,1,0
456,112,54956,1,0
456,112,55158,1,0
456,192,55359,6,0,B|456:280|344:280,1,140,4|0
56,192,56164,2,0,B|56:280|168:280,1,140,8|0
144,112,56970,2,0,B|144:16,2,70,0|0|0
144,192,57574,1,0
224,200,57775,2,0,B|280:192|288:256|288:256|368:256,1,140,0|0
416,256,58379,1,0
416,256,58580,5,4
488,104,58983,1,0
416,256,59386,1,0
344,104,59788,1,0
309,180,59990,1,0
272,256,60191,1,0
184,256,60392,2,0,L|120:256|64:336,1,140
80,152,61198,1,0
80,152,61399,1,0
160,152,61600,1,0
232,104,61802,6,0,L|272:80|320:80|320:80|368:48,1,140,4|0
472,176,62607,2,0,L|440:216|440:256|400:296,1,140
336,240,63211,2,0,L|304:216|248:224|192:184,1,140
144,144,63815,1,0
72,96,64017,1,0
72,96,64218,1,0
240,96,64621,1,0
240,96,64822,1,0
320,96,65023,5,4
440,216,65426,1,0
320,328,65829,1,0
200,216,66231,1,0
112,216,66433,1,0
24,216,66634,1,0
48,136,66835,2,0,L|112:112|200:144,1,140
344,136,67641,1,0
344,136,67842,1,0
424,136,68043,1,0
424,136,68245,6,0,B|464:208|416:288,1,140,4|0
264,272,69050,2,0,B|224:200|272:120,1,140,0|0
344,136,69654,2,0,B|384:208|336:288,1,140
264,272,70258,1,0
176,272,70460,1,0
88,272,70661,2,0,B|48:200|96:120,1,140,0|0
86,137,71265,1,0
176,136,71466,5,4
264,272,71869,1,0
368,136,72272,1,0
456,272,72674,1,0
368,136,73077,1,0
264,272,73480,1,0
264,272,73681,1,0
176,136,74084,1,0
176,136,74285,1,0
128,64,74486,1,0
128,64,74688,6,0,B|80:64|80:64|40:104|80:152,1,140,0|0
120,312,75493,2,0,B|160:280|208:312|208:312|248:272,1,140
344,144,76298,2,0,B|392:144|392:144|400:200|464:208,1,140
451,205,76902,1,0
320,312,77305,1,0
256,256,77507,1,0
192,312,77708,1,0
128,256,77909,5,4
128,256,78111,1,8
384,112,79520,1,4
384,112,79721,1,4
256,192,81131,5,4
256,192,81936,1,4
256,192,82741,1,4
256,192,82943,1,0
256,192,83144,12,4,84352
56,192,90795,5,8
456,192,91600,1,4
56,192,92406,1,8
456,192,93211,1,4
136,192,94017,5,8
376,192,94419,1,4
136,192,94822,1,8
376,192,95225,1,4
216,192,95627,5,8
296,192,95829,1,4
216,192,96030,1,8
296,192,96231,1,4
256,256,96433,6,0,B|256:320,7,35,8|4|8|4|8|4|8|4
256,192,97238,12,0,98849
104,120,100460,5,0
104,120,100661,1,0
104,120,100862,1,0
232,120,101164,1,0
232,120,101265,2,0,B|328:120,1,70
384,120,101668,1,0
440,280,102070,1,0
440,280,102272,1,0
440,280,102473,1,0
312,280,102775,1,0
312,280,102876,2,0,B|224:280,1,70
160,280,103278,1,0
72,280,103480,1,0
72,192,103681,6,0,B|104:144|152:176|152:176|208:136,1,140
320,48,104486,1,0
392,88,104688,1,0
392,168,104889,1,0
392,248,105090,2,0,B|392:296,2,35
256,192,105493,12,0,106500
216,280,106902,5,0
296,280,107104,1,0
456,232,107507,2,0,L|448:216|464:208|448:192|464:184|448:168|464:160|448:128,1,140
384,96,108111,1,0
296,96,108312,1,0
208,96,108513,1,0
120,96,108715,1,0
48,136,108916,2,0,L|40:152|56:160|40:176|56:184|40:200|56:208|40:240,1,140
120,272,109520,1,0
208,272,109721,1,0
296,272,109923,1,0
376,272,110124,6,0,L|480:272,1,70
456,184,110527,2,0,L|432:168|424:184|400:168|392:184|368:168|352:184,1,140
280,136,111131,1,0
208,88,111332,2,0,L|184:72|176:88|152:72|144:88|120:72|104:88,1,140
40,136,111936,1,0
40,216,112137,1,0
104,272,112339,1,0
256,192,112540,12,0,113345
