osu file format v6

[General]
AudioFilename: Second Heaven.mp3
AudioLeadIn: 3000
PreviewTime: -1
Countdown: 0
SampleSet: Soft
StackLeniency: 0.2
Mode: 0
LetterboxInBreaks: 0

[Editor]
DistanceSpacing: 1
BeatDivisor: 4
GridSize: 8

[Metadata]
Title:Second Heaven
Artist:Ryu
Creator:Al-Azif
Version:Hyper
Source:
Tags:

[Difficulty]
HPDrainRate:5
CircleSize:4
OverallDifficulty:6
SliderMultiplier:1.6
SliderTickRate:0.5

[Events]
//Background and Video events
0,0,"bg.jpg"
//Break Periods
2,15290,16658
//Storyboard Layer 0 (Background)
//Storyboard Layer 1 (Fail)
//Storyboard Layer 2 (Pass)
//Storyboard Layer 3 (Foreground)
//Storyboard Sound Samples
//Background Colour Transformations
3,100,0,0,0

[TimingPoints]
2205,402.684563758389,4,2,1,100,1,0
5325,-100,4,1,0,100,0,0
5527,-100,4,2,1,100,0,0
8043,-100,4,1,0,100,0,0
9050,-100,4,2,1,100,0,0
10158,-100,4,1,0,98,0,0
10661,-100,4,2,1,98,0,0
13882,-100,4,1,1,98,0,0
14688,-100,4,2,1,48,0,0
16701,-100,4,2,1,43,0,0
18211,-100,4,2,1,72,0,0
31097,-100,4,2,1,63,0,0
42272,-100,4,2,1,84,0,0
43077,-100,4,2,1,100,0,0
45694,-100,4,1,0,100,0,0
58480,-100,4,2,1,100,0,0
71265,-100,4,1,0,100,0,0
77708,-100,4,1,1,100,0,0
78312,-100,4,2,1,100,0,0
79117,-100,4,1,1,100,0,0
79923,-100,4,2,1,100,0,0
80728,-100,4,1,1,100,0,0
82339,-100,4,1,0,75,0,0
83043,-100,4,1,0,29,0,0
84956,-100,4,1,1,61,0,0
85359,-100,4,1,1,100,0,0
86567,-100,4,1,1,71,0,0
87171,-100,4,1,0,100,0,0
87976,-100,4,1,1,69,0,0
88580,-100,4,1,1,100,0,0
89788,-100,4,1,1,70,0,0
90392,-100,4,2,1,63,0,0
93715,-100,4,2,1,71,0,0
94520,-100,4,2,1,87,0,0
94923,-100,4,2,1,100,0,0
100258,-100,4,1,0,99,0,0
106198,-100,4,2,1,99,0,0
106802,-100,4,1,0,99,0,0
112540,-200,4,2,1,49,0,0
113345,-100,4,1,0,0,0,0

[Colours]
Combo1 : 0,128,255
Combo2 : 255,81,168
Combo3 : 128,255,255
Combo4 : 255,0,128

[HitObjects]
216,200,594,1,4
296,200,795,1,4
72,240,2205,6,0,B|48:152,1,80,4|2
152,256,2607,2,0,B|160:168,1,80,4|2
224,288,3010,2,0,B|264:208,1,80,4|2
288,336,3413,2,0,B|360:264,1,80,4|2
432,280,3815,5,4
432,104,4218,1,4
256,192,4621,1,4
344,192,4822,1,2
432,192,5023,1,4
432,192,5225,1,4
432,192,5426,6,0,B|456:104,1,80,4|2
352,208,5828,2,0,B|344:120,1,80,4|2
280,240,6231,2,0,B|240:160,1,80,4|2
216,288,6634,2,0,B|144:216,1,80,4|2
88,192,7037,5,4
256,192,7439,1,4
424,192,7842,1,4
256,192,8245,1,4
256,352,8647,5,0
256,352,8849,1,4
104,296,9251,5,2
104,136,9654,1,2
256,88,10057,5,2
256,88,10258,1,0
256,88,10460,1,4
408,136,10862,5,2
408,296,11265,1,2
256,352,11668,5,2
176,352,11869,1,4
96,352,12070,1,2
256,32,12473,5,2
336,32,12674,1,4
416,32,12875,1,2
256,192,13278,5,2
256,192,13480,1,4
256,192,13681,1,2
64,344,14084,5,8
448,40,14486,5,4
256,192,14889,5,4
256,192,15090,5,0
248,40,17708,6,0,B|264:96|264:96|240:136|240:136|256:200,1,160
336,184,18312,5,2
408,224,18513,1,0
368,296,18715,1,0
296,256,18916,1,0
296,256,19117,5,2
216,280,19319,1,0
192,200,19520,1,2
272,176,19721,1,0
272,176,19923,5,2
352,192,20124,1,0
360,112,20326,1,0
280,96,20527,1,0
280,96,20728,5,2
200,120,20929,1,0
176,40,21131,1,2
256,16,21332,1,0
256,16,21533,5,2
256,192,21936,1,0
256,368,22339,1,2
256,288,22540,6,0,B|168:288,1,80,0|0
112,336,22943,1,0
72,264,23144,1,2
136,216,23345,2,0,B|88:136,1,80,0|2
48,80,23748,1,0
120,40,23949,1,2
168,104,24151,2,0,B|224:192,2,80,0|2|0
120,40,24755,5,4
256,120,25158,1,0
392,40,25560,1,4
256,120,25963,1,4
120,40,26366,1,0
256,120,26768,2,0,B|192:184,2,80,4|0|4
256,120,27372,2,0,B|320:184,2,80
256,120,27976,5,4
112,192,28379,1,0
256,264,28782,1,4
400,192,29184,1,4
400,192,29386,2,0,B|216:192,1,160
240,192,29990,1,4
104,96,30392,1,4
48,152,30594,1,0
48,232,30795,1,0
96,296,30996,1,0
176,296,31198,5,2
248,264,31399,1,0
248,264,31600,1,0
248,264,31802,1,0
320,224,32003,5,2
248,184,32204,1,0
248,184,32406,1,0
248,184,32607,1,0
176,152,32809,5,2
248,112,33010,1,0
248,112,33211,1,0
248,112,33413,1,0
320,80,33614,5,2
248,40,33815,1,0
248,40,34017,1,0
248,40,34218,1,0
248,112,34419,5,2
248,192,34621,2,0,B|160:192,2,80
248,272,35225,5,2
248,352,35426,2,0,B|336:352,2,80
176,312,36030,6,0,B|176:224,1,80,2|0
96,272,36433,1,2
16,272,36634,1,0
56,200,36835,2,0,B|56:112,1,80,2|0
136,160,37238,1,0
216,160,37439,1,0
256,232,37641,5,6
320,280,37842,2,0,B|384:336,2,80
320,200,38446,5,2
256,152,38647,2,0,B|184:96,2,80
256,232,39251,5,6
192,280,39453,2,0,B|120:336,2,80
192,200,40057,5,2
256,152,40258,2,0,B|328:96,2,80
192,200,40862,5,4
496,192,41668,1,4
32,192,42473,1,4
144,304,42876,1,4
256,192,43278,1,4
368,72,43681,1,4
256,192,44084,12,4,45694
40,192,46097,5,0
192,248,46500,1,0
344,192,46902,1,0
496,248,47305,1,4
344,192,47708,1,0
192,248,48111,1,0
32,192,48513,1,0
32,192,48715,1,0
32,192,48916,5,4
72,120,49117,1,0
72,120,49218,1,0
72,120,49319,2,0,B|152:72|152:72|232:72,1,160
296,96,49923,1,0
376,72,50124,1,0
360,152,50325,1,0
360,152,50426,1,0
360,152,50527,2,0,B|400:224,3,80,4|0|0|0
344,280,51332,2,0,B|256:320|256:320|184:288,1,160
198,294,51936,1,0
120,296,52137,5,4
112,136,52540,1,0
256,64,52943,1,0
400,136,53345,1,0
400,296,53748,1,4
256,368,54151,1,0
256,368,54554,1,0
256,192,54956,1,0
256,192,55158,1,0
256,192,55359,5,4
304,128,55560,1,0
304,128,55661,1,0
304,128,55762,2,0,B|384:80|384:80|448:128,1,160
384,184,56366,1,0
384,264,56567,1,0
312,224,56768,1,0
312,224,56869,1,0
312,224,56970,2,0,B|224:224,3,80,4|0|0|0
264,296,57775,2,0,B|176:352|112:296,1,160
184,240,58379,1,0
184,240,58580,6,0,B|184:64,3,160,4|4|4|4
256,48,59990,1,0
256,48,60191,1,4
336,24,60392,1,0
336,24,60594,1,4
368,96,60795,1,0
368,96,60996,1,4
288,120,61198,1,0
288,120,61399,1,4
352,168,61600,1,4
352,168,61802,6,0,B|352:344,3,160,4|4|4|4
272,344,63211,1,0
272,344,63413,1,4
272,344,63815,1,4
256,184,64218,1,4
240,24,64621,1,4
240,24,64822,1,4
240,24,65023,5,4
40,184,65426,1,4
272,344,65829,1,4
472,200,66231,1,4
472,200,66433,1,0
400,160,66634,2,0,B|320:120|320:120|240:136,1,160,4|4
256,216,67238,1,0
256,296,67439,2,0,B|152:304|152:304|112:256,1,160,4|4
120,96,68245,5,4
392,176,68647,1,4
120,256,69050,1,4
392,336,69453,1,4
392,336,69654,1,0
392,336,69856,1,4
120,256,70258,1,4
392,176,70661,1,4
120,96,71064,1,4
256,16,71466,6,0,B|344:16|344:16|344:96,1,160,4|0
344,168,72070,1,0
264,168,72272,2,0,B|176:168|176:168|176:248,1,160
96,240,72876,1,0
96,160,73077,2,0,B|96:72|96:72|16:72,2,160,4|0|0
96,160,74084,1,0
176,160,74285,1,0
176,240,74486,1,0
176,320,74688,6,0,B|264:320|264:320|264:240,1,160,4|0
264,168,75292,1,0
344,216,75493,2,0,B|344:128|344:128|424:128,1,160
416,48,76097,1,0
336,48,76298,2,0,B|168:48,2,160,4|0|0
336,128,77305,1,0
336,128,77406,1,0
336,128,77507,1,0
56,192,77909,5,8
56,192,78111,1,8
176,56,78513,5,2
336,56,78916,1,2
456,192,79319,5,4
456,192,79520,1,4
456,192,79721,1,4
336,312,80124,5,2
176,312,80527,1,2
56,192,80929,5,8
56,192,81131,1,8
56,192,81332,1,8
456,192,81735,5,4
456,192,81937,1,4
456,192,82138,1,4
256,80,82540,5,0
256,192,82741,1,4
256,304,82943,1,4
256,192,83144,6,0,B|256:136,12,40,0|0|0|0|0|0|0|0|0|0|0|0|4
32,200,85158,5,8
32,200,85560,1,8
480,200,86366,5,4
480,200,86768,1,4
256,192,87574,5,0
48,344,88379,5,8
48,344,88782,1,8
464,40,89587,5,4
464,40,89990,1,4
40,104,90795,5,0
120,104,90996,2,0,B|136:88|136:88|152:104|152:104|168:88|168:88|184:104|184:104|200:88|200:88|216:104|216:104|232:88|232:88|248:104|248:104|264:88|264:88|280:104|280:104|296:88|296:88|312:104|312:104|328:88|328:88|344:104|344:104|360:88,1,320,0|0
424,104,92003,1,0
424,184,92204,5,0
424,184,92305,1,0
424,184,92406,1,0
344,184,92607,2,0,B|328:168|328:168|312:184|312:184|296:168|296:168|280:184|280:184|264:168|264:168|248:184|248:184|232:168|232:168|216:184|216:184|200:168|200:168|184:184|184:184|168:168|168:168|152:184|152:184|136:168|136:168|120:184|120:184|104:168,1,320,0|0
40,184,93614,1,0
104,256,93815,6,0,B|104:312,2,40,0|0|0
184,208,94218,2,0,B|184:160,2,40,0|0|0
256,272,94621,6,0,B|256:328,2,40,0|0|0
328,208,95023,6,0,B|328:160,2,40,0|0|0
408,256,95426,2,0,B|408:312,2,40
328,208,95829,5,0
256,144,96030,1,0
184,208,96231,1,0
256,272,96433,6,0,B|256:328,7,40
256,192,97238,12,0,98043
256,112,98849,6,0,B|256:56,7,40
256,192,99654,12,4,100460
256,248,100862,5,0
96,256,101265,1,0
40,200,101466,1,0
120,176,101668,1,0
256,88,102070,1,4
256,248,102473,1,0
352,120,102876,2,0,B|296:184,1,80
160,120,103278,2,0,B|216:184,1,80
256,248,103681,5,4
256,248,104084,1,0
256,248,104486,1,0
296,176,104688,1,0
216,176,104889,1,0
256,104,105090,1,0
256,104,105191,1,0
256,104,105292,5,4
152,144,105493,1,0
200,248,105694,1,0
312,248,105896,1,0
352,144,106097,1,0
256,104,106298,6,0,B|256:16,2,80,2|2|2
256,184,106902,5,4
256,184,107104,1,0
256,344,107507,1,0
256,344,107607,1,0
256,344,107708,1,4
256,264,107909,5,0
152,216,108111,1,0
200,112,108312,1,0
312,112,108513,1,4
360,216,108715,1,0
256,264,108916,6,0,B|256:320,4,40,0|0|0|4|4
256,184,109520,5,0
152,136,109722,1,0
200,32,109923,1,0
312,32,110124,1,4
360,136,110326,1,0
256,184,110527,6,0,B|256:128,4,40,0|0|0|0|4
200,240,111131,5,0
256,296,111332,6,0,B|256:344,4,40,0|0|0|0|4
312,240,111936,5,0
392,240,112137,1,4
472,240,112339,1,0
392,240,112540,6,0,B|392:64,1,160,4|0
