osu file format v6

[General]
AudioFilename: Second Heaven.mp3
AudioLeadIn: 3000
PreviewTime: -1
Countdown: 0
SampleSet: Normal
StackLeniency: 0.6
Mode: 0
LetterboxInBreaks: 1

[Editor]
Bookmarks: 2205,5426,8647,11869,15090,18312,21533,24755,27976,31198,34419,37641,40862,44084,45694,48916,52137,55359,58580,61802,65023,68245,71466,74688,77909,81131,84352,87574,90795,94017,97238,100460,103681,106902,110124,113345
DistanceSpacing: 1.39999997615814
BeatDivisor: 4
GridSize: 8

[Metadata]
Title:Second Heaven
Artist:Ryu
Creator:Al-Azif
Version:Another
Source:
Tags:

[Difficulty]
HPDrainRate:7
CircleSize:5
OverallDifficulty:7
SliderMultiplier:1.6
SliderTickRate:0.5

[Events]
//Background and Video events
0,0,"bg.jpg"
//Break Periods
2,15290,17412
2,71666,77009
//Storyboard Layer 0 (Background)
//Storyboard Layer 1 (Fail)
//Storyboard Layer 2 (Pass)
//Storyboard Layer 3 (Foreground)
//Storyboard Sound Samples
//Background Colour Transformations
3,100,0,0,0

[TimingPoints]
2205,402.684563758389,4,1,0,100,1,0
14990,-100,4,2,0,20,0,0
15493,-100,4,2,0,100,0,0
24654,-100,4,2,1,100,0,0
40460,-100,4,2,1,60,0,0
41265,-100,4,2,1,70,0,0
42674,-100,4,2,1,80,0,0
43077,-100,4,2,1,90,0,0
43480,-100,4,2,1,100,0,0
44084,-100,4,2,0,20,0,0
44184,-100,4,2,0,30,0,0
44285,-100,4,2,0,40,0,0
44386,-100,4,2,0,50,0,0
44486,-100,4,2,0,60,0,0
44587,-100,4,2,0,70,0,0
44889,-100,4,2,0,80,0,0
45493,-100,4,1,0,80,0,0
82842,-100,4,2,0,80,0,0
83144,-100,4,2,0,60,0,0
83547,-100,4,2,0,45,0,0
83949,-100,4,2,0,31,0,0
84251,-100,4,1,0,59,0,0
84553,-100,4,2,0,80,0,0
85057,-100,4,1,0,61,0,0
85258,-100,4,2,0,80,0,0
85460,-100,4,1,0,60,0,0
85661,-100,4,2,0,80,0,0
86366,-100,4,1,0,60,0,0
86466,-100,4,2,0,80,0,0
86668,-100,4,1,0,60,0,0
86869,-100,4,2,0,80,0,0
87473,-100,4,1,0,61,0,0
87674,-100,4,2,0,80,0,0
88278,-100,4,1,0,60,0,0
88480,-100,4,2,0,80,0,0
88681,-100,4,2,0,61,0,0
88882,-100,4,2,1,80,0,0
89688,-100,4,2,1,80,0,0
90594,-100,4,2,1,80,0,0
97238,-100,4,2,1,20,0,0
98647,-100,4,2,1,80,0,0
100460,-100,4,1,0,80,0,0
113245,-100,4,2,0,50,0,0

[Colours]
Combo1 : 0,128,255
Combo2 : 255,81,168
Combo3 : 128,255,255
Combo4 : 255,0,128

[HitObjects]
256,192,594,1,0
256,192,795,1,0
376,32,2205,6,0,B|480:192,1,160,0|0
296,256,3010,2,0,B|192:96,1,160
40,216,3815,2,0,B|144:376,1,160
127,350,4419,1,0
296,256,4822,1,0
464,168,5225,1,0
416,80,5426,5,0
392,272,5829,1,0
280,112,6231,1,0
256,304,6634,1,0
144,144,7037,1,0
120,336,7439,1,0
120,336,7641,1,0
16,176,8043,1,0
120,336,8446,1,0
216,336,8647,5,0
312,336,8849,1,0
256,192,10258,5,0
256,192,10460,1,0
296,48,11869,5,0
200,48,12070,1,0
96,208,12473,5,0
176,264,12674,1,0
256,208,12876,1,0
416,312,13278,5,0
336,264,13480,1,0
256,320,13681,1,0
160,152,14084,5,0
352,152,14486,1,0
256,320,14889,1,0
256,320,15090,1,0
64,288,18312,5,0
440,224,19117,1,0
64,160,19923,1,0
440,96,20728,1,0
256,160,21131,6,0,L|256:248,2,80
448,336,22339,1,0
64,336,23144,1,0
256,48,23949,1,0
256,240,24352,1,0
256,336,24553,1,0
256,336,24755,5,4
64,336,25158,1,2
64,240,25359,1,0
64,144,25560,2,0,L|112:72|200:72,1,160,8|2
480,320,26768,2,0,L|392:320|336:256,1,160,4|8
256,96,27573,1,2
256,192,27775,1,0
256,192,27976,5,4
88,288,28379,1,2
88,192,28580,1,0
88,96,28782,1,8
88,288,29184,1,2
424,96,29990,1,4
424,288,30392,1,8
424,96,30795,5,2
424,96,30996,1,0
352,160,31198,1,2
256,184,31399,1,0
160,160,31600,1,2
88,96,31802,1,2
256,184,32204,5,0
256,184,32406,1,2
256,184,32607,1,2
80,248,33010,5,0
80,248,33211,1,2
160,296,33413,1,0
256,320,33614,1,2
352,296,33815,1,0
432,248,34017,1,2
432,248,34218,1,2
256,160,34621,5,0
256,160,34822,2,0,L|256:64,1,80,2|0
64,80,35426,2,0,L|64:168,1,80,0|2
64,256,35829,2,0,L|152:256,1,80,0|2
240,256,36231,2,0,L|240:344,1,80,2|0
336,336,36634,2,0,L|432:336,1,80,2|2
472,256,37037,1,0
416,176,37238,1,2
472,96,37439,1,0
384,64,37641,6,0,B|280:8|176:8|64:72,1,320,2|0
80,320,39251,2,0,B|184:376|288:376|400:312,1,320,2|0
32,192,40862,5,4
480,192,41668,1,4
96,64,42473,5,4
416,64,42876,1,4
416,320,43278,1,4
96,320,43681,1,4
256,192,44084,6,0,B|256:224,24,17.5
464,192,45694,5,0
384,248,45896,1,0
344,280,45996,1,0
304,312,46097,1,0
208,312,46298,1,0
168,280,46399,1,0
128,248,46500,1,0
48,192,46701,1,0
48,192,46902,1,0
128,120,47104,5,0
168,88,47204,1,0
208,56,47305,1,0
256,136,47507,1,0
256,184,47607,1,0
256,232,47708,1,0
304,312,47909,1,0
344,280,48010,1,0
384,248,48111,1,0
464,192,48312,1,0
464,192,48513,1,0
464,192,48715,1,0
464,96,48916,5,0
376,56,49118,1,0
328,40,49218,1,0
280,56,49319,1,0
232,136,49520,1,0
184,152,49621,1,0
136,136,49721,1,0
48,96,49923,1,0
48,96,50124,1,0
48,192,50326,5,0
48,192,50426,1,0
48,192,50527,1,0
136,232,50728,1,0
224,264,50929,1,0
312,296,51131,1,0
400,328,51332,2,0,L|440:248|440:160,1,160,0|0
320,32,52137,6,0,L|288:72|288:128,1,80,0|0
288,200,52540,1,0
192,304,52842,5,0
144,288,52943,2,0,L|120:264|96:192,1,80
80,128,53345,1,0
160,80,53547,5,0
200,56,53647,1,0
248,56,53748,1,0
344,56,53949,1,0
344,56,54151,1,0
424,176,54453,5,0
384,208,54553,2,0,L|344:224|288:224,1,80
208,224,54956,2,0,L|168:224|104:256,1,80
32,192,55359,6,0,B|8:144|48:88,2,80
480,192,56164,2,0,B|504:144|464:88,2,80
256,320,56970,2,0,L|256:224,1,80
256,144,57372,1,0
256,144,57574,2,0,L|256:40,1,80,0|0
256,256,58178,6,0,L|256:352,1,80,0|0
352,304,58580,1,0
160,208,58983,1,0
400,128,59386,1,0
112,48,59788,1,0
112,48,59990,1,0
112,48,60191,2,0,L|24:48,1,80
480,48,60795,1,0
480,240,61198,5,0
480,240,61399,1,0
480,240,61600,1,0
480,240,61802,2,0,B|400:304|328:232,1,160,0|0
32,144,62607,2,0,B|112:80|184:152,1,160,0|0
176,144,63211,1,0
336,240,63614,1,0
416,192,63815,1,0
416,96,64017,1,0
336,48,64218,1,0
144,48,64621,6,0,L|64:48,1,80
64,48,65023,2,0,B|56:112|88:160|152:168,1,160
336,168,65829,1,0
144,168,66231,1,0
240,168,66433,2,0,B|248:232|216:280|152:288,1,160
240,168,67238,2,0,B|232:104|264:56|328:48,1,160,0|0
416,48,67842,5,0
488,104,68043,1,0
488,200,68245,1,0
352,336,68647,1,0
160,336,69050,1,0
24,200,69453,1,0
80,120,69654,1,0
80,120,69755,1,0
80,120,69856,2,0,B|144:40,1,80
200,120,70258,1,0
296,120,70460,2,0,B|360:40,1,80
488,200,71064,5,0
424,272,71265,1,0
328,272,71466,1,0
328,336,77909,5,4
328,336,78111,1,0
152,264,78513,1,0
384,176,78916,1,0
112,88,79319,1,0
112,88,79520,5,4
112,88,79721,1,0
384,176,80124,1,0
152,264,80527,1,0
328,336,80929,1,0
384,272,81131,5,4
304,256,81332,1,0
48,224,81735,1,0
112,176,81936,1,4
120,256,82137,1,0
336,80,82540,1,0
328,160,82741,1,4
256,112,82943,5,2
64,192,83345,1,2
256,272,83748,1,2
448,192,84150,1,2
448,192,84352,5,0
256,160,84654,1,0
64,200,84956,1,0
160,160,85158,5,0
256,272,85359,1,0
352,160,85560,1,0
360,72,85762,5,0
336,56,85862,1,0
304,48,85963,1,0
208,48,86164,1,0
176,56,86265,1,0
152,72,86365,1,0
256,152,86567,5,0
192,200,86768,1,0
216,272,86970,1,0
296,272,87171,1,0
320,200,87373,1,0
424,192,87574,5,0
256,152,87876,1,0
88,192,88178,1,0
168,136,88379,5,0
256,264,88580,1,0
344,136,88782,1,0
256,64,88983,5,0
256,64,89084,1,0
256,64,89184,2,0,B|256:160,1,80
256,320,89587,2,0,B|256:224,1,80,4|0
168,192,89990,2,0,B|104:224|80:168|8:192,1,160,4|0
432,272,90795,6,0,B|384:328|312:312,2,120,0|0|0
448,192,91600,1,0
408,120,91802,1,0
328,96,92003,1,0
256,128,92204,5,0
256,128,92305,1,0
256,128,92406,2,0,B|200:176|216:248,2,120
328,96,93211,1,0
408,120,93413,1,0
448,192,93614,1,0
376,216,93815,5,0
376,232,93916,1,0
376,248,94017,1,0
296,240,94218,1,0
296,256,94319,1,0
296,272,94420,1,0
216,256,94621,1,0
216,272,94722,1,0
216,288,94823,1,0
136,280,95023,1,0
136,296,95124,1,0
136,312,95225,1,0
56,296,95426,1,0
56,312,95527,1,0
56,328,95628,1,0
56,248,95829,5,0
72,168,96030,1,0
128,112,96231,1,0
200,72,96433,1,0
232,56,96533,1,0
264,48,96634,1,0
296,48,96735,1,0
328,48,96835,1,0
360,56,96936,1,0
384,72,97037,1,0
408,88,97137,1,0
256,192,97238,12,0,98446
256,192,98849,6,0,B|256:248,8,40
32,64,100057,6,0,B|120:32|200:96,1,160
256,120,100661,1,0
288,144,100762,1,0
312,176,100862,1,0
352,240,101064,1,0
368,272,101164,1,0
368,312,101265,1,0
304,360,101466,1,0
256,296,101668,1,0
184,336,101869,5,0
144,336,101970,1,0
104,320,102070,1,0
88,240,102272,1,0
72,200,102372,1,0
80,160,102473,1,0
128,96,102674,1,0
168,80,102775,1,0
208,80,102876,2,0,B|264:88|296:120,1,80
240,176,103278,2,0,B|296:184|328:216,1,80
256,264,103681,5,0
312,320,103882,1,0
352,328,103983,1,0
392,312,104084,1,0
448,256,104285,1,0
472,224,104386,1,0
472,184,104486,1,0
456,104,104688,1,0
400,40,104889,1,0
304,40,105090,5,0
304,40,105191,1,0
304,40,105292,1,0
200,112,105493,1,0
328,192,105694,1,0
176,272,105896,1,0
352,344,106097,1,0
256,192,106500,5,0
256,40,106902,5,4
256,40,107104,1,0
256,344,107507,5,0
256,344,107607,1,0
256,344,107708,2,0,B|256:248,1,80
160,112,108111,2,0,B|208:184,1,80
352,112,108513,2,0,B|304:184,1,80
256,264,108916,5,0
256,264,109017,1,0
256,264,109117,1,0
256,264,109218,1,0
256,264,109319,2,0,B|256:168,1,80
144,40,109722,2,0,B|192:112,1,80
368,40,110124,2,0,B|320:112,1,80
344,184,110527,5,0
360,216,110627,1,0
368,256,110728,1,0
360,296,110829,1,0
344,336,110929,1,0
256,336,111131,5,0
168,336,111332,5,0
152,296,111432,1,0
144,256,111533,1,0
152,216,111634,1,0
168,184,111734,1,0
256,136,111936,5,0
256,136,112137,5,0
256,136,112339,5,0
256,192,112540,12,0,113345
