osu file format v9

[General]
AudioFilename: Sakura Sunrise.mp3
AudioLeadIn: 1996
PreviewTime: 10976
Countdown: 0
SampleSet: Normal
StackLeniency: 0.7
Mode: 0
LetterboxInBreaks: 1

[Editor]
Bookmarks: 53385
DistanceSpacing: 1
BeatDivisor: 4
GridSize: 8

[Metadata]
Title:Sakura Sunrise
Artist:Ryu
Creator:ouranhshc
Version:Normal
Source:Dance Dance Revolution
Tags:Frank7654321 totallyMINA Anto DDR

[Difficulty]
HPDrainRate:4
CircleSize:4
OverallDifficulty:5
ApproachRate:5
SliderMultiplier:1
SliderTickRate:1

[Events]
//Background and Video events
0,0,"Sakura Sunrise-bg.png"
//Break Periods
//Storyboard Layer 0 (Background)
//Storyboard Layer 1 (Fail)
//Storyboard Layer 2 (Pass)
//Storyboard Layer 3 (Foreground)
//Storyboard Sound Samples
//Background Colour Transformations
3,100,163,162,255

[TimingPoints]
383.217877094972,331.491712707182,4,2,0,100,1,0
9656,-100,4,1,0,100,0,0
53413,-100,4,2,0,100,0,0
58634,-100,4,1,0,80,0,0
59960,-100,4,1,0,90,0,0
61286,-100,4,1,0,100,0,0
65181,-100,4,2,0,100,0,0
68007,-100,4,1,0,100,0,0
89049,-100,4,2,0,100,0,0

[Colours]
Combo1 : 0,128,192
Combo2 : 5,240,5
Combo3 : 0,0,0
Combo4 : 0,64,0

[HitObjects]
88,64,383,2,0,B|192:64,1,100,2|0
288,64,1046,2,0,B|360:64|376:120|360:176|288:176,2,200,2|0|2
136,192,3035,5,2
168,288,3366,1,0
256,328,3698,2,0,B|372:312|376:192,2,200,2|0|2
256,128,5687,6,0,B|256:232,1,100,2|0
160,248,6350,2,0,B|80:232|56:144|104:88,2,200,2|0|2
344,328,8339,5,2
432,280,8670,1,0
480,192,9002,2,0,B|424:192,3,50
432,104,9830,6,0,B|328:104,2,100,4|4|4
432,104,10659,1,0
368,32,10990,6,0,B|264:32,1,100,0|8
336,104,11653,2,0,B|232:104,1,100,0|8
136,104,12316,1,0
96,192,12648,1,8
136,104,12979,2,0,B|192:192,1,100,0|8
136,272,13642,6,0,B|240:272,1,100,0|8
304,344,14305,2,0,B|200:344,1,100,0|8
104,344,14968,1,4
40,272,15300,1,0
80,184,15631,1,4
32,96,15963,1,0
120,40,16294,6,0,B|224:40,1,100,0|8
152,112,16957,2,0,B|248:152,1,100,0|8
152,192,17620,2,0,B|232:256,1,100,0|8
128,264,18283,1,0
192,344,18615,1,8
128,264,18946,6,0,B|72:272|40:224,1,100,0|8
128,168,19609,2,0,B|232:168,1,100,0|8
228,168,20106,1,0
296,96,20438,5,4
392,136,20769,1,4
400,232,21101,1,4
400,232,21267,1,0
312,288,21598,6,0,B|208:304,1,100,0|8
136,240,22261,2,0,B|240:224,1,100,0|8
280,136,22924,1,0
224,48,23256,1,8
128,40,23587,2,0,B|72:56|64:112,1,100,0|8
80,208,24250,6,0,B|128:304,1,100,0|8
160,200,24913,2,0,B|208:288,1,100,0|8
240,192,25576,2,0,B|288:280,2,100,0|8|0
200,96,26571,1,8
272,24,26902,6,0,B|376:24,1,100,0|8
304,96,27565,2,0,B|240:176,1,100,0|8
344,168,28228,2,0,B|448:168,1,100,0|8
376,240,28891,2,0,B|312:320,1,100,0|8
216,336,29554,5,0
128,296,29885,1,8
128,192,30217,1,0
216,144,30548,1,8
216,144,30714,1,0
256,56,31046,5,4
336,112,31377,1,4
304,208,31709,1,4
304,208,31874,1,0
248,288,32206,6,0,B|296:376,1,100,0|8
344,288,32869,2,0,B|424:352,1,100,0|8
456,256,33532,2,0,B|512:280,2,50,0|0|8
376,200,34195,2,0,B|344:152,2,50,0|0|8
280,240,34858,6,0,B|176:240,1,100,0|8
112,160,35521,2,0,B|216:160,1,100,0|8
280,88,36184,1,0
280,88,36350,1,4
368,40,36681,1,4
384,136,37013,1,0
296,184,37344,1,0
296,184,37510,6,0,B|240:272,1,100,4|8
216,176,38173,2,0,B|160:264,1,100,0|8
136,168,38836,2,0,B|80:256,1,100,0|8
56,160,39499,1,0
56,160,39664,1,0
152,48,40162,5,4
152,48,40327,1,8
208,128,40659,1,8
304,128,40990,1,8
360,48,41322,1,8
360,48,41488,6,0,B|408:136,1,100,4|8
304,128,42151,2,0,B|352:216,1,100,0|8
256,232,42814,6,0,B|256:336,1,100,4|0
160,360,43477,2,0,B|72:360|40:288,2,150
216,272,44803,6,0,B|144:136,2,150
272,192,46129,6,0,B|296:112|384:112,2,150
304,288,47455,2,0,B|408:288,1,100
464,208,48118,6,0,B|360:208,1,100,4|0
280,160,48781,2,0,B|128:160,2,150
216,88,50106,6,0,B|368:88,2,150
280,16,51432,6,0,B|128:16,2,150
384,16,52758,1,0
384,16,53090,1,0
472,64,53421,6,0,B|504:160,1,100,2|0
488,256,54084,2,0,B|472:320|360:336|328:272,2,200,2|0|2
328,128,56073,6,0,B|224:128,1,100,2|0
128,128,56736,1,2
128,128,57068,1,2
56,200,57399,2,0,B|40:248|56:304,2,100,2|0|2
200,336,58725,6,0,B|304:304,1,100,4|0
208,256,59388,2,0,B|304:216,1,100
208,176,60051,6,0,B|104:176,1,100,4|0
184,104,60714,2,0,B|88:64,1,100
176,16,61377,6,0,B|224:32,7,50,4|0|0|0|0|0|0|0
320,32,62869,5,4
416,56,63200,1,4
440,152,63532,1,4
440,152,63698,1,0
392,296,64195,5,4
296,336,64526,1,4
216,272,64858,1,4
216,272,65024,1,0
144,336,65355,6,0,B|40:320,1,100,2|0
128,264,66018,2,0,B|64:184,1,100,2|0
168,200,66681,2,0,B|192:104,2,100,2|2|2
256,152,67676,1,0
280,248,68007,5,0
376,240,68339,1,8
384,336,68670,1,0
288,344,69002,1,8
280,248,69333,2,0,B|304:144,1,100,0|8
216,200,69996,2,0,B|224:96,1,100,0|8
144,160,70659,6,8,B|104:256,1,100,0|8
32,320,71322,1,0
128,352,71653,1,8
224,344,71985,2,0,B|312:288,1,100,0|8
208,264,72648,2,0,B|288:200,1,100,0|8
184,184,73311,6,0,B|256:112,1,100,0|8
328,40,73974,1,0
424,40,74305,1,8
472,128,74637,2,0,B|368:128,1,100,0|8
304,200,75300,2,0,B|408:200,1,100,0|8
480,264,75963,5,0
424,344,76294,1,8
368,264,76626,1,0
304,344,76957,1,8
304,344,77123,1,0
208,368,77455,5,4
120,320,77786,1,4
200,256,78118,1,4
200,256,78283,1,0
256,168,78615,6,0,B|160:120,1,100,0|8
256,168,79278,2,0,B|216:72,1,100,0|8
256,168,79941,2,0,B|296:72,1,100,0|8
256,168,80604,2,0,B|352:120,1,100,0|8
416,192,81267,5,0
320,224,81598,1,8
408,272,81930,1,0
312,304,82261,1,8
224,256,82593,2,0,B|120:256,1,100,4|0
48,184,83256,2,0,B|152:184,1,100,4|0
96,104,83919,6,0,B|160:24,1,100,0|8
176,120,84582,2,0,B|280:120,1,100,0|8
352,48,85245,2,0,B|248:48,2,100,0|8|0
456,48,86239,1,8
480,144,86571,6,0,B|424:144|400:192,1,100,0|8
480,256,87234,2,0,B|480:312,3,50
384,312,88062,1,4
288,304,88394,1,4
224,224,88725,1,4
224,224,88891,1,0
264,128,89222,5,4
