osu file format v9

[General]
AudioFilename: Sakura Sunrise.mp3
AudioLeadIn: 1996
PreviewTime: 10976
Countdown: 0
SampleSet: Soft
StackLeniency: 0.3
Mode: 0
LetterboxInBreaks: 1

[Editor]
Bookmarks: 53385
DistanceSpacing: 1
BeatDivisor: 4
GridSize: 8

[Metadata]
Title:Sakura Sunrise
Artist:Ryu
Creator:ouranhshc
Version:Hard
Source:Dance Dance Revolution
Tags:Frank7654321 totallyMINA Anto DDR

[Difficulty]
HPDrainRate:6
CircleSize:4
OverallDifficulty:7
ApproachRate:7
SliderMultiplier:1.5
SliderTickRate:2

[Events]
//Background and Video events
0,0,"Sakura Sunrise-bg.png"
//Break Periods
//Storyboard Layer 0 (Background)
//Storyboard Layer 1 (Fail)
//Storyboard Layer 2 (Pass)
//Storyboard Layer 3 (Foreground)
//Storyboard Sound Samples
//Background Colour Transformations
3,100,163,162,255

[TimingPoints]
383.217877094972,331.491712707182,4,2,0,100,1,0
4187,-100,4,2,0,80,0,0
5181,-100,4,2,0,100,0,0
9656,-100,4,1,0,100,0,0
44877,-100,4,1,1,100,0,0
45458,-100,4,1,0,100,0,0
47529,-100,4,1,1,100,0,0
48110,-100,4,1,0,100,0,0
50181,-100,4,1,1,100,0,0
50761,-100,4,1,0,100,0,0
51507,-100,4,1,1,100,0,0
52087,-100,4,1,0,100,0,0
53413,-100,4,2,0,100,0,0
55651,-100,4,2,2,100,0,0
55982,-100,4,2,0,100,0,0
57308,-100,4,2,0,80,0,0
58220,-100,4,2,2,100,0,0
58634,-100,4,1,0,80,0,0
59960,-100,4,1,0,90,0,0
61286,-100,4,1,0,100,0,0
65181,-100,4,2,0,100,0,0
67419,-100,4,2,2,100,0,0
67999,-100,4,1,0,100,0,0
72060,-100,4,1,1,100,0,0
72557,-100,4,1,0,100,0,0
89049,-100,4,2,0,100,0,0

[Colours]
Combo1 : 0,128,192
Combo2 : 5,240,5
Combo3 : 0,0,0
Combo4 : 0,64,0

[HitObjects]
144,40,383,1,2
216,40,548,1,0
288,40,714,1,2
160,112,1046,2,0,B|312:112,1,150,0|2
456,152,1709,6,0,B|504:208,1,75,2|0
432,232,2040,2,0,B|472:296,1,75,2|0
400,312,2372,2,0,B|328:344|248:312,1,150,2|0
208,168,3035,5,2
256,112,3200,1,0
304,168,3366,1,2
256,312,3698,2,0,B|104:312,1,150,0|2
256,312,4361,1,4
406,312,4691,1,4
256,312,5024,1,4
136,224,5355,5,2
104,152,5521,1,0
128,80,5687,2,0,B|200:24|264:80,1,150,2|0
264,232,6350,6,0,B|344:232,1,75,2|0
312,160,6681,2,0,B|392:160,1,75,2|0
360,88,7013,2,0,B|512:88,2,150,0|2|0
240,8,8007,5,2
96,24,8339,2,0,B|56:96|96:168,1,150,2|0
224,248,9002,2,0,B|264:176|224:104,1,150,2|0
160,136,9499,1,2
96,272,9830,5,4
136,336,9996,1,0
208,352,10162,1,4
232,208,10493,1,4
232,208,10659,1,0
256,64,10990,6,0,B|408:64,1,150,4|8
272,136,11653,1,0
200,136,11819,1,0
128,136,11985,1,8
256,208,12316,2,0,B|408:208,2,150,0|8|0
106,208,13311,1,8
48,344,13642,6,0,B|120:376|200:344,1,150,0|8
256,208,14305,2,0,B|256:288,1,75
184,264,14637,2,0,B|184:184,1,75,8|0
232,128,14968,6,0,B|304:112|344:176|336:216,1,150,4|0
488,184,15631,2,0,B|416:200|376:136|384:96,1,150,4|0
256,24,16294,6,0,B|104:24,1,150,4|8
8,136,16957,1,0
8,208,17123,1,0
72,176,17289,2,0,B|72:256,1,75,8|0
128,304,17620,6,0,B|200:344|272:304,1,150,0|8
248,232,18118,1,0
320,248,18283,2,0,B|352:176|320:96,1,150,0|8
272,40,18781,1,0
272,40,18946,6,0,B|120:40,1,150,0|8
144,192,19609,2,0,B|224:192,2,75,0|0|8
72,192,20106,1,0
168,312,20438,5,4
256,352,20604,1,0
344,312,20769,1,4
256,192,21101,6,0,B|256:112,1,75,4|0
384,40,21598,6,0,B|496:144,1,150,4|8
344,104,22261,2,0,B|464:216,1,150,0|8
488,272,22758,1,0
413,270,22924,2,0,B|304:168,1,150,0|8
256,112,23421,1,0
208,167,23587,2,0,B|98:270,1,150,0|8
40,320,24084,1,0
40,320,24250,5,0
8,248,24416,1,0
40,176,24582,2,0,B|104:128|80:40,2,150,8|0|8
120,304,25576,5,4
256,360,25908,1,0
392,304,26239,1,4
256,192,26571,5,0
256,192,26736,1,0
256,192,26902,2,0,B|256:352,1,150,0|8
176,216,27565,5,0
168,144,27731,1,0
112,184,27897,1,8
104,112,28062,1,0
40,152,28228,2,0,B|16:0,2,150,0|8|0
64,296,29222,5,8
200,368,29554,2,0,B|264:320|248:232,1,150,0|8
200,96,30217,2,0,B|224:168,1,75
312,96,30548,2,0,B|288:168,1,75,8|0
392,280,31046,5,4
432,192,31211,1,0
392,104,31377,1,4
256,192,31709,5,4
256,192,31874,1,0
144,96,32206,6,0,B|152:152|96:200|40:176,1,150,4|0
72,112,32703,2,0,B|168:232,1,150
216,288,33200,1,0
360,344,33532,6,0,B|448:336|456:248,1,150
304,288,34195,2,0,B|311:200|399:192,1,150
392,40,34858,5,4
240,40,35189,2,0,B|296:96,1,75
224,128,35521,2,0,B|288:192,1,75
208,216,35852,1,0
64,248,36184,5,0
16,192,36350,1,0
88,72,36681,1,0
88,72,36847,2,0,B|240:72,1,150
256,224,37510,6,0,B|408:224,1,150,4|0
392,296,38007,2,0,B|240:296,1,150
256,368,38504,1,0
136,304,38836,5,0
256,192,39167,1,0
376,80,39499,1,0
316,136,39664,1,0
256,192,39830,1,8
196,248,39996,1,8
136,304,40162,6,0,B|88:232|136:160,1,150,4|0
32,56,40825,2,0,B|80:128|32:200,1,150,0|0
64,344,41488,5,0
256,344,41819,1,0
448,344,42151,1,0
360,312,42316,1,0
432,256,42482,1,0
408,112,42814,6,0,B|256:112,1,150
128,40,43477,2,0,B|72:72|80:144,2,112.5
136,192,44305,5,0
88,248,44471,1,0
208,336,44803,2,0,B|264:304|248:240,2,112.5,0|0|8
360,336,45631,5,0
360,336,45797,1,0
472,240,46129,2,0,B|360:240,2,112.5
344,168,46957,6,0,B|424:168,1,75,0|0
272,168,47455,2,0,B|160:168,2,112.5,0|0|8
256,16,48283,5,0
256,16,48449,1,0
184,32,48615,1,0
232,88,48781,2,0,B|344:88,2,112.5
88,112,49609,5,0
120,256,49941,1,0
104,184,50106,2,0,B|176:184|192:248,2,112.5,0|0|8
136,328,50935,6,0,B|216:328,1,75,8|0
288,328,51267,1,8
248,264,51432,2,0,B|248:152,2,112.5,0|0|8
328,120,52261,6,0,B|408:120,2,75,8|8|8
256,120,52758,1,0
144,120,53007,1,0
256,120,53256,1,0
280,192,53421,6,0,B|312:272|272:344,1,150,2|0
376,224,54084,2,0,B|344:144|384:72,1,150,2|0
456,72,54582,1,0
432,144,54747,2,0,B|352:168|288:120,2,150,2|2|2
480,288,55742,5,8
480,288,55908,1,8
416,328,56073,2,0,B|336:352|264:328,1,150,2|0
144,240,56736,1,2
208,192,56902,1,0
144,152,57068,2,0,B|168:120|208:120,1,75,2|0
256,64,57399,5,4
384,192,57731,1,4
256,320,58062,1,4
128,192,58394,1,8
200,192,58560,1,8
128,192,58725,6,0,B|48:216|48:304,1,150
128,192,59388,2,0,B|48:168|48:80,1,150
184,24,60051,1,0
256,24,60217,1,0
328,24,60383,1,0
400,24,60548,1,0
472,24,60714,1,0
360,128,61046,5,8
400,192,61211,1,8
360,256,61377,2,0,B|320:256,14,37.5
256,368,62869,5,4
144,312,63035,1,0
112,192,63200,1,4
256,104,63532,5,4
256,104,63698,1,0
256,368,64195,5,4
368,312,64361,1,0
400,192,64526,1,4
256,104,64858,5,4
256,104,65024,1,0
128,24,65355,6,0,B|72:72,1,75,2|0
136,112,65687,2,0,B|80:160|104:256,1,150,2|0
0,384,66350,2,0,B|55:336|33:246,1,150,2|0
16,176,66847,1,0
0,104,67013,2,0,B|-8:56|8:24,1,75,2|0
72,64,67344,1,2
72,64,67510,6,8,B|96:136,2,75
128,16,68007,6,0,B|208:16,1,75,4|0
176,88,68339,2,0,B|224:88|264:144|240:200,1,150,8|0
200,264,68836,1,0
224,336,69002,1,8
368,296,69333,5,0
320,152,69664,1,8
176,192,69996,1,0
224,336,70327,5,8
72,360,70659,2,0,B|16:296|48:216,1,150,0|8
112,80,71322,2,0,B|160:80|176:112,1,75
208,40,71653,2,0,B|240:64|248:104,1,75,8|0
256,176,71985,2,0,B|256:256|336:296,2,150
352,64,72979,6,0,B|280:88,1,75,8|8
208,112,73311,2,0,B|160:144|160:216|208:248,1,150,0|8
56,192,73974,1,0
64,264,74140,1,0
96,328,74305,1,8
240,368,74637,2,0,B|320:352|336:264,1,150,0|8
336,192,75134,1,0
264,192,75300,2,0,B|184:208|168:296,1,150,0|8
144,144,75963,6,0,B|248:32,1,150,0|8
392,72,76626,1,0
416,144,76792,1,0
344,128,76957,1,8
392,72,77123,1,0
448,208,77455,5,4
432,320,77620,1,0
312,352,77786,1,4
256,192,78118,5,4
256,192,78283,1,0
104,192,78615,6,0,B|208:80,1,150,4|8
64,120,79278,2,0,B|120:64,2,75,0|0|8
24,184,79775,1,0
56,256,79941,2,0,B|96:320|184:320,2,150,0|8|0
192,192,80935,1,8
256,56,81267,6,0,B|344:64|352:152,1,150,0|8
504,152,81930,2,0,B|416:144|408:56,1,150,0|8
352,8,82427,1,0
280,8,82593,2,0,B|128:8,2,150,0|8|0
168,112,83587,5,8
40,192,83919,2,0,B|192:192,1,150,0|8
56,264,84582,2,0,B|136:264,1,75
208,264,84913,2,0,B|288:264,1,75,8|0
272,336,85245,2,0,B|120:336,2,150,0|8|0
400,264,86239,5,8
376,192,86405,1,8
400,120,86571,2,0,B|328:88|248:120,1,150,4|8
128,192,87234,1,0
64,152,87399,1,0
64,232,87565,1,8
128,192,87731,1,0
256,272,88062,6,0,B|256:352,2,75,4|0|0
320,48,88725,5,4
192,48,88891,1,0
256,192,89222,5,4
