osu file format v9

[General]
AudioFilename: Sakura Reflection.mp3
AudioLeadIn: 0
PreviewTime: -1
Countdown: 1
SampleSet: Normal
StackLeniency: 0.7
Mode: 0
LetterboxInBreaks: 1

[Editor]
Bookmarks: 78569
DistanceSpacing: 1
BeatDivisor: 4
GridSize: 4

[Metadata]
Title:Sakura Reflection
Artist:Ryu*
Creator:SnowWhite
Version:Nold
Source:Reflec Beat
Tags:spboxer3 Mold1702 Numbers 596108 nold_1702

[Difficulty]
HPDrainRate:6
CircleSize:4
OverallDifficulty:7
ApproachRate:8
SliderMultiplier:1.8
SliderTickRate:1

[Events]
//Background and Video events
0,0,"Sakura BG.jpg"
//Break Periods
2,54913,56284
//Storyboard Layer 0 (Background)
//Storyboard Layer 1 (Fail)
//Storyboard Layer 2 (Pass)
//Storyboard Layer 3 (Foreground)
//Storyboard Sound Samples
//Background Colour Transformations
3,100,163,162,255

[TimingPoints]
1675,331.491712707182,4,1,1,100,1,0
3983,-200,4,1,1,100,0,0
4244,-200,4,2,1,100,0,0
4326,-100,4,1,1,100,0,0
9299,-200,4,1,1,100,0,0
9547,-200,4,2,1,100,0,0
9630,-100,4,1,1,100,0,0
11122,-100,4,2,1,100,0,0
11288,-100,4,1,1,100,0,0
11454,-100,4,2,1,100,0,0
11619,-100,4,1,1,100,0,0
14603,-200,4,1,1,100,0,0
14851,-200,4,2,1,100,0,0
14934,-100,4,1,1,100,0,0
16426,-100,4,2,1,100,0,0
16592,-100,4,1,1,100,0,0
16757,-100,4,2,1,100,0,0
16923,-100,4,1,1,100,0,0
17089,-100,4,2,1,100,0,0
17255,-100,4,1,1,100,0,0
17337,-100,4,2,1,100,0,0
17586,-100,4,1,1,100,0,0
17752,-100,4,2,1,100,0,0
20238,-100,4,1,1,20,0,0
20570,-100,4,1,1,40,0,0
20901,-100,4,1,1,60,0,0
21233,-100,4,1,1,80,0,0
21564,-100,4,1,1,20,0,0
21895,-100,4,1,1,40,0,0
22227,-100,4,1,1,60,0,0
22558,-100,4,1,1,80,0,0
22890,-100,4,2,1,100,0,0
23802,-100,4,2,1,70,0,0
23967,-100,4,2,1,100,0,0
25128,-100,4,2,1,70,0,0
25293,-100,4,2,1,100,0,0
26454,-100,4,2,1,70,0,0
26619,-100,4,2,1,100,0,0
28194,-100,4,1,1,50,0,0
32089,-100,4,1,1,20,0,0
32420,-100,4,1,1,40,0,0
32752,-100,4,1,1,60,0,0
33083,-100,4,1,1,80,0,0
33498,-100,4,1,1,100,0,0
37641,-100,4,2,1,100,0,0
37807,-100,4,1,1,100,0,0
37973,-100,4,2,1,100,0,0
38056,-100,4,1,1,100,0,0
38636,-100,4,2,1,100,0,0
38719,-100,4,1,1,100,0,0
42945,-100,4,2,1,100,0,0
43111,-100,4,1,1,100,0,0
43277,-100,4,2,1,100,0,0
43442,-100,4,1,1,100,0,0
43608,-100,4,2,1,100,0,0
43774,-100,4,1,1,100,0,0
43940,-100,4,2,1,100,0,0
44105,-100,4,1,1,100,0,0
48249,-100,4,2,1,100,0,0
48415,-100,4,1,1,100,0,0
48581,-100,4,2,1,100,0,0
48746,-100,4,1,1,100,0,0
49161,-100,4,2,1,100,0,0
49326,-100,4,1,1,50,0,0
51647,-100,4,1,1,100,0,0
51813,-100,4,1,1,20,0,0
52393,-100,4,1,1,40,0,0
52724,-100,4,1,1,60,0,0
53056,-100,4,1,1,80,0,0
56702,-100,4,2,1,80,0,0
57365,-100,4,1,1,80,0,0
58111,-100,4,2,1,80,0,0
60017,-100,4,1,1,80,0,0
60763,-100,4,2,1,80,0,0
62669,-100,4,1,1,80,0,0
63415,-100,4,2,1,80,0,0
64741,-100,4,2,1,50,0,0
64907,-100,4,2,1,80,0,0
65238,-100,4,1,1,80,0,0
66067,-100,4,2,1,80,0,0
66647,-100,4,1,1,20,0,0
66813,-100,4,1,1,40,0,0
66978,-100,4,1,1,60,0,0
67144,-100,4,1,1,80,0,0
67310,-100,4,1,1,100,0,0
67476,-100,4,2,1,100,0,0
67890,-100,4,1,1,100,0,0
68387,-100,4,2,1,100,0,0
68553,-100,4,1,1,100,0,0
68719,-100,4,2,1,100,0,0
69216,-100,4,1,1,40,0,0
69382,-100,4,1,1,60,0,0
69547,-100,4,1,1,80,0,0
69713,-100,4,1,1,100,0,0
70045,-100,4,1,1,80,0,0
70210,-50,4,1,1,60,0,0
70376,-100,4,2,1,100,0,0
70542,-100,4,1,1,100,0,0
71039,-100,4,2,1,100,0,0
71205,-100,4,1,1,100,0,0
71371,-100,4,2,1,100,0,0
71868,-100,4,1,1,40,0,0
72034,-100,4,1,1,60,0,0
72199,-100,4,1,1,80,0,0
72365,-100,4,1,1,100,0,0
72697,-100,4,1,1,80,0,0
72862,-50,4,1,1,60,0,0
73111,-100,4,2,1,100,0,0
73277,-100,4,1,1,100,0,0
73691,-100,4,2,1,100,0,0
73857,-100,4,1,1,100,0,0
74023,-100,4,2,1,100,0,0
74520,-100,4,2,1,40,0,0
74686,-100,4,1,1,60,0,0
74851,-100,4,1,1,80,0,0
75017,-100,4,1,1,100,0,0
75183,-100,4,1,1,80,0,0
75349,-100,4,1,1,60,0,0
75514,-50,4,1,1,100,0,0
75763,-100,4,2,1,100,0,0
75846,-200,4,1,1,20,0,0
76260,-100,4,1,1,40,0,0
76592,-50,4,1,1,60,0,0
76923,-50,4,1,1,80,0,0
78249,-100,4,1,1,80,0,0
83553,-100,4,2,1,80,0,0
83802,-100,4,1,1,80,0,0
88111,-100,4,1,1,90,0,0
88442,-100,4,1,1,100,0,0
88608,-100,4,2,1,80,0,0
88774,-100,4,1,1,80,0,0
94575,-100,4,2,1,80,0,0
95818,-100,4,1,1,80,0,0
95901,-100,4,2,1,80,0,0
97807,-100,4,1,1,80,0,0
97890,-100,4,2,1,80,0,0
98304,-100,4,1,1,80,0,0
99879,-100,4,2,1,5,0,0

[Colours]
Combo1 : 0,255,255
Combo2 : 36,208,135
Combo3 : 14,177,162
Combo4 : 38,118,206

[HitObjects]
288,192,1675,2,0,B|352:120|464:96,1,180
240,264,2172,2,0,B|145:244|68:159,1,180
36,104,2669,2,0,B|152:64,1,90
121,74,2918,1,0
121,74,3000,5,0
152,160,3166,1,0
272,100,3332,5,0
225,198,3498,1,0
352,236,3663,5,0
228,279,3829,1,0
228,279,3995,6,0,B|200:280|200:280|192:276|192:276|192:284|192:284|184:280|184:280|164:280,1,67.5
140,312,4326,6,0,B|84:312|20:240|40:152,1,180
168,60,4824,2,0,B|224:60|288:132|268:220,1,180
271,186,5321,2,0,B|376:128,1,90
350,142,5570,1,0
350,142,5652,5,2
436,248,5818,1,0
362,185,5984,5,2
397,316,6150,1,0
355,228,6315,5,2
334,363,6481,1,2
260,312,6647,1,2
172,288,6813,1,2
92,180,6978,6,0,B|128:236|128:236|128:284|48:328,1,180
184,188,7476,2,0,B|214:128|214:128|256:104|334:152,1,180
412,152,7973,2,0,B|444:100|436:40,1,90
437,66,8221,1,0
437,66,8304,5,0
308,104,8470,1,0
172,96,8636,2,0,B|120:8,1,90
20,164,8967,2,0,B|45:65,1,90
42,76,9216,1,0
42,76,9299,6,0,B|84:76|116:56,1,67.5
124,48,9630,6,0,B|228:38|313:80,1,180,0|0
128,132,10128,2,0,B|83:227|5:279,1,180,0|0
100,236,10625,2,0,B|147:258|173:297,1,90,0|0
169,291,10873,1,0
169,291,10956,5,2
340,228,11122,1,2
208,256,11288,1,2
378,192,11454,1,2
492,120,11619,2,0,B|440:88,1,45,2|0
400,168,11785,2,0,B|385:108,1,45,2|0
301,136,11951,2,0,B|333:83,1,45,2|0
252,43,12116,2,0,B|311:28,1,45,2|0
204,116,12282,6,0,B|144:100|144:100|72:32,1,135
72,36,12614,2,0,B|-16:72,1,90,8|0
120,100,12945,2,0,B|83:187,1,90
199,111,13277,2,0,B|234:198,1,90,8|0
232,194,13525,1,0
232,194,13608,6,0,B|260:152|340:148,1,90
360,276,13940,2,0,B|332:318|252:322,1,90,8|0
196,328,14271,2,0,B|144:356,2,45
120,276,14603,2,0,B|100:252|100:252|68:284,1,67.5,8|0
60,296,14934,6,0,B|32:284|32:284|0:260|0:176,1,135
0,164,15266,1,8
136,168,15431,1,0
32,84,15597,1,0
68,216,15763,2,0,B|64:292,2,45,0|0|8
116,88,16094,1,0
240,144,16260,6,0,B|296:88|352:76,1,90,2|2
305,202,16592,2,0,B|326:278|308:333,1,90,2|2
222,229,16923,2,0,B|145:209|107:166,1,90,2|2
120,180,17172,1,2
108,164,17255,1,0
100,144,17337,1,2
100,120,17420,1,2
232,84,17586,6,0,B|204:28|128:4|44:32,1,180,0|2
192,160,18083,2,0,B|244:194|328:184|380:111,1,180,2|2
357,137,18498,1,0
357,137,18581,1,2
408,64,18746,2,0,B|464:112|496:232,1,180,2|2
404,212,19244,1,2
340,276,19409,1,0
252,288,19575,1,2
176,240,19741,1,0
156,152,19907,1,2
156,152,20238,5,0
140,136,20321,1,0
124,120,20404,1,0
108,104,20487,1,0
172,88,20570,5,0
188,68,20652,1,0
204,56,20735,1,0
220,40,20818,1,0
236,104,20901,5,0
252,120,20984,1,0
268,136,21067,1,0
284,152,21150,1,0
220,168,21233,5,0
204,184,21315,1,0
188,200,21398,1,0
172,216,21481,1,0
220,264,21564,6,0,B|232:288,4,22.5,2|0|0|0|0
72,184,21895,6,0,B|63:209,4,22.5,2|0|0|0|0
396,276,22227,6,0,B|372:288,4,22.5,2|0|0|0|0
188,72,22558,6,0,B|162:63,4,22.5,2|0|0|0|4
188,72,22890,5,2
120,132,23056,1,0
120,132,23139,1,2
112,220,23304,1,0
112,220,23387,1,2
72,300,23553,2,0,B|44:336|16:384,1,90,2|0
152,332,23884,1,10
192,252,24050,1,0
276,220,24216,5,2
364,232,24382,1,0
364,232,24465,1,2
432,288,24630,1,0
432,288,24713,1,2
444,200,24879,2,0,B|472:148|468:96,1,90,2|0
420,40,25210,1,10
332,28,25376,1,0
240,32,25542,6,0,B|180:33|137:63,1,90,2|0
153,53,25791,1,2
100,128,25956,1,0
100,128,26039,1,2
40,196,26205,2,0,B|70:247|118:269,1,90,2|0
44,328,26536,1,10
132,340,26702,1,0
176,264,26868,6,0,B|227:233|249:185,1,90,2|0
239,201,27116,1,2
324,172,27282,1,0
324,172,27365,1,2
304,84,27531,1,2
376,32,27697,1,0
448,88,27862,1,2
416,172,28028,1,0
324,172,28194,5,4
239,260,29520,1,4
205,143,30846,5,4
306,143,31509,1,4
48,320,32172,5,2
136,344,32337,1,2
68,225,32503,5,10
136,344,32669,1,2
190,144,32835,5,10
136,344,33000,1,10
405,189,33166,5,10
136,344,33332,1,10
224,332,33498,6,0,B|264:312|264:312|340:320,1,90
332,320,33746,1,0
356,324,33829,2,0,B|400:320|400:320|436:256|400:176,1,180
336,132,34326,1,0
336,132,34409,1,0
336,132,34492,1,0
420,100,34658,1,0
292,52,34824,5,0
208,156,34989,1,0
208,156,35072,1,0
208,156,35155,2,0,B|156:156|120:108,1,90
276,228,35487,1,0
276,228,35652,1,0
276,228,35818,2,0,B|302:273|278:328,1,90,2|0
304,132,36150,6,0,B|356:41|475:27,2,180
216,152,36978,1,0
216,152,37061,1,0
216,152,37144,1,0
128,128,37310,1,0
68,64,37476,5,2
40,148,37641,1,2
40,148,37724,1,2
40,148,37807,2,0,B|40:200|-8:236,1,90,2|2
128,128,38139,1,2
128,128,38304,1,0
128,128,38470,2,0,B|164:164|156:224,1,90,0|2
136,344,38802,6,0,B|252:332,1,90
248,340,39050,1,0
268,348,39133,1,0
360,344,39299,1,0
432,288,39465,1,0
336,132,39630,1,0
336,132,39713,1,0
336,132,39796,1,0
392,200,39962,1,0
284,60,40128,5,0
204,104,40293,1,0
160,108,40376,1,0
124,80,40459,2,0,B|72:80|36:128,1,90
120,168,40791,1,0
120,168,40956,1,0
116,260,41122,2,0,B|168:260|204:212,1,90
280,256,41454,6,0,B|332:165|451:151,1,180
444,320,41951,1,0
356,324,42116,1,0
268,348,42282,1,0
268,348,42365,1,0
268,348,42448,1,0
200,292,42614,1,0
128,344,42779,5,2
120,256,42945,1,2
120,256,43028,1,2
120,256,43111,2,0,B|172:256|208:304,1,90,2|2
128,120,43442,1,2
120,256,43608,1,2
208,152,43774,1,2
76,188,43940,1,2
200,236,44105,6,0,B|240:216|240:216|316:224,1,90
300,236,44354,1,0
316,252,44437,2,0,B|349:280|457:240|463:167,1,180,8|0
372,176,44934,1,0
360,156,45017,1,0
348,136,45100,1,8
276,88,45266,1,0
188,80,45431,5,0
112,128,45597,1,0
120,148,45680,1,0
124,168,45763,2,0,B|124:220|76:256,1,90,8|0
4,284,46094,1,0
87,246,46260,1,0
180,252,46426,2,0,B|225:225|280:249,1,90,8|0
332,308,46757,6,0,B|396:256|396:256|432:156,2,180,0|8|0
416,344,47586,1,0
416,344,47669,1,0
416,344,47752,1,8
392,256,47918,1,0
320,200,48083,5,2
232,188,48249,1,2
232,188,48332,1,2
232,188,48415,2,0,B|180:188|144:140,1,90,10|2
140,60,48746,1,2
140,60,48912,1,0
140,60,49078,2,0,B|192:60|228:108,1,90,8|2
308,92,49409,5,4
332,272,49741,1,2
332,272,49907,1,0
328,92,50238,1,0
328,92,50404,1,2
408,252,50735,5,0
348,80,51067,1,2
348,80,51233,1,0
476,204,51564,1,0
476,204,51730,1,6
368,352,52061,6,0,B|296:348,1,45
376,276,52227,2,0,B|304:272,1,45
272,344,52393,6,0,B|200:340,1,45,8|0
280,268,52559,2,0,B|208:264,1,45
176,336,52724,6,0,B|104:332,1,45
184,260,52890,2,0,B|112:256,1,45
80,328,53056,6,0,B|8:324,1,45,8|0
88,252,53222,2,0,B|16:248,1,45,8|0
43,249,53387,6,0,B|92:188|92:188|92:152|64:104,1,135,2|0
68,112,53719,2,0,B|108:84|108:84|172:84,1,90,10|0
228,40,54050,1,2
288,108,54216,1,0
244,188,54382,1,8
156,168,54547,1,8
156,168,54713,5,4
120,296,57034,5,2
52,236,57199,1,2
136,208,57365,1,2
136,208,57697,2,0,B|196:208|252:168|264:96,1,180,2|2
320,172,58194,1,2
320,172,58277,1,2
320,172,58360,2,0,B|368:152|432:152,1,90,2|2
244,232,58691,6,0,B|202:200|170:145,1,90,2|2
333,267,59023,2,0,B|326:318|294:373,2,90,2|2|2
332,268,59686,5,2
404,320,59851,1,2
476,268,60017,1,2
332,268,60349,2,0,B|308:212|308:212|239:187|171:213,1,180,2|2
104,232,60846,1,2
104,232,60929,1,2
104,232,61012,2,0,B|84:184|84:120,1,90,2|2
220,140,61343,6,0,B|171:120|126:74,1,90,2|2
280,80,61674,1,2
300,112,61757,1,2
336,124,61840,1,2
372,116,61923,1,2
392,84,62006,1,2
268,212,62337,5,2
244,300,62502,1,2
268,212,62668,1,2
120,316,63000,2,0,B|64:312|32:268|32:220|32:220|32:160,1,180,2|2
86,113,63497,1,2
86,113,63580,1,2
86,113,63663,2,0,B|48:148|48:148|22:207,1,90,2|2
164,60,63995,6,0,B|213:74|213:74|277:68,1,90,2|2
336,44,64325,1,2
400,128,64491,1,2
256,192,64657,1,2
448,256,64824,1,2
356,336,64989,5,2
204,352,65155,1,2
120,316,65321,2,0,B|72:300|72:300|32:248|28:152,2,180,2|2|2
172,240,66150,1,2
172,240,66233,1,2
172,240,66315,2,0,B|212:204|212:204|272:184,1,90,2|2
380,224,66647,6,0,B|396:116,1,90
272,120,66978,2,0,B|288:12,1,90,0|0
136,186,67310,2,0,B|150:97,1,90
64,252,67641,5,2
228,324,67807,1,2
380,224,67973,2,0,B|428:248|428:248|448:296|424:376|368:384,1,180,2|2
452,184,68470,2,0,B|488:144|488:100,1,90,2|2
324,28,68802,1,2
324,28,68884,1,2
324,28,68967,2,0,B|288:68|288:112,1,90,2|2
288,108,69299,6,0,B|188:76,1,90
24,116,69630,2,0,B|109:143,1,90,0|0
410,55,69962,6,0,B|310:23,1,90
48,212,70293,6,0,B|218:266,1,180,0|2
376,360,70625,2,0,B|452:311|452:311|474:215,1,180,2|2
410,55,71122,2,0,B|374:95|374:139,1,90,2|2
252,80,71454,1,2
252,80,71536,1,2
252,80,71619,2,0,B|254:133|285:164,1,90,2|2
196,192,71951,5,0
108,200,72116,1,0
184,192,72282,5,0
78,201,72447,1,0
169,192,72614,5,0
42,203,72779,1,0
42,203,72945,6,0,B|21:240|21:240|63:304|24:380,1,180,0|2
208,336,73277,6,0,B|240:284|284:288|284:288|328:252|306:191,1,180,2|2
492,200,73774,2,0,B|452:164|408:164,1,90,2|2
348,100,74106,1,2
332,88,74188,1,2
316,72,74271,2,0,B|369:70|400:39,1,90,2|2
236,124,74603,5,0
120,260,74768,1,0
265,121,74934,5,0
104,198,75099,1,0
293,131,75266,5,0
114,136,75431,1,0
314,151,75597,6,0,B|224:144|132:72,1,180
256,232,75929,6,0,B|288:252,3,22.5
188,260,76260,6,0,B|204:328,3,45
120,236,76592,6,0,B|72:312,3,90
120,236,76923,5,0
120,236,77089,1,0
120,236,77255,5,4
340,76,77420,1,0
255,334,77586,1,2
172,76,77752,1,0
391,236,77918,1,2
28,152,78581,6,0,B|176:96,1,135,4|0
240,84,78912,2,0,B|203:166,1,90,8|0
336,188,79244,2,0,B|251:219,1,90,0|0
251,218,79492,2,0,B|192:224,1,45,0|8
204,312,79658,2,0,B|158:273,1,45
104,384,79907,6,0,B|93:265,1,90,0|0
260,308,80238,2,0,B|251:218,1,90,8|0
288,136,80570,1,0
376,112,80735,2,0,B|380:52,2,45,0|0|8
460,148,81067,1,0
496,232,81233,6,0,B|360:232,1,135
348,320,81564,2,0,B|284:256,1,90,8|0
144,140,81895,2,0,B|207:203,1,90,0|0
207,203,82144,1,0
207,203,82227,2,0,B|143:266,1,90,8|0
264,132,82558,6,0,B|296:112|316:112|356:136,1,90
348,131,82807,1,0
348,131,82890,1,8
428,176,83056,2,0,B|480:176,2,45
428,176,83387,1,0
428,176,83553,5,2
356,220,83719,1,2
176,268,83884,6,0,B|165:149,1,90,0|0
356,220,84215,2,0,B|347:130,1,90,8|0
280,300,84547,1,0
280,300,84630,1,0
280,300,84712,2,0,B|284:368,2,45,0|0|8
268,212,85044,1,0
204,148,85210,6,0,B|180:120|180:120|152:104|92:120,1,90
268,212,85542,2,0,B|304:205|304:205|332:188|348:129,1,90,8|0
180,236,85873,2,0,B|167:270|167:270|167:303|211:346,1,90,0|0
187,319,86122,1,0
187,319,86205,1,8
187,319,86371,1,0
276,304,86536,6,0,B|372:280|488:292,1,180,0|8
408,212,87034,1,0
408,212,87199,2,0,B|360:160|360:96,1,90
456,32,87531,2,0,B|504:84|504:148,1,90,8|0
492,244,87862,6,0,B|384:204,1,90,0|0
252,80,88194,2,0,B|360:120,1,90,8|0
164,160,88525,2,0,B|49:167,1,90
74,165,88857,1,8
120,272,89188,6,0,B|76:328,3,45
176,272,89520,2,0,B|228:256|256:180|224:108,1,180,8|0
160,176,90017,1,0
160,176,90100,1,0
160,176,90183,2,0,B|256:212,1,90,8|0
424,216,90514,2,0,B|339:184,1,90
128,64,90846,2,0,B|224:100,1,90,8|0
492,152,91177,2,0,B|515:225|491:289|439:305,1,180,0|8
260,324,91840,6,0,B|304:380,3,45
216,300,92172,2,0,B|164:284|164:284|136:208|168:136,1,180,8|0
340,152,92669,1,0
340,152,92752,1,0
340,152,92835,2,0,B|306:123|246:109,1,90,8|0
416,204,93166,2,0,B|428:257|428:257|376:319|297:327,1,180,0|8
324,323,93581,1,0
324,323,93663,1,0
324,323,93746,1,0
324,323,93829,1,0
324,323,94161,2,0,B|124:324,1,180,8|4
44,172,94824,5,10
100,104,94989,1,2
184,136,95155,1,2
172,224,95321,1,2
172,224,95404,1,2
172,224,95487,1,10
88,252,95652,1,2
172,224,95818,5,4
100,104,95984,1,2
88,252,96150,1,10
184,136,96315,1,2
44,172,96481,1,10
148,320,96813,6,0,B|264:320,2,90,0|2|2
324,356,97476,2,0,B|352:344|352:344|352:264,1,90,2|0
424,228,97807,1,0
424,228,97973,2,0,B|472:228,2,45,2|2|0
424,228,98470,5,4
404,228,98802,1,4
388,228,99133,1,4
124,228,99796,1,4
256,192,99962,12,0,102448
