osu file format v9

[General]
AudioFilename: Sakura Reflection.mp3
AudioLeadIn: 2000
PreviewTime: 56939
Countdown: 0
SampleSet: Normal
StackLeniency: 0.7
Mode: 0
LetterboxInBreaks: 1

[Editor]
Bookmarks: 2160,78569
DistanceSpacing: 1
BeatDivisor: 4
GridSize: 4

[Metadata]
Title:Sakura Reflection
Artist:Ryu*
Creator:SnowWhite
Version:Medium
Source:Reflec Beat
Tags:spboxer3 Mold1702 Numbers 596108

[Difficulty]
HPDrainRate:5
CircleSize:3
OverallDifficulty:5
ApproachRate:6
SliderMultiplier:1.6
SliderTickRate:1

[Events]
//Background and Video events
0,0,"Sakura BG.jpg"
//Break Periods
2,23090,32436
2,57565,66911
//Storyboard Layer 0 (Background)
//Storyboard Layer 1 (Fail)
//Storyboard Layer 2 (Pass)
//Storyboard Layer 3 (Foreground)
//Storyboard Sound Samples
//Background Colour Transformations
3,100,163,162,255

[TimingPoints]
1675,331.491712707182,4,1,1,100,1,0
20238,-100,4,1,1,60,0,0
33415,-100,4,1,1,100,0,0
42767,-100,4,1,1,100,0,1
49326,-100,4,1,1,80,0,1
49824,-100,4,1,1,40,0,1
50238,-100,4,1,1,80,0,1
50652,-100,4,1,1,60,0,1
51150,-100,4,1,1,40,0,1
51564,-100,4,1,1,80,0,1
51978,-100,4,1,1,60,0,1
54535,-100,4,1,1,100,0,0
57282,-100,4,1,1,80,0,0
78569,-100,4,1,1,100,0,1
99701,-100,4,1,1,100,0,0
99784,-100,4,1,1,100,0,1
100045,-100,4,2,1,20,0,1
102353,-100,4,1,1,5,0,0

[Colours]
Combo1 : 0,255,255
Combo2 : 36,208,135
Combo3 : 14,177,162
Combo4 : 38,118,206

[HitObjects]
32,116,1675,6,0,B|92:60|92:60|200:60,2,160,0|0|0
116,252,2669,1,0
116,252,3000,2,0,B|156:320|156:320|240:320,2,160,8|0|0
276,244,3995,1,2
276,244,4326,6,0,B|324:180|324:180|324:92,2,160,0|0|0
124,196,5321,1,0
124,196,5652,2,0,B|100:284,2,80,2|0|2
280,156,6315,2,0,B|256:68,2,80
416,240,6978,6,0,B|440:164|440:164|420:68,2,160,0|8|0
288,144,7973,2,0,B|304:56,1,80,0|0
172,160,8470,2,0,B|192:240,1,80,0|8
60,332,8967,2,0,B|68:160,1,160
172,296,9630,6,0,B|248:220|384:384|500:240,2,320
256,192,11122,12,0,12282
48,108,12945,5,0
48,108,13277,1,0
48,108,13608,6,0,B|124:68|208:112,1,160
104,236,14271,2,0,B|164:180|164:180|256:216,1,160,8|0
168,356,14934,6,0,B|324:324|324:324|404:152,2,320,0|0|2
80,220,16592,2,0,B|56:304,1,80,0|0
116,240,16923,2,0,B|144:144,2,80,0|0|8
276,224,17586,6,0,B|468:272|532:148|508:28|264:60,2,480,2|0|0
276,224,19907,1,0
256,192,20238,12,2,22890
28,296,33498,6,0,B|104:320|104:320|184:288,1,160,0|0
144,220,33995,2,0,B|180:296|180:296|252:348,2,160,0|0|8
256,104,34989,1,0
308,256,35321,1,0
428,152,35652,1,8
428,152,35818,1,2
268,168,36150,6,0,B|200:208|200:208|104:208,1,160
208,76,36813,2,0,B|276:36|276:36|372:36,2,160,0|0|2
100,192,37807,5,8
216,304,38139,1,0
324,188,38470,1,0
360,260,38636,1,0
400,328,38802,6,0,B|472:296|472:296|496:204,1,160,0|0
356,132,39465,2,0,B|428:164|428:164|452:256,1,160,0|0
304,312,40128,2,0,B|376:280|376:280|400:188,1,160,8|0
236,208,40791,2,0,B|272:48,2,160,0|2|0
76,184,41785,6,0,B|104:264|104:264|164:312,1,160,0|0
224,164,42448,2,0,B|196:84|196:84|136:36,2,160,8|2|2
224,164,43442,1,2
224,164,43774,1,0
120,284,44105,6,8,B|192:336|232:344|332:248|332:248|276:268|244:208|256:144|288:108|356:96,2,480,0|8|0
44,140,46426,1,0
44,140,46757,6,0,B|92:72|184:92|184:92|160:108|152:152|184:208|184:208|200:188|224:168|292:152|400:156,1,480,8|0
276,24,48083,6,0,B|440:40,1,160,2|8
312,140,48746,2,0,B|156:176,1,160,2|0
72,312,49409,6,0,B|176:248|340:276,2,240,0|0|0
204,220,50735,6,0,B|104:152|76:20,2,240,8|0|0
260,68,52061,6,0,B|368:68,1,80,0|0
400,124,52393,1,8
260,212,52724,6,0,B|148:212,1,80,0|0
132,276,53056,1,8
280,340,53387,2,0,B|360:336|360:336|416:180|416:180|512:172,2,320
184,212,55045,6,0,B|212:36,2,160
256,192,56039,12,2,57365
48,88,67973,6,0,B|84:72|84:72|120:88|120:88|160:72|160:72|204:92,2,160,0|0|8
176,184,68967,1,2
264,312,69299,6,0,B|116:232,1,160,8|0
256,148,69962,2,0,B|400:220,1,160,0|8
364,64,70625,6,0,B|436:120|464:220,2,160
252,176,71619,1,0
96,212,71951,6,0,B|212:100,1,160,8|0
288,240,72614,2,0,B|164:364,2,160,0|0|2
428,320,73608,6,0,B|436:232,2,80,8|0|0
272,292,74271,2,0,B|252:372,2,80,0|0|8
116,248,74934,6,0,B|72:80,2,160
248,160,75929,6,0,B|344:120,2,80,8|0|0
140,276,76592,2,0,B|40:232,2,80,8|0|0
284,348,77255,6,0,B|336:300|224:240|296:172,2,160
424,272,78249,1,0
276,200,78581,1,4
136,136,78912,5,0
284,72,79244,2,0,B|364:56|364:56|456:72,2,160,0|0|0
136,136,80238,6,0,B|60:156|60:156|-32:132,1,160,8|0
64,272,80901,1,0
64,272,81067,1,0
64,272,81233,6,0,B|144:244|144:244|216:296,1,160
356,336,81895,2,0,B|280:188,1,160
428,124,82558,1,0
428,124,82890,2,0,B|296:32,1,160
240,180,83553,6,0,B|204:256|204:256|244:336,1,160,0|0
388,264,84216,2,0,B|424:192|424:192|388:96,2,160,8|0|0
232,304,85210,1,0
108,204,85542,1,0
264,164,85873,1,0
132,76,86205,6,0,B|208:52|208:52|284:76,1,160,8|0
384,196,86868,2,0,B|308:220|308:220|232:196,1,160
128,72,87531,1,0
64,220,87862,1,4
220,184,88194,5,8
220,344,88525,1,0
360,268,88857,2,0,B|432:208,1,80
420,136,89188,6,0,B|368:48|368:48|308:76|308:140|328:172|328:172|256:176|192:136|156:24,2,480,0|8|0
364,288,91509,1,0
208,260,91840,6,0,B|120:244|52:328,2,160
332,156,92835,1,0
332,156,93166,2,0,B|420:140|488:224,2,160
32,128,94161,1,8
52,288,94492,6,0,B|120:244|176:244|176:244|200:292|272:288|272:288|300:212|300:212|348:200|460:220,2,480,0|8|0
200,352,96813,1,8
356,312,97144,6,0,B|436:280,1,80,8|0
372,224,97476,2,0,B|288:192,1,80
316,116,97807,2,0,B|128:128,1,160,8|0
80,268,98470,1,0
152,304,98636,1,0
224,268,98802,1,8
296,304,98967,1,0
364,260,99133,6,0,B|456:128,2,160,0|0|4
256,192,99879,12,0,102448
