osu file format v14

[General]
AudioFilename: Sakura Mirage.mp3
AudioLeadIn: 0
PreviewTime: 81309
Countdown: 1
SampleSet: Soft
StackLeniency: 0.7
Mode: 0
LetterboxInBreaks: 1
WidescreenStoryboard: 1

[Editor]
DistanceSpacing: 0.7
BeatDivisor: 4
GridSize: 4
TimelineZoom: 2

[Metadata]
Title:Sakura Mirage
TitleUnicode:Sakura Mirage
Artist:Ryu*
ArtistUnicode:Ryu*
Creator:XL i g h t
Version:HyPeR
Source:SOUND VOLTEX II -infinite infection-
Tags:REFLEC BEAT groovin'!! SDVX II
BeatmapID:667181
BeatmapSetID:297189

[Difficulty]
HPDrainRate:5.5
CircleSize:4
OverallDifficulty:5.5
ApproachRate:8
SliderMultiplier:1.5
SliderTickRate:1

[Events]
//Background and Video events
0,0,"Sakura.jpg",0,0
//Break Periods
2,53354,56255
//Storyboard Layer 0 (Background)
//Storyboard Layer 1 (Fail)
//Storyboard Layer 2 (Pass)
//Storyboard Layer 3 (Foreground)
//Storyboard Sound Samples

[TimingPoints]
1818,320.855614973262,4,2,2,5,1,0
1818,-100,4,1,2,70,0,0
6630,-100,4,2,2,70,0,0
6951,-100,4,1,2,70,0,0
8242,-100,4,2,2,70,0,0
9518,-100,4,1,2,70,0,0
10801,-100,4,2,2,70,0,0
17379,-100,4,1,2,70,0,0
17539,-100,4,2,2,5,0,0
17700,-100,4,1,2,70,0,0
17860,-100,4,2,2,5,0,0
18021,-100,4,1,2,70,0,0
18181,-100,4,2,2,5,0,0
18342,-100,4,1,2,70,0,0
18502,-100,4,2,2,70,0,0
19785,-100,4,1,2,5,0,0
19946,-100,4,1,2,70,0,0
20106,-100,4,1,2,5,0,0
20267,-100,4,1,2,70,0,0
20427,-100,4,1,2,5,0,0
20588,-100,4,1,2,70,0,0
20748,-100,4,1,2,5,0,0
20908,-100,4,1,2,70,0,0
22112,-100,4,1,2,5,0,0
22352,-100,4,1,2,70,0,0
31497,-100,4,2,2,70,0,0
32379,-100,4,2,2,5,0,0
32620,-100,4,1,2,70,0,0
41604,-100,4,2,2,70,0,0
42887,-100,4,1,2,70,0,0
51871,-100,4,2,2,70,0,0
57005,-100,4,2,2,50,0,0
58288,-133.333333333333,4,1,2,60,0,0
59572,-133.333333333333,4,2,2,70,0,0
60855,-133.333333333333,4,1,2,60,0,0
62138,-133.333333333333,4,2,2,70,0,0
63422,-133.333333333333,4,2,2,70,0,0
67272,-133.333333333333,4,2,0,70,0,0
69839,-133.333333333333,4,2,2,70,0,0
78823,-200,4,2,2,70,0,0
78843,-200,4,2,2,5,0,0
81069,-100,4,1,0,5,0,0
81390,-100,4,1,2,80,0,1
85400,-100,4,2,2,80,0,1
86523,-100,4,1,2,80,0,1
90534,-100,4,2,2,90,0,1
91657,-100,4,1,2,80,0,1
93101,-100,4,2,2,80,0,1
93903,-100,4,1,2,80,0,1
100721,-100,4,2,2,80,0,1
101924,-100,4,2,2,50,0,0

[Colours]
Combo1 : 255,0,255
Combo2 : 255,128,255
Combo3 : 255,0,128

[HitObjects]
256,192,534,12,0,1657,0:0:0:0:
323,113,1818,6,0,L|366:112,3,37.5
419,168,2138,2,0,L|450:210,3,37.5
402,262,2459,2,0,L|384:306,3,37.5
321,332,2780,2,0,L|270:310,3,37.5
241,252,3101,6,0,L|261:197,2,37.5
171,203,3422,2,0,P|136:177|126:133,1,75
146,75,3743,2,0,L|98:48,2,37.5
223,58,4063,2,0,P|260:83|291:85,1,75
348,135,4384,6,0,P|383:152|411:192,1,75
362,241,4705,2,0,P|355:285|321:317,1,75
261,303,5026,2,0,P|223:297|188:263,1,75
220,203,5347,2,0,P|231:158|218:120,1,75
180,69,5668,6,0,L|123:82,3,37.5
119,106,5989,2,0,L|75:140,3,37.5
76,164,6309,2,0,L|91:202,3,37.5
114,227,6630,2,0,L|205:250,1,75
270,117,6951,6,0,L|342:89,1,75
432,138,7272,2,0,L|362:165,1,75
327,255,7593,6,0,L|399:227,1,75
489,276,7914,2,0,L|419:303,1,75
330,257,8235,6,0,L|283:178,1,75
239,245,8555,6,0,L|192:166,1,75
148,234,8876,6,0,L|101:155,1,75
59,225,9197,6,0,L|12:146,1,75
242,117,9518,6,0,L|170:89,1,75
80,138,9839,2,0,L|150:165,1,75
185,255,10160,6,0,L|113:227,1,75
23,276,10481,2,0,L|93:303,1,75
160,352,10801,6,0,L|196:376,3,37.5
232,364,11122,2,0,L|280:348,3,37.5
300,324,11443,2,0,L|336:240,1,75
296,180,11764,2,0,L|252:56,1,112.5
224,52,12085,6,0,P|180:80|144:80,1,75
124,156,12406,2,0,P|120:212|172:268,1,112.5
184,284,12727,1,0,0:0:0:0:
256,244,12887,1,0,0:0:0:0:
332,276,13047,1,0,0:0:0:0:
400,232,13208,6,0,L|448:256,2,37.5
404,148,13529,2,0,P|424:92|420:60,2,75
336,104,14010,2,0,B|300:80|300:80|280:44,1,75
208,196,14331,2,0,B|196:148|196:148|224:80,1,112.5
200,52,14652,6,0,B|168:28|168:28|128:16,1,75
80,80,14973,2,0,P|80:128|40:192,1,112.5
56,224,15293,2,0,L|80:268,4,37.5
168,232,15775,6,0,L|196:276,2,37.5
216,164,16096,2,0,P|228:116|224:80,2,75
280,216,16577,1,0,0:0:0:0:
352,176,16737,1,0,0:0:0:0:
432,200,16898,1,0,0:0:0:0:
480,268,17058,1,0,0:0:0:0:
432,336,17219,6,0,L|344:308,1,75
392,236,17539,6,0,L|304:208,1,75
364,144,17860,6,0,L|276:116,1,75
336,52,18181,6,0,L|248:24,1,75
192,68,18502,5,0,0:0:0:0:
112,44,18662,1,0,0:0:0:0:
124,128,18823,1,0,0:0:0:0:
44,104,18983,1,0,0:0:0:0:
64,184,19144,2,0,L|32:268,1,75
92,340,19465,2,0,L|118:269,1,75
168,360,19785,6,0,L|256:332,1,75
208,260,20105,6,0,L|296:232,1,75
236,168,20426,6,0,L|324:140,1,75
264,76,20747,6,0,L|352:48,1,75
408,96,21069,5,0,0:0:0:0:
440,172,21229,1,0,0:0:0:0:
356,160,21390,1,0,0:0:0:0:
408,96,21550,1,0,0:0:0:0:
388,232,21711,2,0,B|360:260|360:260|316:272,1,75
276,208,22031,2,0,P|248:256|264:320,1,112.5
244,348,22352,6,4,B|200:352|200:352|160:328,1,75,4|0,0:0|0:0,0:0:0:0:
108,232,22673,2,0,P|124:168|92:120,1,112.5,8|0,0:0|0:0,0:0:0:0:
44,176,22994,2,0,L|20:208,4,37.5,0|0|0|0|8,0:0|0:0|0:0|0:0|0:0,0:0:0:0:
40,88,23475,1,0,0:0:0:0:
68,64,23555,1,0,0:0:0:0:
104,56,23636,5,0,0:0:0:0:
184,84,23796,2,0,P|224:84|264:64,2,75,0|8|0,0:0|0:0|0:0,0:0:0:0:
116,136,24277,1,0,0:0:0:0:
176,212,24438,1,0,0:0:0:0:
212,128,24598,1,8,0:0:0:0:
300,148,24759,1,0,0:0:0:0:
300,148,24839,1,0,0:0:0:0:
300,148,24919,6,0,B|352:168|352:168|380:164,1,75
440,212,25240,2,0,P|448:164|400:96,1,112.5,8|0,0:0|0:0,0:0:0:0:
388,80,25561,2,0,L|408:36,4,37.5,0|0|0|0|8,0:0|0:0|0:0|0:0|0:0,0:0:0:0:
300,148,26042,6,0,L|256:120,2,37.5
332,224,26363,1,0,0:0:0:0:
264,272,26523,1,8,0:0:0:0:
200,220,26684,1,0,0:0:0:0:
220,140,26844,2,0,P|208:96|176:64,1,75
116,208,27165,2,0,P|124:244|146:274,1,75,8|0,0:0|0:0,0:0:0:0:
200,220,27486,6,0,P|240:224|272:244,1,75,4|0,0:0|0:0,0:0:0:0:
296,316,27807,2,0,P|332:284|336:204,1,112.5,8|0,0:0|0:0,0:0:0:0:
356,184,28128,2,0,L|400:156,4,37.5,0|0|0|0|8,0:0|0:0|0:0|0:0|0:0,0:0:0:0:
320,100,28609,1,0,0:0:0:0:
320,100,28689,1,0,0:0:0:0:
320,100,28769,6,0,B|276:76|276:76|244:76,1,75
144,156,29090,2,0,B|188:180|188:180|212:180,1,75,8|0,0:0|0:0,0:0:0:0:
328,256,29411,2,0,B|284:280|284:280|259:280,2,75,0|0|8,0:0|0:0|0:0,0:0:0:0:
404,224,29892,2,0,L|436:256,1,37.5
468,264,30053,6,0,L|504:188,1,75
496,160,30374,2,0,L|384:196,1,112.5,8|0,0:0|0:0,0:0:0:0:
404,224,30695,2,0,L|440:260,4,37.5,0|0|0|0|8,0:0|0:0|0:0|0:0|0:0,0:0:0:0:
392,324,31176,1,0,0:0:0:0:
392,324,31256,1,0,0:0:0:0:
392,324,31336,6,0,P|356:304|312:296,1,75
252,340,31657,2,0,P|212:328|176:296,1,75,8|0,0:0|0:0,0:0:0:0:
112,336,31978,1,8,0:0:0:0:
164,188,32138,1,0,0:0:0:0:
164,188,32299,2,8,P|208:204|256:156,1,112.5,8|0,0:0|0:0,0:0:0:0:
276,124,32620,6,0,L|316:48,2,75,0|0|8,0:0|0:0|0:0,0:0:0:0:
208,96,33101,1,0,0:0:0:0:
136,112,33261,2,0,P|88:188|112:244,1,150,0|8,0:0|0:0,0:0:0:0:
172,280,33743,1,0,0:0:0:0:
236,240,33903,6,0,B|272:256|272:256|300:312,1,75
332,348,34224,2,0,B|368:328|368:328|404:288,1,75,8|0,0:0|0:0,0:0:0:0:
400,228,34545,2,0,P|436:192|396:96,1,150,0|8,0:0|0:0,0:0:0:0:
364,160,35026,1,0,0:0:0:0:
312,104,35186,6,0,P|282:169|324:227,2,150,0|8|0,0:0|0:0|0:0,0:0:0:0:
276,36,35989,1,0,0:0:0:0:
212,76,36149,2,0,P|168:84|132:120,1,75,8|0,0:0|0:0,0:0:0:0:
128,176,36470,5,0,0:0:0:0:
56,152,36630,1,0,0:0:0:0:
56,152,36711,1,0,0:0:0:0:
56,152,36791,2,0,B|40:200|40:200|40:232,1,75,8|0,0:0|0:0,0:0:0:0:
84,284,37112,1,0,0:0:0:0:
156,264,37272,1,0,0:0:0:0:
220,300,37432,1,12,0:0:0:0:
360,352,37753,6,0,L|396:284,1,75
316,164,38074,2,0,L|340:236,1,75,8|0,0:0|0:0,0:0:0:0:
460,244,38395,2,0,P|484:204|444:108,1,150,0|8,0:0|0:0,0:0:0:0:
396,64,38876,1,0,0:0:0:0:
324,88,39037,6,0,B|280:88|240:64,1,75
184,36,39358,2,0,B|152:56|152:56|136:100,2,75,8|0|0,0:0|0:0|0:0,0:0:0:0:
208,200,39999,2,0,L|204:104,1,75,8|0,0:0|0:0,0:0:0:0:
240,60,40320,5,0,0:0:0:0:
332,80,40481,1,0,0:0:0:0:
380,172,40801,1,0,0:0:0:0:
428,268,41122,1,0,0:0:0:0:
476,364,41443,1,0,0:0:0:0:
332,312,41604,6,0,L|296:296,3,37.5
236,248,41924,2,0,L|192:256,3,37.5
140,200,42245,2,0,L|96:176,3,37.5
88,148,42566,1,0,0:0:0:0:
88,120,42646,1,0,0:0:0:0:
96,92,42727,1,0,0:0:0:0:
112,68,42807,1,0,0:0:0:0:
136,52,42887,6,0,L|180:44,3,37.5
224,100,43208,2,0,L|272:112,3,37.5,8|0|0|0,0:0|0:0|0:0|0:0,0:0:0:0:
324,68,43529,2,0,L|376:60,3,37.5
416,116,43850,2,0,L|460:140,3,37.5,8|0|0|0,0:0|0:0|0:0|0:0,0:0:0:0:
448,212,44170,6,0,L|468:248,2,37.5
376,272,44491,2,0,L|416:340,1,75,8|0,0:0|0:0,0:0:0:0:
272,208,44812,6,0,L|292:244,2,37.5
200,268,45133,2,0,L|240:336,1,75,8|0,0:0|0:0,0:0:0:0:
124,220,45454,6,0,L|92:184,2,37.5
136,104,45775,2,0,L|172:76,2,37.5,8|0|0,0:0|0:0|0:0,0:0:0:0:
244,132,46096,2,0,L|288:136,2,37.5
344,80,46416,1,8,0:0:0:0:
344,80,46497,1,0,0:0:0:0:
344,80,46577,1,0,0:0:0:0:
344,80,46657,1,0,0:0:0:0:
344,80,46737,6,0,L|380:120,3,37.5,2|0|0|0,0:0|0:0|0:0|0:0,0:0:0:0:
380,184,47058,2,0,L|368:224,3,37.5,2|0|0|0,0:0|0:0|0:0|0:0,0:0:0:0:
420,284,47379,2,0,L|436:328,3,37.5,2|0|0|0,0:0|0:0|0:0|0:0,0:0:0:0:
404,360,47700,2,0,L|352:344,1,37.5,2|0,0:0|0:0,0:0:0:0:
296,324,47860,2,0,L|252:308,1,37.5
192,280,48021,6,0,L|152:296,3,37.5,10|0|0|0,0:0|0:0|0:0|0:0,0:0:0:0:
112,228,48342,2,0,L|64:196,3,37.5,10|0|0|0,0:0|0:0|0:0|0:0,0:0:0:0:
108,136,48662,2,0,L|92:88,3,37.5,10|0|0|0,0:0|0:0|0:0|0:0,0:0:0:0:
168,76,48983,2,0,L|196:40,3,37.5,10|0|0|0,0:0|0:0|0:0|0:0,0:0:0:0:
260,88,49304,6,0,P|296:96|336:120,1,75,10|0,0:0|0:0,0:0:0:0:
380,168,49625,1,10,0:0:0:0:
380,244,49785,1,0,0:0:0:0:
312,276,49946,2,0,P|276:296|232:304,1,75,10|0,0:0|0:0,0:0:0:0:
228,152,50267,2,0,P|232:196|252:228,1,75,10|0,0:0|0:0,0:0:0:0:
172,328,50588,6,0,P|132:316|100:280,1,75,10|0,0:0|0:0,0:0:0:0:
248,224,50908,2,0,P|283:233|311:258,1,75,10|0,0:0|0:0,0:0:0:0:
128,204,51229,6,0,P|88:192|56:156,1,75,10|0,0:0|0:0,0:0:0:0:
204,100,51549,2,0,P|239:109|267:134,1,75,10|0,0:0|0:0,0:0:0:0:
328,208,51871,5,2,0:0:0:0:
356,220,51951,1,0,0:0:0:0:
384,220,52031,1,0,0:0:0:0:
412,208,52112,1,0,0:0:0:0:
432,184,52192,2,0,L|464:144,3,37.5,2|0|0|0,0:0|0:0|0:0|0:0,0:0:0:0:
448,124,52513,2,0,L|400:92,1,37.5,2|0,0:0|0:0,0:0:0:0:
372,72,52673,2,0,L|324:40,1,37.5,2|0,0:0|0:0,0:0:0:0:
292,20,52834,2,0,P|264:56|164:44,1,150,2|4,0:0|0:0,0:0:0:0:
116,132,57005,5,0,0:0:0:0:
116,132,57165,2,0,P|76:148|56:248,2,150
128,212,57967,1,0,0:0:0:0:
296,228,58288,6,0,B|344:256|416:208|416:208|404:252,1,168.750006437302
376,320,58930,2,0,P|424:328|476:272,1,112.500004291535
444,148,59572,6,0,L|452:104,3,28.1250010728836,2|0|0|0,0:0|0:0|0:0|0:0,0:0:0:0:
424,88,59892,2,0,L|396:48,3,28.1250010728836,2|0|0|0,0:0|0:0|0:0|0:0,0:0:0:0:
364,64,60213,2,0,L|320:52,3,28.1250010728836,2|0|0|0,0:0|0:0|0:0|0:0,0:0:0:0:
296,68,60534,2,0,L|256:96,3,28.1250010728836,2|0|0|0,0:0|0:0|0:0|0:0,0:0:0:0:
240,112,60855,6,0,B|204:112|204:112|120:152|120:152|76:152,1,168.750006437302
44,228,61497,2,0,B|64:256|64:256|64:344,1,112.500004291535
200,232,62138,5,2,0:0:0:0:
220,240,62219,1,0,0:0:0:0:
244,240,62299,1,2,0:0:0:0:
264,232,62379,1,0,0:0:0:0:
284,220,62459,2,0,L|320:164,1,56.2500021457673,2|2,0:0|0:0,0:0:0:0:
300,136,62700,1,2,0:0:0:0:
264,116,62780,2,0,L|244:60,3,56.2500021457673,2|2|2|2,0:0|0:0|0:0|0:0,0:0:0:0:
208,48,63422,6,0,P|172:56|180:164,1,168.750006437302
208,192,64063,2,0,P|224:216|168:264,1,112.500004291535
220,344,64705,6,0,L|256:364,3,28.1250010728836,2|0|0|0,0:0|0:0|0:0|0:0,0:0:0:0:
284,348,65026,2,0,L|328:324,3,28.1250010728836,2|0|2|0,0:0|0:0|0:0|0:0,0:0:0:0:
352,336,65346,2,0,L|408:304,1,56.2500021457673,2|0,0:0|0:0,0:0:0:0:
432,204,65667,2,0,L|384:232,1,56.2500021457673,2|0,0:0|0:0,0:0:0:0:
312,192,65989,6,0,B|288:172|324:92|324:92|324:96|264:76,1,168.750006437302
136,96,66630,2,0,P|168:144|228:148,1,112.500004291535
256,192,67272,12,4,69518,0:0:0:0:
204,148,69839,6,0,L|92:184,2,112.500004291535,2|2|2,0:0|0:0|0:0,0:0:0:0:
256,88,70641,1,0,0:0:0:0:
332,112,70801,2,0,L|400:140,1,56.2500021457673,2|0,0:0|0:0,0:0:0:0:
420,204,71122,1,2,0:0:0:0:
364,260,71283,1,0,0:0:0:0:
292,224,71443,2,0,L|224:244,1,56.2500021457673,2|0,0:0|0:0,0:0:0:0:
276,308,71764,2,0,L|160:344,1,112.500004291535,2|2,0:0|0:0,0:0:0:0:
164,184,72406,6,0,P|148:128|92:96,2,112.500004291535,2|2|2,0:0|0:0|0:0,0:0:0:0:
100,228,73208,1,0,0:0:0:0:
172,264,73368,2,0,L|224:304,1,56.2500021457673,2|0,0:0|0:0,0:0:0:0:
276,348,73689,6,0,L|344:328,1,56.2500021457673,2|0,0:0|0:0,0:0:0:0:
324,252,74010,6,0,L|392:232,1,56.2500021457673,2|0,0:0|0:0,0:0:0:0:
368,156,74331,6,0,L|436:136,1,56.2500021457673,2|0,0:0|0:0,0:0:0:0:
416,60,74652,6,0,L|484:40,1,56.2500021457673,2|0,0:0|0:0,0:0:0:0:
476,124,74973,6,0,L|444:184,1,56.2500021457673,10|0,0:0|0:0,0:0:0:0:
376,148,75293,2,0,L|344:208,1,56.2500021457673,10|0,0:0|0:0,0:0:0:0:
272,188,75614,2,0,L|240:156,3,28.1250010728836,10|0|0|0,0:0|0:0|0:0|0:0,0:0:0:0:
216,152,75935,2,0,L|176:136,3,28.1250010728836,10|0|0|0,0:0|0:0|0:0|0:0,0:0:0:0:
152,148,76256,6,0,L|96:192,1,56.2500021457673,10|0,0:0|0:0,0:0:0:0:
156,244,76577,2,0,L|100:288,1,56.2500021457673,10|0,0:0|0:0,0:0:0:0:
176,324,76898,2,0,L|204:344,3,28.1250010728836,10|0|0|0,0:0|0:0|0:0|0:0,0:0:0:0:
236,328,77219,2,0,L|276:304,3,28.1250010728836,10|0|0|0,0:0|0:0|0:0|0:0,0:0:0:0:
300,308,77539,6,0,L|364:264,1,56.2500021457673,10|0,0:0|0:0,0:0:0:0:
364,240,77780,1,0,0:0:0:0:
384,208,77860,2,0,L|360:144,1,56.2500021457673,10|0,0:0|0:0,0:0:0:0:
292,64,78181,6,0,L|248:108,1,56.2500021457673,10|0,0:0|0:0,0:0:0:0:
224,132,78422,1,0,0:0:0:0:
212,168,78502,2,0,P|168:216|152:224,1,84.3750032186509,10|0,0:0|0:0,0:0:0:0:
120,208,78823,6,0,B|88:136|220:16|272:220|336:192|376:184|452:184|408:44|332:96,1,450,4|0,0:0|0:0,0:0:0:0:
172,100,81069,6,0,P|126:97|152:134,1,112.5
172,176,81390,6,0,L|256:148,1,75
316,176,81711,2,0,P|368:196|408:192,1,75,8|0,0:0|0:0,0:0:0:0:
416,172,81951,1,0,0:0:0:0:
440,144,82031,2,0,L|416:72,1,75
312,24,82352,2,0,L|328:76,3,37.5,8|0|0|0,0:0|0:0|0:0|0:0,0:0:0:0:
308,96,82673,6,0,L|236:120,1,75
152,92,82994,2,0,L|80:116,2,75,8|0|0,0:0|0:0|0:0,0:0:0:0:
160,176,83475,1,0,0:0:0:0:
220,232,83636,1,8,0:0:0:0:
180,304,83796,1,0,0:0:0:0:
100,280,83957,6,0,P|120:236|152:216,1,75
196,160,84277,1,8,0:0:0:0:
272,192,84438,1,0,0:0:0:0:
272,192,84518,1,0,0:0:0:0:
272,192,84598,2,0,L|340:248,1,75
464,256,84919,2,0,L|406:208,1,75,8|0,0:0|0:0,0:0:0:0:
376,80,85240,6,0,L|352:152,1,75
272,136,85561,6,0,L|248:208,1,75,8|0,0:0|0:0,0:0:0:0:
168,192,85882,6,0,L|144:264,1,75
64,248,86203,6,0,L|40:320,1,75,8|0,0:0|0:0,0:0:0:0:
88,172,86523,6,0,P|110:126|144:108,1,75
140,32,86844,2,0,L|208:72,1,75,8|0,0:0|0:0,0:0:0:0:
224,108,87085,1,0,0:0:0:0:
252,136,87165,2,0,P|296:144|336:132,1,75
396,96,87486,1,8,0:0:0:0:
408,112,87566,1,0,0:0:0:0:
416,132,87646,1,0,0:0:0:0:
416,156,87727,1,0,0:0:0:0:
408,176,87807,6,0,P|376:212|344:224,1,75
280,184,88128,1,8,0:0:0:0:
216,236,88288,1,0,0:0:0:0:
140,204,88449,1,0,0:0:0:0:
140,204,88609,1,0,0:0:0:0:
172,312,88769,6,0,L|140:268,3,37.5,8|0|0|0,0:0|0:0|0:0|0:0,0:0:0:0:
108,276,89090,2,0,P|68:236|68:200,1,75
96,148,89411,1,8,0:0:0:0:
176,168,89572,2,0,L|208:124,2,37.5
256,192,89892,2,0,L|312:112,2,75,0|8|0,0:0|0:0|0:0,0:0:0:0:
332,224,90374,5,4,0:0:0:0:
332,224,90534,2,0,P|392:212|432:132,2,150
352,144,91336,1,0,0:0:0:0:
208,64,91657,6,0,L|128:112,1,75,8|0,0:0|0:0,0:0:0:0:
88,164,91978,1,8,0:0:0:0:
156,208,92138,1,0,0:0:0:0:
156,208,92219,1,0,0:0:0:0:
156,208,92299,2,0,P|144:248|156:288,1,75,8|0,0:0|0:0,0:0:0:0:
256,352,92620,2,0,P|263:315|251:280,1,75,8|0,0:0|0:0,0:0:0:0:
260,240,92860,1,0,0:0:0:0:
284,204,92940,6,0,L|376:176,1,75,8|0,0:0|0:0,0:0:0:0:
208,148,93261,6,0,L|300:120,1,75,8|0,0:0|0:0,0:0:0:0:
132,92,93582,6,0,L|224:64,1,75,8|0,0:0|0:0,0:0:0:0:
284,44,93903,6,0,L|324:0,3,37.5,8|0|0|0,0:0|0:0|0:0|0:0,0:0:0:0:
348,24,94224,6,0,L|404:80,1,75,8|0,0:0|0:0,0:0:0:0:
336,128,94545,2,0,P|328:176|336:216,1,75,8|0,0:0|0:0,0:0:0:0:
360,228,94785,1,0,0:0:0:0:
388,260,94866,2,0,L|336:324,1,75,8|0,0:0|0:0,0:0:0:0:
260,300,95186,1,8,0:0:0:0:
184,332,95347,1,0,0:0:0:0:
184,248,95507,5,8,0:0:0:0:
108,280,95668,1,0,0:0:0:0:
116,200,95828,2,0,L|188:148,2,75,8|0|8,0:0|0:0|0:0,0:0:0:0:
248,100,96470,2,0,L|268:56,3,37.5,8|0|0|0,0:0|0:0|0:0|0:0,0:0:0:0:
300,44,96791,6,0,P|344:48|380:76,1,75,8|0,0:0|0:0,0:0:0:0:
416,132,97112,1,8,0:0:0:0:
416,132,97192,1,0,0:0:0:0:
416,132,97272,1,0,0:0:0:0:
416,132,97352,1,0,0:0:0:0:
416,132,97432,2,0,L|376:212,1,75,8|0,0:0|0:0,0:0:0:0:
420,272,97753,2,0,L|464:312,3,37.5,8|0|0|0,0:0|0:0|0:0|0:0,0:0:0:0:
444,340,98074,6,0,L|360:356,1,75,8|0,0:0|0:0,0:0:0:0:
260,296,98395,2,0,L|333:281,2,75,8|0|8,0:0|0:0|0:0,0:0:0:0:
188,256,98876,1,0,0:0:0:0:
112,288,99037,1,8,0:0:0:0:
104,268,99117,1,0,0:0:0:0:
100,248,99197,1,0,0:0:0:0:
100,224,99277,1,0,0:0:0:0:
104,200,99358,6,0,P|104:160|80:120,1,75,8|0,0:0|0:0,0:0:0:0:
132,60,99678,2,0,P|176:72|216:68,1,75,8|0,0:0|0:0,0:0:0:0:
224,36,99919,1,0,0:0:0:0:
264,36,99999,2,0,L|316:116,1,75,8|0,0:0|0:0,0:0:0:0:
384,116,100320,1,8,0:0:0:0:
368,196,100481,1,0,0:0:0:0:
292,160,100641,6,0,L|196:196,1,75
180,256,100962,1,0,0:0:0:0:
204,364,101122,1,0,0:0:0:0:
300,292,101283,2,0,L|380:260,2,75
257,224,101764,1,0,0:0:0:0:
280,145,101924,5,4,0:0:0:0:
