osu file format v13

[General]
AudioFilename: Ryu - Sakura Mirage [EXH].mp3
AudioLeadIn: 0
PreviewTime: 81378
Countdown: 0
SampleSet: Soft
StackLeniency: 0.7
Mode: 3
LetterboxInBreaks: 0
SpecialStyle: 0
WidescreenStoryboard: 1

[Editor]
DistanceSpacing: 0.5
BeatDivisor: 4
GridSize: 4
TimelineZoom: 1

[Metadata]
Title:Sakura Mirage
TitleUnicode:Sakura Mirage
Artist:Ryu*
ArtistUnicode:Ryu☆
Creator:Spy
Version:NOVICE Lv.10
Source:SOUND VOLTEX II -infinite infection-
Tags:BEMANI KONAMI SDVX REFLEC BEAT groovin'!! POLICY BREAK Simple_Star Collab
BeatmapID:439142
BeatmapSetID:183272

[Difficulty]
HPDrainRate:7
CircleSize:4
OverallDifficulty:7
ApproachRate:5
SliderMultiplier:1.4
SliderTickRate:1

[Events]
//Background and Video events
0,0,"BG.jpg",0,0
//Break Periods
//Storyboard Layer 0 (Background)
//Storyboard Layer 1 (Fail)
//Storyboard Layer 2 (Pass)
//Storyboard Layer 3 (Foreground)
//Storyboard Sound Samples
//Background Colour Transformations
3,100,163,162,255

[TimingPoints]
1806,320.855614973262,4,2,1,60,1,0
81378,-100,4,2,1,60,0,1
101912,-100,4,2,1,60,0,0

[HitObjects]
320,192,1806,5,8,0:0:0:0:
192,192,1886,1,0,0:0:0:0:
64,192,1966,1,0,0:0:0:0:
320,192,2126,1,0,0:0:0:0:
448,192,2287,1,0,0:0:0:0:
320,192,2447,1,0,0:0:0:0:
192,192,2527,1,0,0:0:0:0:
64,192,2608,1,0,0:0:0:0:
320,192,2768,1,0,0:0:0:0:
448,192,2928,1,0,0:0:0:0:
192,192,3089,1,0,0:0:0:0:
320,192,3169,1,0,0:0:0:0:
448,192,3249,1,0,0:0:0:0:
192,192,3410,1,0,0:0:0:0:
64,192,3570,1,0,0:0:0:0:
192,192,3731,1,0,0:0:0:0:
320,192,3811,1,0,0:0:0:0:
448,192,3891,1,0,0:0:0:0:
192,192,4051,1,0,0:0:0:0:
64,192,4212,1,0,0:0:0:0:
320,192,4372,1,0,0:0:0:0:
192,192,4453,1,0,0:0:0:0:
64,192,4533,1,0,0:0:0:0:
320,192,4693,1,0,0:0:0:0:
448,192,4854,1,0,0:0:0:0:
320,192,5014,1,0,0:0:0:0:
192,192,5094,1,0,0:0:0:0:
64,192,5174,1,0,0:0:0:0:
320,192,5335,1,0,0:0:0:0:
192,192,5495,1,0,0:0:0:0:
448,192,5656,1,0,0:0:0:0:
448,192,5977,1,0,0:0:0:0:
448,192,6297,1,0,0:0:0:0:
320,192,6939,1,0,0:0:0:0:
64,192,6939,1,0,0:0:0:0:
448,192,7100,1,8,0:0:0:0:
64,192,7420,1,8,0:0:0:0:
448,192,7741,1,8,0:0:0:0:
64,192,8062,1,8,0:0:0:0:
320,192,8383,1,2,0:0:0:0:
320,192,8543,1,2,0:0:0:0:
320,192,8704,1,2,0:0:0:0:
192,192,8864,1,2,0:0:0:0:
448,192,9025,1,2,0:0:0:0:
448,192,9185,1,2,0:0:0:0:
448,192,9346,1,2,0:0:0:0:
64,192,9506,1,0,0:0:0:0:
320,192,9506,1,0,0:0:0:0:
192,192,9666,1,8,0:0:0:0:
448,192,9987,1,8,0:0:0:0:
192,192,10308,1,8,0:0:0:0:
448,192,10629,1,8,0:0:0:0:
64,192,10950,1,8,0:0:0:0:
448,192,11271,1,8,0:0:0:0:
64,192,11592,1,8,0:0:0:0:
320,192,11752,1,0,0:0:0:0:
192,192,12073,1,0,0:0:0:0:
448,192,12073,1,0,0:0:0:0:
64,192,12233,1,0,0:0:0:0:
320,192,12394,128,0,12634:0:0:0:0:
448,192,12634,1,0,0:0:0:0:
192,192,12875,1,0,0:0:0:0:
448,192,13035,1,0,0:0:0:0:
320,192,13196,1,0,0:0:0:0:
192,192,13276,1,0,0:0:0:0:
64,192,13356,1,0,0:0:0:0:
320,192,13517,1,0,0:0:0:0:
192,192,13677,1,0,0:0:0:0:
320,192,13838,1,0,0:0:0:0:
448,192,13998,1,0,0:0:0:0:
320,192,14158,1,0,0:0:0:0:
64,192,14319,1,0,0:0:0:0:
192,192,14479,1,0,0:0:0:0:
320,192,14560,1,0,0:0:0:0:
448,192,14640,1,0,0:0:0:0:
64,192,14800,1,0,0:0:0:0:
320,192,14961,128,0,15201:0:0:0:0:
448,192,15201,1,0,0:0:0:0:
64,192,15442,1,0,0:0:0:0:
320,192,15602,1,0,0:0:0:0:
448,192,15763,1,0,0:0:0:0:
320,192,15843,1,0,0:0:0:0:
192,192,15923,1,0,0:0:0:0:
64,192,16084,1,2,0:0:0:0:
320,192,16244,1,2,0:0:0:0:
192,192,16404,1,2,0:0:0:0:
320,192,16565,1,2,0:0:0:0:
448,192,16725,1,2,0:0:0:0:
192,192,16886,1,2,0:0:0:0:
64,192,17046,1,2,0:0:0:0:
192,192,17207,1,0,0:0:0:0:
448,192,17207,1,0,0:0:0:0:
64,192,17367,1,8,0:0:0:0:
448,192,17688,1,8,0:0:0:0:
64,192,18009,1,8,0:0:0:0:
448,192,18330,1,8,0:0:0:0:
192,192,18650,1,2,0:0:0:0:
192,192,18811,1,2,0:0:0:0:
192,192,18971,1,2,0:0:0:0:
320,192,19132,1,2,0:0:0:0:
64,192,19292,1,2,0:0:0:0:
64,192,19453,1,2,0:0:0:0:
64,192,19613,1,2,0:0:0:0:
192,192,19773,1,0,0:0:0:0:
448,192,19773,1,0,0:0:0:0:
320,192,19934,1,8,0:0:0:0:
64,192,20255,1,8,0:0:0:0:
320,192,20576,1,8,0:0:0:0:
64,192,20896,1,8,0:0:0:0:
320,192,21057,1,0,0:0:0:0:
192,192,21217,1,0,0:0:0:0:
64,192,21378,1,0,0:0:0:0:
320,192,21538,1,0,0:0:0:0:
192,192,21699,1,0,0:0:0:0:
64,192,21859,1,0,0:0:0:0:
320,192,22019,1,8,0:0:0:0:
448,192,22180,1,0,0:0:0:0:
320,192,22340,1,0,0:0:0:0:
192,192,22340,1,0,0:0:0:0:
64,192,22501,1,0,0:0:0:0:
320,192,22661,1,0,0:0:0:0:
448,192,22902,1,0,0:0:0:0:
320,192,22982,1,0,0:0:0:0:
192,192,23062,1,0,0:0:0:0:
64,192,23142,1,0,0:0:0:0:
320,192,23303,1,0,0:0:0:0:
192,192,23463,1,0,0:0:0:0:
320,192,23543,1,0,0:0:0:0:
448,192,23624,1,0,0:0:0:0:
192,192,23784,1,0,0:0:0:0:
448,192,23945,1,0,0:0:0:0:
64,192,24105,1,0,0:0:0:0:
448,192,24265,1,0,0:0:0:0:
192,192,24426,1,0,0:0:0:0:
448,192,24586,1,0,0:0:0:0:
320,192,24747,1,0,0:0:0:0:
192,192,24827,1,0,0:0:0:0:
64,192,24907,1,0,0:0:0:0:
320,192,25068,1,0,0:0:0:0:
64,192,25228,128,0,25469:0:0:0:0:
192,192,25469,1,0,0:0:0:0:
320,192,25549,1,0,0:0:0:0:
448,192,25629,1,0,0:0:0:0:
320,192,25709,1,0,0:0:0:0:
64,192,25870,1,0,0:0:0:0:
192,192,26030,1,0,0:0:0:0:
320,192,26110,1,0,0:0:0:0:
448,192,26191,1,0,0:0:0:0:
64,192,26351,1,2,0:0:0:0:
64,192,26511,1,2,0:0:0:0:
64,192,26672,1,2,0:0:0:0:
448,192,26832,1,2,0:0:0:0:
192,192,26993,1,2,0:0:0:0:
192,192,27153,1,2,0:0:0:0:
192,192,27314,1,2,0:0:0:0:
64,192,27474,1,0,0:0:0:0:
448,192,27474,1,8,0:0:0:0:
320,192,27634,1,0,0:0:0:0:
448,192,27795,1,0,0:0:0:0:
192,192,28035,1,0,0:0:0:0:
64,192,28116,1,0,0:0:0:0:
192,192,28196,1,0,0:0:0:0:
320,192,28276,1,0,0:0:0:0:
448,192,28437,1,0,0:0:0:0:
320,192,28597,1,0,0:0:0:0:
192,192,28677,1,0,0:0:0:0:
64,192,28757,1,0,0:0:0:0:
448,192,28918,1,0,0:0:0:0:
64,192,29078,1,0,0:0:0:0:
320,192,29239,1,0,0:0:0:0:
64,192,29399,1,0,0:0:0:0:
192,192,29560,1,0,0:0:0:0:
64,192,29720,1,0,0:0:0:0:
448,192,29880,1,0,0:0:0:0:
320,192,29961,1,0,0:0:0:0:
192,192,30041,1,0,0:0:0:0:
448,192,30201,1,0,0:0:0:0:
192,192,30362,1,0,0:0:0:0:
320,192,30602,1,0,0:0:0:0:
192,192,30683,1,0,0:0:0:0:
64,192,30763,1,0,0:0:0:0:
192,192,30843,1,0,0:0:0:0:
448,192,31003,1,0,0:0:0:0:
192,192,31164,1,0,0:0:0:0:
320,192,31244,1,0,0:0:0:0:
448,192,31324,1,0,0:0:0:0:
64,192,31485,1,8,0:0:0:0:
448,192,31805,1,8,0:0:0:0:
64,192,31966,128,0,32287:0:0:0:0:
192,192,31966,128,0,32287:0:0:0:0:
320,192,31966,1,8,0:0:0:0:
448,192,32287,1,8,0:0:0:0:
192,192,32447,1,0,0:0:0:0:
320,192,32608,128,0,33249:0:0:0:0:
448,192,32608,128,0,33249:0:0:0:0:
192,192,33249,128,0,33891:0:0:0:0:
320,192,33891,128,0,34533:0:0:0:0:
448,192,33891,128,0,34533:0:0:0:0:
64,192,34533,128,0,35174:0:0:0:0:
320,192,35174,128,0,35495:0:0:0:0:
448,192,35174,128,0,35495:0:0:0:0:
64,192,35816,128,0,36137:0:0:0:0:
192,192,35816,128,0,36137:0:0:0:0:
320,192,36137,1,0,0:0:0:0:
448,192,36458,1,0,0:0:0:0:
64,192,36618,1,0,0:0:0:0:
192,192,36699,1,0,0:0:0:0:
448,192,36779,1,0,0:0:0:0:
64,192,36939,1,0,0:0:0:0:
192,192,37019,1,0,0:0:0:0:
448,192,37100,1,0,0:0:0:0:
320,192,37420,1,0,0:0:0:0:
64,192,37420,1,8,0:0:0:0:
448,192,37741,128,0,38062:0:0:0:0:
320,192,38062,128,0,38383:0:0:0:0:
64,192,38383,1,0,0:0:0:0:
192,192,38383,128,0,38704:0:0:0:0:
320,192,38704,1,0,0:0:0:0:
448,192,38704,128,0,39025:0:0:0:0:
320,192,39025,128,0,39666:0:0:0:0:
192,192,39666,128,0,40308:0:0:0:0:
64,192,40308,128,0,41592:0:0:0:0:
448,192,41592,128,0,41912:0:0:0:0:
192,192,41912,128,0,42233:0:0:0:0:
64,192,42233,128,0,42554:0:0:0:15:soft-hitwhistle.wav
448,192,42554,128,0,42875:0:0:0:0:
320,192,42554,128,0,42875:0:0:0:0:
64,192,42875,1,0,0:0:0:0:
320,192,43035,1,0,0:0:0:0:
192,192,43116,1,0,0:0:0:0:
64,192,43196,1,0,0:0:0:0:
448,192,43356,1,0,0:0:0:0:
192,192,43517,1,0,0:0:0:0:
320,192,43677,1,0,0:0:0:0:
192,192,43757,1,0,0:0:0:0:
64,192,43838,1,0,0:0:0:0:
320,192,43998,1,0,0:0:0:0:
192,192,44078,1,0,0:0:0:0:
64,192,44158,1,0,0:0:0:0:
192,192,44319,1,0,0:0:0:0:
320,192,44479,1,0,0:0:0:0:
448,192,44640,1,0,0:0:0:0:
320,192,44800,1,0,0:0:0:0:
192,192,44880,1,0,0:0:0:0:
64,192,44961,1,0,0:0:0:0:
320,192,45121,1,0,0:0:0:0:
448,192,45281,1,0,0:0:0:0:
192,192,45442,1,0,0:0:0:0:
320,192,45522,1,0,0:0:0:0:
448,192,45602,1,0,0:0:0:0:
192,192,45763,1,0,0:0:0:0:
64,192,45923,1,0,0:0:0:0:
192,192,46084,1,0,0:0:0:0:
320,192,46164,1,0,0:0:0:0:
448,192,46244,1,0,0:0:0:0:
192,192,46404,1,0,0:0:0:0:
64,192,46565,1,0,0:0:0:0:
448,192,46725,1,0,0:0:0:0:
448,192,47046,1,0,0:0:0:0:
448,192,47367,1,0,0:0:0:0:
448,192,47688,1,0,0:0:0:0:
320,192,48009,1,0,0:0:0:0:
192,192,48089,1,0,0:0:0:0:
64,192,48169,1,0,0:0:0:0:
320,192,48330,1,0,0:0:0:0:
448,192,48490,1,0,0:0:0:0:
320,192,48650,1,0,0:0:0:0:
192,192,48731,1,0,0:0:0:0:
64,192,48811,1,0,0:0:0:0:
320,192,48971,1,0,0:0:0:0:
192,192,49051,1,0,0:0:0:0:
64,192,49132,1,0,0:0:0:0:
320,192,49292,1,0,0:0:0:0:
448,192,49453,1,0,0:0:0:0:
192,192,49613,1,0,0:0:0:0:
320,192,49693,1,0,0:0:0:0:
448,192,49773,1,0,0:0:0:0:
192,192,49934,1,0,0:0:0:0:
64,192,50094,1,0,0:0:0:0:
192,192,50255,1,0,0:0:0:0:
320,192,50335,1,0,0:0:0:0:
448,192,50415,1,0,0:0:0:0:
192,192,50576,1,0,0:0:0:0:
64,192,50896,5,0,0:0:0:0:
320,192,50896,1,0,0:0:0:0:
448,192,51217,1,0,0:0:0:0:
320,192,51538,1,0,0:0:0:0:
64,192,51538,1,0,0:0:0:0:
192,192,51859,128,0,52180:0:0:0:0:
448,192,52180,128,0,52501:0:0:0:0:
192,192,52501,128,0,52822:0:0:0:0:
64,192,52822,128,0,53142:0:0:0:0:
448,192,53142,5,8,0:0:0:0:
320,192,53142,128,0,56993:0:0:0:0:
448,192,56672,128,0,56993:0:0:0:0:
64,192,57153,1,10,0:0:0:0:
64,192,57474,1,10,0:0:0:0:
64,192,57795,1,10,0:0:0:0:
448,192,57955,1,10,0:0:0:0:
64,192,58276,1,8,0:0:0:0:
448,192,58757,1,8,0:0:0:0:
64,192,58918,1,8,0:0:0:0:
448,192,59239,1,8,0:0:0:0:
320,192,59560,1,2,0:0:0:0:
192,192,59720,1,2,0:0:0:0:
320,192,59880,1,2,0:0:0:0:
192,192,60041,1,2,0:0:0:0:
320,192,60201,1,2,0:0:0:0:
192,192,60362,1,2,0:0:0:0:
448,192,60522,1,10,0:0:0:0:
64,192,60843,1,8,0:0:0:0:
320,192,61324,1,8,0:0:0:0:
320,192,61485,1,8,0:0:0:0:
192,192,61805,1,8,0:0:0:0:
320,192,62126,1,2,0:0:0:0:
192,192,62287,1,2,0:0:0:0:
320,192,62447,1,2,0:0:0:0:
192,192,62608,1,2,0:0:0:0:
320,192,62768,1,2,0:0:0:0:
192,192,62928,1,2,0:0:0:0:
64,192,63089,1,10,0:0:0:0:
64,192,63410,1,8,0:0:0:0:
64,192,63891,1,8,0:0:0:0:
448,192,64051,1,8,0:0:0:0:
64,192,64372,1,8,0:0:0:0:
448,192,64693,1,8,0:0:0:0:
64,192,65174,1,8,0:0:0:0:
448,192,65335,1,8,0:0:0:0:
64,192,65656,1,8,0:0:0:0:
192,192,65977,1,8,0:0:0:0:
448,192,66297,1,8,0:0:0:0:
320,192,66779,1,8,0:0:0:0:
64,192,66939,1,8,0:0:0:0:
448,192,67100,1,8,0:0:0:0:
192,192,67420,1,8,0:0:0:0:
448,192,67741,1,8,0:0:0:0:
64,192,68062,1,8,0:0:0:0:
192,192,68383,1,8,0:0:0:0:
448,192,68704,1,8,0:0:0:0:
320,192,69025,1,8,0:0:0:0:
64,192,69346,1,8,0:0:0:0:
192,192,69506,1,8,0:0:0:0:
64,192,69827,5,8,0:0:0:0:
320,192,69827,1,0,0:0:0:0:
448,192,70148,1,0,0:0:0:0:
64,192,70469,1,0,0:0:0:0:
320,192,70789,1,0,0:0:0:0:
448,192,70950,1,0,0:0:0:0:
64,192,71110,1,0,0:0:0:0:
192,192,71271,1,0,0:0:0:0:
320,192,71431,1,0,0:0:0:0:
448,192,71592,1,0,0:0:0:0:
448,192,71752,1,0,0:0:0:0:
320,192,72073,1,0,0:0:0:0:
192,192,72233,1,0,0:0:0:0:
64,192,72394,1,0,0:0:0:0:
192,192,72715,1,0,0:0:0:0:
320,192,73035,1,0,0:0:0:0:
448,192,73196,1,0,0:0:0:0:
320,192,73356,1,0,0:0:0:0:
192,192,73517,1,0,0:0:0:0:
448,192,73677,1,0,0:0:0:0:
320,192,73838,1,2,0:0:0:0:
192,192,73998,1,2,0:0:0:0:
64,192,74158,1,2,0:0:0:0:
64,192,74319,1,2,0:0:0:0:
320,192,74640,1,2,0:0:0:0:
448,192,74800,1,2,0:0:0:0:
64,192,74961,1,0,0:0:0:0:
192,192,75121,1,0,0:0:0:0:
448,192,75281,1,0,0:0:0:0:
320,192,75442,1,0,0:0:0:0:
192,192,75602,1,0,0:0:0:0:
320,192,75763,1,0,0:0:0:0:
448,192,75923,1,0,0:0:0:0:
320,192,76084,1,0,0:0:0:0:
64,192,76244,1,2,0:0:0:0:
192,192,76404,1,2,0:0:0:0:
320,192,76565,1,2,0:0:0:0:
448,192,76725,1,2,0:0:0:0:
448,192,76886,1,2,0:0:0:0:
448,192,77207,1,2,0:0:0:0:
448,192,77367,1,2,0:0:0:0:
448,192,77527,128,0,77848:0:0:0:0:
192,192,77848,1,2,0:0:0:0:
320,192,77848,128,0,78169:0:0:0:0:
64,192,78169,1,0,0:0:0:0:
192,192,78330,1,0,0:0:0:0:
448,192,78490,1,0,0:0:0:0:
320,192,78650,1,0,0:0:0:0:
64,192,78811,1,0,0:0:0:0:
192,192,78971,1,0,0:0:0:0:
320,192,79132,1,0,0:0:0:0:
448,192,79292,1,0,0:0:0:0:
448,192,79453,1,0,0:0:0:0:
320,192,80977,128,0,81378:0:0:0:0:
448,192,81378,1,0,0:0:0:0:
64,192,81538,1,0,0:0:0:0:
448,192,81699,1,0,0:0:0:0:
192,192,81859,1,0,0:0:0:0:
320,192,81939,1,0,0:0:0:0:
448,192,82019,1,0,0:0:0:0:
320,192,82180,1,0,0:0:0:0:
448,192,82340,128,0,82661:0:0:0:0:
64,192,82661,1,0,0:0:0:0:
64,192,82822,1,0,0:0:0:0:
192,192,82982,1,0,0:0:0:0:
448,192,83142,1,0,0:0:0:0:
448,192,83303,1,0,0:0:0:0:
64,192,83624,128,0,83945:0:0:0:0:
320,192,83945,1,0,0:0:0:0:
64,192,84105,1,0,0:0:0:0:
192,192,84265,1,0,0:0:0:0:
448,192,84426,1,0,0:0:0:0:
320,192,84506,1,0,0:0:0:0:
192,192,84586,1,0,0:0:0:0:
320,192,84747,1,0,0:0:0:0:
64,192,84907,1,0,0:0:0:0:
192,192,85068,1,0,0:0:0:0:
448,192,85228,1,2,0:0:0:0:
448,192,85388,1,2,0:0:0:0:
320,192,85549,1,2,0:0:0:0:
64,192,85709,1,2,0:0:0:0:
64,192,85870,1,2,0:0:0:0:
320,192,86191,128,0,86511:0:0:0:0:
192,192,86511,1,0,0:0:0:0:
448,192,86511,1,0,0:0:0:0:
64,192,86672,1,0,0:0:0:0:
64,192,86832,1,0,0:0:0:0:
192,192,86993,1,0,0:0:0:0:
448,192,87153,1,0,0:0:0:0:
320,192,87314,1,0,0:0:0:0:
192,192,87474,128,0,87795:0:0:0:0:
448,192,87795,1,0,0:0:0:0:
448,192,87955,1,0,0:0:0:0:
320,192,88116,1,0,0:0:0:0:
64,192,88276,1,0,0:0:0:0:
64,192,88437,1,0,0:0:0:0:
320,192,88597,1,0,0:0:0:0:
64,192,88757,128,0,89078:0:0:0:0:
448,192,89078,1,0,0:0:0:0:
448,192,89239,1,0,0:0:0:0:
192,192,89399,1,0,0:0:0:0:
320,192,89560,1,0,0:0:0:0:
192,192,89640,1,0,0:0:0:0:
64,192,89720,1,0,0:0:0:0:
192,192,89880,1,0,0:0:0:0:
448,192,90041,1,0,0:0:0:0:
320,192,90201,1,0,0:0:0:0:
64,192,90362,1,0,0:0:0:0:
192,192,90522,1,0,0:0:0:0:
448,192,90522,1,8,0:0:0:0:
64,192,90843,1,0,0:0:0:0:
320,192,90843,1,8,0:0:0:0:
64,192,91164,1,0,0:0:0:0:
192,192,91164,1,8,0:0:0:0:
448,192,91324,1,8,0:0:0:0:
320,192,91324,1,0,0:0:0:0:
64,192,91645,128,0,91966:0:0:0:0:
192,192,91645,128,0,91966:0:0:0:0:
448,192,91966,1,0,0:0:0:0:
320,192,92126,1,0,0:0:0:0:
192,192,92207,1,0,0:0:0:0:
64,192,92287,1,0,0:0:0:0:
320,192,92447,1,0,0:0:0:0:
448,192,92608,128,0,92928:0:0:0:0:
192,192,92928,1,0,0:0:0:0:
64,192,93089,1,8,0:0:0:0:
320,192,93249,1,0,0:0:0:0:
192,192,93410,1,8,0:0:0:0:
320,192,93570,1,0,0:0:0:0:
64,192,93731,1,8,0:0:0:0:
320,192,93891,128,0,94212:0:0:0:0:
448,192,93891,128,8,94212:0:0:0:0:
192,192,94212,1,0,0:0:0:0:
192,192,94372,1,0,0:0:0:0:
448,192,94533,1,0,0:0:0:0:
320,192,94693,1,0,0:0:0:0:
192,192,94773,1,0,0:0:0:0:
64,192,94854,1,0,0:0:0:0:
320,192,95014,1,0,0:0:0:0:
448,192,95174,1,0,0:0:0:0:
320,192,95335,1,0,0:0:0:0:
64,192,95495,1,0,0:0:0:0:
448,192,95656,1,8,0:0:0:0:
192,192,95656,1,0,0:0:0:0:
64,192,95977,1,0,0:0:0:0:
320,192,95977,1,8,0:0:0:0:
448,192,96297,1,8,0:0:0:0:
320,192,96297,1,0,0:0:0:0:
192,192,96458,1,8,0:0:0:0:
64,192,96458,1,0,0:0:0:0:
320,192,96779,128,0,97100:0:0:0:0:
448,192,96779,128,0,97100:0:0:0:0:
64,192,97100,1,0,0:0:0:0:
64,192,97420,128,0,97741:0:0:0:0:
192,192,97420,128,0,97741:0:0:0:0:
448,192,97741,1,0,0:0:0:0:
64,192,98062,1,0,0:0:0:0:
320,192,98223,1,0,0:0:0:0:
448,192,98223,1,8,0:0:0:0:
64,192,98543,1,0,0:0:0:0:
192,192,98543,1,8,0:0:0:0:
64,192,98864,1,0,0:0:0:0:
320,192,98864,1,8,0:0:0:0:
192,192,99025,1,0,0:0:0:0:
448,192,99025,1,8,0:0:0:0:
448,192,99346,1,0,0:0:0:0:
448,192,99506,1,0,0:0:0:0:
320,192,99666,1,0,0:0:0:0:
64,192,99827,1,0,0:0:0:0:
192,192,99907,1,0,0:0:0:0:
320,192,99987,1,0,0:0:0:0:
448,192,100148,1,0,0:0:0:0:
192,192,100308,1,0,0:0:0:0:
448,192,100629,1,2,0:0:0:0:
448,192,100789,1,2,0:0:0:0:
320,192,100950,1,2,0:0:0:0:
64,192,101110,1,2,0:0:0:0:
64,192,101271,1,2,0:0:0:0:
192,192,101431,1,0,0:0:0:0:
320,192,101592,1,2,0:0:0:0:
448,192,101592,1,8,0:0:0:0:
448,192,101912,5,0,0:0:0:0:
64,192,101912,1,8,0:0:0:0:
