osu file format v14

[General]
AudioFilename: Ryu - Sakura Mirage [EXH].mp3
AudioLeadIn: 0
PreviewTime: 81307
Countdown: 0
SampleSet: Soft
StackLeniency: 0.2
Mode: 0
LetterboxInBreaks: 0
WidescreenStoryboard: 0

[Editor]
Bookmarks: 22340,81378,91645
DistanceSpacing: 1.1
BeatDivisor: 2
GridSize: 4
TimelineZoom: 1.6

[Metadata]
Title:Sakura Mirage
TitleUnicode:Sakura Mirage
Artist:Ryu*
ArtistUnicode:Ryu☆
Creator:Priti
Version:ULTRA
Source:SOUND VOLTEX II -infinite infection-
Tags:REFLEC BEAT groovin'!! SDVX POLICY BREAK Sakura Series Leader Lizzy Quiz-Chan
BeatmapID:484036
BeatmapSetID:205022

[Difficulty]
HPDrainRate:6.6
CircleSize:4.2
OverallDifficulty:9
ApproachRate:9.4
SliderMultiplier:1.9
SliderTickRate:2

[Events]
//Background and Video events
0,0,"wallpaper-1497002.jpg",0,0
//Break Periods
2,53352,56623
2,70037,73308
//Storyboard Layer 0 (Background)
//Storyboard Layer 1 (Fail)
//Storyboard Layer 2 (Pass)
//Storyboard Layer 3 (Foreground)
//Storyboard Sound Samples

[TimingPoints]
1816,320.855614973262,4,2,1,65,1,0
6789,-100,4,2,1,45,0,0
6949,-66.6666666666667,4,2,1,65,0,0
8393,-66.6666666666667,4,3,1,65,0,0
8433,-66.6666666666667,4,2,1,25,0,0
8553,-66.6666666666667,4,3,1,65,0,0
8594,-66.6666666666667,4,2,1,25,0,0
8714,-66.6666666666667,4,3,1,65,0,0
8754,-66.6666666666667,4,2,1,25,0,0
8874,-66.6666666666667,4,3,1,65,0,0
8914,-66.6666666666667,4,2,1,25,0,0
9035,-66.6666666666667,4,3,1,65,0,0
9075,-66.6666666666667,4,2,1,25,0,0
9195,-66.6666666666667,4,3,1,65,0,0
9235,-66.6666666666667,4,2,1,25,0,0
9356,-66.6666666666667,4,3,1,65,0,0
9396,-66.6666666666667,4,2,1,25,0,0
9516,-66.6666666666667,4,3,1,65,0,0
9556,-66.6666666666667,4,2,1,25,0,0
9676,-66.6666666666667,4,2,1,65,0,0
10639,-66.6666666666667,4,2,1,55,0,0
10960,-80,4,2,1,47,0,0
11281,-100,4,2,1,39,0,0
11602,-133.333333333333,4,2,1,31,0,0
11762,-66.6666666666667,4,1,1,65,0,0
12003,-66.6666666666667,4,1,1,25,0,0
12083,-133.333333333333,4,2,0,55,0,0
12163,-133.333333333333,4,2,1,55,0,0
16094,-133.333333333333,4,2,1,40,0,0
16254,-100,4,2,1,45,0,0
16414,-100,4,2,1,50,0,0
16575,-80,4,2,1,55,0,0
16735,-80,4,2,1,60,0,0
16896,-66.6666666666667,4,2,1,65,0,0
17056,-66.6666666666667,4,2,1,70,0,0
22350,-80,4,2,2,75,0,0
22430,-80,4,2,1,75,0,0
22671,-100,4,2,1,75,0,0
26361,-100,4,2,1,45,0,0
27484,-80,4,2,1,75,0,0
27805,-100,4,2,1,75,0,0
31334,-66.6666666666667,4,2,1,75,0,0
32056,-66.6666666666667,4,2,1,55,0,0
32297,-57.1428571428571,4,1,1,75,0,0
32618,-100,4,2,1,65,0,0
33259,-133.333333333333,4,2,1,65,0,0
33901,-133.333333333333,4,2,1,40,0,0
34543,-133.333333333333,4,2,1,65,0,0
35184,-100,4,2,1,65,0,0
35826,-100,4,2,1,40,0,0
36147,-100,4,2,1,65,0,0
36468,-100,4,2,1,50,0,0
37110,-151.515151515152,4,2,1,65,0,0
37430,-66.6666666666667,4,2,1,65,0,0
37751,-100,4,2,2,65,0,0
37832,-100,4,2,1,65,0,0
39035,-133.333333333333,4,2,1,50,0,0
39676,-200,4,2,1,40,0,0
39757,-200,4,2,1,5,0,0
40318,-100,4,2,1,65,0,0
41602,-100,4,3,0,40,0,0
41922,-100,4,3,0,30,0,0
42243,-100,4,3,0,20,0,0
42564,-200,4,3,0,50,0,0
42644,-200,4,2,0,5,0,0
42885,-80,4,2,1,65,0,0
43206,-100,4,2,1,65,0,0
46735,-66.6666666666667,4,2,3,65,0,0
48019,-100,4,2,3,65,0,0
53152,-100,4,2,1,45,0,0
57163,-80,4,2,1,75,0,0
67110,-100,4,2,1,75,0,0
69516,-80,4,2,1,75,0,0
69837,-80,4,2,2,75,0,0
73848,-80,4,2,1,75,0,0
73888,-80,4,2,1,30,0,0
74008,-80,4,2,1,75,0,0
74048,-80,4,2,1,30,0,0
74168,-80,4,2,1,75,0,0
74209,-80,4,2,1,30,0,0
74329,-80,4,2,1,75,0,0
74369,-80,4,2,1,30,0,0
74489,-80,4,2,1,75,0,0
74529,-80,4,2,1,30,0,0
74650,-80,4,2,1,75,0,0
74690,-80,4,2,1,30,0,0
74810,-80,4,2,1,75,0,0
74850,-80,4,2,1,30,0,0
74971,-80,4,2,1,75,0,0
78821,-200,4,2,1,95,0,0
78901,-200,4,2,4,75,0,0
79302,-200,4,1,4,75,0,0
79382,-200,4,2,4,75,0,0
79463,-200,4,1,4,75,0,0
80906,-200,4,2,1,5,0,0
80987,-80,4,2,1,75,0,0
81307,-80,4,2,1,5,0,0
81388,-66.6666666666667,4,2,2,85,0,1
85398,-66.6666666666667,4,2,1,85,0,1
86521,-66.6666666666667,4,2,2,85,0,1
90532,-66.6666666666667,4,2,1,85,0,1
91735,-66.6666666666667,4,2,2,35,0,1
91976,-66.6666666666667,4,2,1,85,0,1
94008,-66.6666666666667,4,2,1,35,0,1
94222,-66.6666666666667,4,2,1,85,0,1
96869,-66.6666666666667,4,2,1,35,0,1
97110,-66.6666666666667,4,2,1,85,0,1
97511,-66.6666666666667,4,2,1,35,0,1
97751,-66.6666666666667,4,2,1,85,0,1
101602,-50,4,2,1,85,0,1
101842,-50,4,2,1,30,0,1
101922,-50,4,2,1,55,0,0

[Colours]
Combo1 : 255,106,118
Combo2 : 163,124,241
Combo3 : 248,97,206
Combo4 : 209,160,239

[HitObjects]
56,180,1816,6,0,L|53:128,1,47.5,12|0,1:0|0:0,0:0:0:0:
164,68,1976,2,0,L|161:119,1,47.5
204,264,2136,5,8,1:0:0:0:
245,286,2216,1,0,0:0:0:0:
292,292,2296,1,0,0:0:0:0:
338,283,2376,1,0,0:0:0:0:
374,260,2457,5,8,1:0:0:0:
419,245,2537,1,0,0:0:0:0:
463,264,2617,1,0,0:0:0:0:
477,308,2697,1,0,0:0:0:0:
455,348,2778,5,8,1:0:0:0:
425,299,2858,1,0,0:0:0:0:
419,245,2938,1,0,0:0:0:0:
437,189,3018,1,0,0:0:0:0:
465,139,3099,6,0,L|462:91,1,47.5,8|0,1:0|0:0,0:0:0:0:
342,56,3259,2,0,L|339:103,1,47.5
250,240,3420,6,0,L|247:192,1,47.5,8|0,1:0|0:0,0:0:0:0:
143,146,3580,2,0,L|140:193,1,47.5
154,356,3741,5,8,1:0:0:0:
102,376,3821,1,0,0:0:0:0:
48,360,3901,1,0,0:0:0:0:
17,314,3981,1,0,0:0:0:0:
21,258,4061,5,8,1:0:0:0:
34,213,4141,1,0,0:0:0:0:
38,165,4221,1,0,0:0:0:0:
31,118,4301,1,0,0:0:0:0:
14,74,4383,5,8,1:0:0:0:
61,70,4463,1,0,0:0:0:0:
108,67,4543,1,0,0:0:0:0:
156,63,4623,1,0,0:0:0:0:
203,60,4703,5,8,1:0:0:0:
253,33,4783,1,0,0:0:0:0:
310,31,4863,1,0,0:0:0:0:
362,53,4943,1,0,0:0:0:0:
399,96,5024,5,8,1:0:0:0:
378,138,5104,1,0,0:0:0:0:
377,185,5184,1,0,0:0:0:0:
396,228,5264,1,0,0:0:0:0:
432,258,5345,6,0,L|487:255,1,47.5,8|0,1:0|0:0,0:0:0:0:
396,360,5505,2,0,L|340:357,1,47.5,0|0,0:0|0:0,0:0:0:0:
319,141,5666,5,8,1:0:0:0:
265,125,5746,1,2,0:0:0:0:
212,144,5827,1,2,0:0:0:0:
180,189,5907,1,2,0:0:0:0:
180,246,5987,6,0,P|103:264|49:209,1,142.5,6|0,0:0|0:0,0:0:0:0:
12,31,6308,2,0,P|89:13|143:68,1,142.5,6|0,0:0|0:0,0:0:0:0:
306,130,6629,2,0,L|401:124,1,95,0|0,3:0|3:0,0:0:0:0:
504,292,6950,5,8,1:0:0:0:
504,292,7110,2,0,L|511:148,1,142.500005435944,6|8,0:1|1:0,0:0:0:0:
360,43,7431,2,0,P|300:31|228:78,1,142.500005435944,6|8,0:1|1:0,0:0:0:0:
83,182,7752,2,0,L|75:38,1,142.500005435944,6|8,0:1|1:0,0:0:0:0:
2,265,8073,2,0,P|60:303|129:292,1,142.500005435944,6|8,0:1|1:0,0:0:0:0:
298,270,8394,6,0,L|272:294,1,35.625001358986,0|0,0:0|0:0,0:0:0:0:
409,47,8554,2,0,L|436:24,1,35.625001358986,8|0,0:1|0:0,0:0:0:0:
388,273,8715,2,0,L|388:309,1,35.625001358986
314,40,8875,2,0,L|317:5,1,35.625001358986,8|0,0:1|0:0,0:0:0:0:
461,213,9036,2,0,L|485:240,1,35.625001358986
242,102,9196,2,0,L|219:76,1,35.625001358986,8|0,0:1|0:0,0:0:0:0:
468,120,9356,2,0,L|504:122,1,35.625001358986
236,197,9517,2,0,L|201:196,1,35.625001358986,8|0,0:1|0:0,0:0:0:0:
352,157,9677,5,6,0:1:0:0:
388,309,9838,1,8,1:0:0:0:
202,106,9998,5,6,0:1:0:0:
318,0,10159,1,8,1:0:0:0:
502,201,10319,5,6,0:1:0:0:
468,48,10479,1,8,1:0:0:0:
235,259,10640,6,0,P|111:267|63:199,1,213.750008153916,6|0,0:1|0:0,0:0:0:0:
312,132,10961,6,0,L|499:122,1,178.125,6|0,0:1|0:0,0:0:0:0:
377,266,11282,6,0,L|236:259,1,142.5,6|0,0:1|0:0,0:0:0:0:
464,308,11602,6,0,L|466:359,1,35.625001358986,6|0,0:1|0:0,0:0:0:0:
490,123,11763,6,2,P|422:79|307:143,1,213.750008153916,2|0,3:2|2:0,0:0:0:0:
232,172,12084,6,0,L|160:168,1,71.2500027179719,4|2,1:0|0:0,0:0:0:0:
95,233,12405,2,0,L|23:229,1,71.2500027179719,2|0,0:2|0:0,0:0:0:0:
14,137,12644,1,0,0:0:0:0:
14,137,12725,1,0,0:0:0:0:
19,183,12806,1,2,0:0:0:0:
24,229,12886,1,2,0:0:0:0:
29,275,12966,1,2,0:0:0:0:
34,321,13046,1,2,0:2:0:0:
188,284,13207,1,2,0:0:0:0:
188,284,13287,1,0,0:0:0:0:
188,284,13367,6,0,L|263:280,1,71.2500027179719,0|2,0:0|0:0,0:0:0:0:
348,312,13688,2,0,L|423:308,1,71.2500027179719,2|2,0:2|0:0,0:0:0:0:
464,227,14009,2,0,P|468:183|458:146,1,71.2500027179719,0|2,0:0|0:0,0:0:0:0:
372,52,14330,1,2,0:2:0:0:
292,96,14490,1,0,0:0:0:0:
292,96,14570,1,0,0:0:0:0:
292,96,14651,6,0,L|208:91,1,71.2500027179719,0|2,0:0|0:0,0:0:0:0:
61,117,14971,2,0,P|95:106|130:112,1,71.2500027179719,2|0,0:2|0:0,0:0:0:0:
191,180,15211,1,0,0:0:0:0:
191,180,15292,1,0,0:0:0:0:
237,182,15373,1,2,0:0:0:0:
283,184,15453,1,2,0:0:0:0:
329,187,15532,1,2,0:0:0:0:
375,189,15612,1,0,0:0:0:0:
456,232,15773,1,0,0:0:0:0:
456,232,15853,1,2,0:0:0:0:
456,232,15933,6,0,L|459:156,1,71.2500027179719,0|0,0:0|3:0,0:0:0:0:
339,282,16255,6,0,L|329:187,1,95,2|0,3:2|3:0,0:0:0:0:
213,326,16576,6,0,L|182:210,1,118.75,2|0,3:2|3:0,0:0:0:0:
88,384,16897,6,0,L|29:253,1,142.500005435944,2|0,3:2|3:0,0:0:0:0:
164,72,17217,5,8,1:0:0:0:
304,112,17378,2,0,P|354:126|423:69,1,142.500005435944,6|8,0:1|1:0,0:0:0:0:
474,231,17699,2,0,L|466:379,1,142.500005435944,6|8,0:1|1:0,0:0:0:0:
171,214,18020,2,0,L|164:72,1,142.500005435944,6|8,0:1|1:0,0:0:0:0:
99,265,18340,2,0,P|167:303|239:273,1,142.500005435944,6|8,0:1|1:0,0:0:0:0:
432,156,18661,5,2,3:2:0:0:
472,168,18822,1,8,3:1:0:0:
356,236,18982,5,0,3:0:0:0:
276,260,19143,1,8,3:1:0:0:
135,130,19303,5,0,3:0:0:0:
295,178,19463,1,8,3:1:0:0:
455,34,19624,5,0,3:0:0:0:
135,130,19784,1,8,3:1:0:0:
295,178,19945,6,0,L|287:322,1,142.500005435944,6|8,0:1|1:0,0:0:0:0:
371,155,20266,2,0,P|320:103|247:111,1,142.500005435944,6|8,0:1|1:0,0:0:0:0:
140,208,20586,2,0,B|32:213|32:213|63:195,1,142.500005435944,6|8,0:1|1:0,0:0:0:0:
209,331,20907,2,0,B|317:337|317:337|287:320,1,142.500005435944,6|0,0:1|0:0,0:0:0:0:
287,320,21870,6,0,L|283:244,1,71.2500027179719,2|2,3:0|0:0,0:0:0:0:
179,203,22030,6,0,L|392:214,1,213.750008153916,10|0,1:3|0:0,0:0:0:0:
446,159,22351,6,0,P|456:102|434:36,1,118.75,12|2,1:0|0:0,0:0:0:0:
136,136,22672,2,0,L|143:279,1,142.5,8|0,1:0|0:0,0:0:0:0:
197,332,22993,1,8,1:0:0:0:
251,349,23073,1,2,0:0:0:0:
307,348,23153,1,2,0:0:0:0:
361,331,23233,1,2,0:0:0:0:
407,297,23314,1,8,1:0:0:0:
441,66,23474,1,2,0:0:0:0:
370,63,23554,1,2,0:0:0:0:
298,59,23635,5,8,1:0:0:0:
160,24,23795,1,2,0:0:0:0:
260,197,23955,5,8,1:0:0:0:
398,162,24116,1,2,0:0:0:0:
298,59,24276,5,8,1:0:0:0:
222,335,24437,1,2,0:0:0:0:
398,162,24597,5,8,1:0:0:0:
122,232,24758,1,2,0:0:0:0:
111,161,24838,1,2,0:0:0:0:
101,90,24918,5,8,1:0:0:0:
249,156,25078,1,2,0:0:0:0:
361,39,25239,2,0,L|456:44,1,95,8|2,1:0|0:0,0:0:0:0:
464,52,25479,1,0,0:0:0:0:
472,60,25560,5,8,1:0:0:0:
447,111,25640,1,2,0:0:0:0:
436,166,25720,1,0,0:0:0:0:
441,223,25800,1,2,0:0:0:0:
461,276,25881,1,8,1:0:0:0:
288,352,26041,1,2,0:0:0:0:
280,280,26121,1,2,0:0:0:0:
272,208,26201,1,8,1:0:0:0:
104,28,26362,5,0,3:0:0:0:
102,46,26522,1,8,3:1:0:0:
100,65,26683,1,0,3:0:0:0:
98,84,26843,1,8,3:1:0:0:
96,103,27004,1,0,3:0:0:0:
94,122,27164,1,8,3:1:0:0:
92,141,27324,1,0,3:0:0:0:
140,276,27485,6,0,L|259:269,1,118.75,12|2,1:0|0:0,0:0:0:0:
388,328,27806,2,0,P|457:317|511:360,1,142.5,8|2,1:0|0:0,0:0:0:0:
357,344,28127,1,0,1:0:0:0:
321,346,28207,1,2,0:0:0:0:
289,332,28287,1,0,0:0:0:0:
266,305,28367,1,2,0:0:0:0:
258,271,28447,1,8,1:0:0:0:
89,29,28608,1,0,0:0:0:0:
96,100,28688,1,2,0:0:0:0:
104,170,28768,5,8,1:0:0:0:
288,136,28929,1,2,0:0:0:0:
349,207,29089,5,8,1:0:0:0:
72,258,29250,1,2,0:0:0:0:
40,346,29410,5,8,1:0:0:0:
410,278,29570,1,2,0:0:0:0:
471,349,29731,5,8,1:0:0:0:
288,136,29891,1,2,0:0:0:0:
216,145,29971,1,2,0:0:0:0:
144,152,30052,5,8,1:0:0:0:
231,269,30212,1,2,0:0:0:0:
288,136,30372,1,8,1:0:0:0:
216,145,30453,1,2,0:0:0:0:
144,152,30533,1,0,0:0:0:0:
72,161,30613,1,2,0:0:0:0:
0,168,30693,6,0,P|-4:193|3:224,1,47.5,8|0,1:0|0:0,0:0:0:0:
101,359,30854,2,0,L|103:310,1,47.5,2|0,0:0|0:0,0:0:0:0:
144,152,31014,1,8,1:0:0:0:
426,168,31175,1,0,0:0:0:0:
357,152,31255,1,2,0:0:0:0:
288,136,31335,5,8,1:0:0:0:
72,59,31495,2,0,P|142:66|200:28,1,142.500005435944,6|8,3:1|1:0,0:0:0:0:
430,97,31816,2,0,L|426:168,1,71.2500027179719,6|0,3:1|0:0,0:0:0:0:
433,310,31976,5,8,1:0:0:0:
363,328,32057,1,8,1:0:0:0:
294,306,32137,1,8,1:0:0:0:
223,318,32217,1,8,1:0:0:0:
151,298,32298,6,2,P|82:326|118:219,1,249.375002378225,14|0,1:0|2:0,0:0:0:0:
196,180,32618,6,0,L|243:182,1,47.5,8|0,1:0|0:0,0:0:0:0:
328,144,32779,2,0,L|375:146,1,47.5,8|0,1:0|0:0,0:0:0:0:
196,72,32939,6,0,L|148:74,1,47.5,8|0,1:0|0:0,0:0:0:0:
64,36,33100,2,0,L|16:38,1,47.5,8|0,1:0|0:0,0:0:0:0:
418,92,33260,6,0,L|424:207,1,106.875004076958,10|0,1:0|0:0,0:0:0:0:
320,364,33581,2,0,L|325:257,1,106.875004076958,8|0,1:0|0:0,0:0:0:0:
276,160,33902,5,8,1:0:0:0:
210,178,33982,1,8,1:0:0:0:
150,145,34062,1,8,1:0:0:0:
131,80,34143,1,8,1:0:0:0:
162,19,34223,1,8,1:0:0:0:
227,1,34303,1,8,1:0:0:0:
287,34,34383,1,8,1:0:0:0:
306,99,34463,1,8,1:0:0:0:
276,160,34544,6,0,L|280:237,1,71.2500027179719,8|2,1:0|0:0,0:0:0:0:
243,346,34864,2,0,P|283:356|327:346,1,71.2500027179719,8|2,1:0|0:0,0:0:0:0:
400,244,35185,6,0,L|455:246,1,47.5,8|0,1:0|0:0,0:0:0:0:
504,116,35346,2,0,L|448:118,1,47.5,8|0,1:0|0:0,0:0:0:0:
288,80,35506,2,0,P|234:95|161:39,1,142.5,8|0,1:0|0:0,0:0:0:0:
5,204,35827,5,8,1:0:0:0:
76,196,35907,1,8,1:0:0:0:
146,189,35987,1,8,1:0:0:0:
217,182,36068,1,8,1:0:0:0:
288,174,36148,2,0,P|291:98|285:68,1,95,8|0,1:0|0:0,0:0:0:0:
108,8,36469,6,0,L|102:107,1,95,8|0,1:0|1:0,0:0:0:0:
24,248,36709,1,0,1:0:0:0:
24,248,36790,2,0,L|18:148,1,95,8|0,1:0|1:0,0:0:0:0:
0,355,37030,1,0,1:0:0:0:
0,355,37110,6,0,P|51:361|89:341,1,94.0499997129822,8|0,1:0|0:0,0:0:0:0:
204,372,37431,6,2,B|365:363|365:363|324:330,1,213.750008153916,12|0,1:0|0:0,0:0:0:0:
263,269,37752,6,4,P|256:219|270:168,1,95,12|0,1:0|0:0,0:0:0:0:
168,8,38073,2,0,L|172:102,1,95,8|0,1:0|0:0,0:0:0:0:
352,226,38393,5,8,1:0:0:0:
357,169,38473,1,0,0:0:0:0:
362,112,38554,1,8,1:0:0:0:
483,23,38715,1,8,1:0:0:0:
488,80,38795,1,0,0:0:0:0:
493,137,38875,1,8,1:0:0:0:
440,320,39036,6,0,L|364:316,1,71.2500027179719,8|0,1:0|0:0,0:0:0:0:
288,344,39276,1,0,0:0:0:0:
288,344,39356,2,0,L|212:340,1,71.2500027179719,8|0,1:0|0:0,0:0:0:0:
136,368,39597,1,0,0:0:0:0:
136,368,39677,6,0,B|146:335|146:312|136:286|125:261|125:237|136:205,1,166.25,8|0,1:0|0:0,0:0:0:0:
179,119,40319,6,0,L|282:113,1,95,8|2,1:0|0:0,0:0:0:0:
417,33,40639,2,0,P|463:20|509:31,1,95,8|2,1:0|0:0,0:0:0:0:
454,251,40960,1,8,1:0:0:0:
383,247,41040,1,0,0:0:0:0:
313,243,41120,1,2,0:0:0:0:
123,209,41281,2,0,P|127:255|137:302,1,95,8|2,1:0|0:0,0:0:0:0:
313,243,41602,5,0,0:0:0:0:
336,202,41682,1,0,0:0:0:0:
349,156,41762,1,0,0:0:0:0:
349,109,41842,1,0,0:0:0:0:
339,62,41922,5,0,0:0:0:0:
374,62,42002,1,0,0:0:0:0:
409,69,42082,1,0,0:0:0:0:
441,84,42162,1,0,0:0:0:0:
470,105,42243,5,0,0:0:0:0:
473,129,42323,1,0,0:0:0:0:
479,152,42403,1,0,0:0:0:0:
488,174,42483,1,0,0:0:0:0:
500,195,42564,6,0,L|497:270,1,71.25,2|0,3:0|0:0,0:0:0:0:
497,266,42885,6,0,P|451:287|390:258,1,118.75,12|0,1:0|0:0,0:0:0:0:
268,332,43206,2,0,P|220:332|174:344,1,95,8|0,1:0|0:0,0:0:0:0:
56,264,43527,5,8,1:0:0:0:
29,225,43607,1,0,0:0:0:0:
22,178,43687,1,0,0:0:0:0:
37,134,43767,1,0,0:0:0:0:
70,101,43848,5,8,1:0:0:0:
103,69,43928,1,0,0:0:0:0:
93,24,44008,1,0,0:0:0:0:
50,9,44088,1,0,0:0:0:0:
15,38,44168,5,8,1:0:0:0:
13,94,44248,1,0,0:0:0:0:
45,140,44328,1,0,0:0:0:0:
98,159,44408,1,0,0:0:0:0:
152,144,44490,5,8,1:0:0:0:
198,135,44570,1,0,0:0:0:0:
244,144,44650,1,0,0:0:0:0:
284,169,44730,1,0,0:0:0:0:
311,207,44810,6,0,L|362:204,1,47.5,8|0,1:0|0:0,0:0:0:0:
496,296,44971,2,0,L|444:293,1,47.5
220,341,45131,6,0,L|217:289,1,47.5,8|0,1:0|0:0,0:0:0:0:
361,157,45292,2,0,L|358:208,1,47.5
500,300,45452,5,8,1:0:0:0:
491,253,45532,1,0,0:0:0:0:
490,205,45612,1,0,0:0:0:0:
497,158,45692,1,0,0:0:0:0:
511,113,45773,5,8,1:0:0:0:
456,129,45853,1,0,0:0:0:0:
401,121,45933,1,0,0:0:0:0:
354,89,46013,1,0,0:0:0:0:
325,41,46093,5,8,1:0:0:0:
285,15,46173,1,0,0:0:0:0:
238,7,46253,1,0,0:0:0:0:
193,20,46333,1,0,0:0:0:0:
157,50,46415,5,8,1:0:0:0:
194,79,46495,1,0,0:0:0:0:
211,123,46575,1,0,0:0:0:0:
205,169,46655,1,0,0:0:0:0:
178,207,46735,6,0,P|114:228|47:177,1,142.5,8|0,1:0|0:0,0:0:0:0:
252,280,47056,2,0,L|399:272,1,142.5,8|0,1:0|0:0,0:0:0:0:
468,105,47377,2,0,P|405:65|332:100,1,142.5,8|0,1:0|0:0,0:0:0:0:
193,130,47698,2,0,L|46:122,1,142.5,8|0,1:0|0:0,0:0:0:0:
252,280,48018,5,14,1:0:0:0:
298,272,48099,1,0,0:0:0:0:
340,277,48179,1,0,0:0:0:0:
388,299,48259,1,0,0:0:0:0:
423,331,48340,5,10,1:0:0:0:
475,347,48420,1,0,0:0:0:0:
512,312,48500,1,0,0:0:0:0:
511,257,48580,1,0,0:0:0:0:
462,233,48660,5,10,1:0:0:0:
426,203,48740,1,0,0:0:0:0:
411,158,48820,1,0,0:0:0:0:
422,112,48900,1,0,0:0:0:0:
454,79,48981,6,0,L|451:27,1,47.5,10|0,1:0|0:0,0:0:0:0:
333,141,49142,2,0,L|330:192,1,47.5,0|0,0:0|0:0,0:0:0:0:
256,48,49302,5,10,1:0:0:0:
209,80,49382,1,0,0:0:0:0:
153,85,49462,1,0,0:0:0:0:
101,63,49542,1,0,0:0:0:0:
66,18,49623,5,10,1:0:0:0:
56,64,49703,1,0,0:0:0:0:
52,111,49783,1,0,0:0:0:0:
54,159,49863,1,0,0:0:0:0:
63,205,49944,5,10,1:0:0:0:
27,234,50024,1,0,0:0:0:0:
24,280,50104,1,0,0:0:0:0:
54,315,50184,1,0,0:0:0:0:
100,316,50265,5,10,1:0:0:0:
145,300,50345,1,0,0:0:0:0:
192,296,50425,1,0,0:0:0:0:
239,304,50505,1,0,0:0:0:0:
282,324,50586,5,10,1:0:0:0:
324,344,50666,1,0,0:0:0:0:
371,352,50746,1,0,0:0:0:0:
418,348,50826,1,0,0:0:0:0:
463,331,50907,5,10,1:0:0:0:
492,283,50987,1,0,0:0:0:0:
477,230,51067,1,0,0:0:0:0:
428,204,51147,1,0,0:0:0:0:
376,222,51227,5,10,1:0:0:0:
329,232,51307,1,0,0:0:0:0:
283,225,51387,1,0,0:0:0:0:
241,203,51467,1,0,0:0:0:0:
209,168,51548,6,0,L|149:171,1,47.5,10|0,1:0|0:0,0:0:0:0:
16,232,51709,2,0,L|52:268,1,47.5,0|0,0:0|0:0,0:0:0:0:
168,356,51869,6,0,L|162:300,3,47.5,8|0|0|0,1:0|0:0|0:0|0:0,0:0:0:0:
272,232,52190,2,0,L|266:287,3,47.5,8|0|0|0,1:0|0:0|0:0|0:0,0:0:0:0:
388,336,52511,2,0,L|382:280,3,47.5,8|0|0|0,1:0|0:0|0:0|0:0,0:0:0:0:
492,212,52832,2,0,L|486:267,3,47.5,8|0|0|0,1:0|0:0|0:0|0:0,0:0:0:0:
500,376,53152,5,4,1:0:0:0:
348,340,57163,6,0,P|344:264|320:184,1,118.75,6|0,3:1|0:0,0:0:0:0:
177,222,57484,2,0,P|165:280|164:340,1,118.75,6|0,3:1|0:0,0:0:0:0:
334,222,57805,6,0,P|339:192|339:162,1,59.375,6|0,3:1|0:0,0:0:0:0:
172,163,57965,2,0,P|173:192|178:222,1,59.375,6|0,3:1|0:0,0:0:0:0:
256,180,58126,2,0,L|256:112,1,59.375,8|0,0:1|0:0,0:0:0:0:
256,16,58286,1,14,1:1:0:0:
32,56,58767,5,14,1:0:0:0:
480,56,58928,1,6,1:0:0:0:
256,336,59249,5,14,1:0:0:0:
256,16,59409,1,4,1:0:0:0:
372,192,59570,5,0,3:0:0:0:
342,228,59650,1,0,0:0:0:0:
342,275,59730,1,0,3:0:0:0:
371,311,59810,1,0,0:0:0:0:
416,323,59890,5,0,3:0:0:0:
375,346,59970,1,0,0:0:0:0:
329,358,60050,1,0,3:0:0:0:
281,355,60130,1,0,0:0:0:0:
237,339,60211,5,0,3:0:0:0:
192,323,60292,1,0,0:0:0:0:
145,320,60372,1,0,3:0:0:0:
99,331,60452,1,0,0:0:0:0:
58,355,60532,5,6,3:1:0:0:
82,294,60612,1,0,0:0:0:0:
106,233,60692,1,0,3:0:0:0:
130,173,60772,1,0,0:0:0:0:
154,112,60852,1,14,1:0:0:0:
357,112,61334,5,14,1:0:0:0:
64,32,61495,1,6,1:0:0:0:
448,32,61815,5,14,1:0:0:0:
154,112,61976,1,4,1:0:0:0:
357,112,62136,5,0,3:0:0:0:
402,99,62216,1,0,3:0:0:0:
448,110,62296,1,0,3:0:0:0:
481,144,62376,1,0,3:0:0:0:
492,189,62457,5,0,3:0:0:0:
449,209,62537,1,0,3:0:0:0:
422,247,62617,1,0,3:0:0:0:
418,294,62697,1,0,3:0:0:0:
437,337,62778,5,0,3:0:0:0:
392,353,62858,1,0,3:0:0:0:
345,356,62939,1,0,3:0:0:0:
299,347,63019,1,0,3:0:0:0:
258,326,63099,5,6,3:1:0:0:
275,263,63179,1,0,3:0:0:0:
292,200,63259,1,0,3:0:0:0:
309,137,63340,1,0,3:0:0:0:
326,74,63420,1,14,1:0:0:0:
256,288,63901,5,14,1:0:0:0:
56,20,64061,1,6,1:0:0:0:
456,20,64382,5,14,1:0:0:0:
186,74,64543,1,4,1:0:0:0:
326,74,64703,5,14,1:0:0:0:
364,100,64783,1,0,0:0:0:0:
391,140,64863,1,8,3:1:0:0:
402,185,64943,1,0,0:0:0:0:
395,232,65023,1,0,3:0:0:0:
372,274,65104,1,0,0:0:0:0:
335,304,65184,5,14,1:0:0:0:
288,298,65264,1,0,0:0:0:0:
254,264,65345,5,14,1:0:0:0:
207,270,65425,1,0,0:0:0:0:
160,259,65505,1,0,3:0:0:0:
120,233,65586,1,0,0:0:0:0:
148,195,65666,5,14,1:0:0:0:
143,149,65746,1,0,0:0:0:0:
105,123,65826,1,0,0:0:0:0:
61,135,65906,1,0,0:0:0:0:
43,177,65987,5,14,1:0:0:0:
18,137,66067,1,0,0:0:0:0:
17,90,66147,1,0,0:0:0:0:
38,48,66227,1,0,0:0:0:0:
78,22,66307,5,14,1:0:0:0:
118,48,66387,1,0,0:0:0:0:
162,65,66467,1,8,0:1:0:0:
209,73,66547,1,0,0:0:0:0:
256,71,66627,1,0,0:0:0:0:
302,61,66708,1,0,0:0:0:0:
345,41,66789,5,14,1:0:0:0:
341,88,66869,1,0,0:0:0:0:
374,121,66949,5,14,1:0:0:0:
377,168,67029,1,0,0:0:0:0:
349,195,67110,6,0,L|251:200,1,95,6|0,3:1|0:0,0:0:0:0:
357,203,67430,2,0,L|259:208,1,95,6|0,3:1|0:0,0:0:0:0:
120,124,67751,6,0,L|218:119,1,95,6|0,0:1|0:0,0:0:0:0:
112,116,68072,2,0,L|210:111,1,95,6|0,0:1|3:0,0:0:0:0:
365,211,68393,6,0,L|267:216,1,95,6|0,0:1|3:0,0:0:0:0:
104,108,68714,2,0,L|202:103,1,95,6|0,0:1|3:0,0:0:0:0:
373,219,69035,6,0,L|275:224,1,95,6|0,0:1|3:0,0:0:0:0:
96,100,69356,2,0,L|194:95,1,95,6|2,0:1|0:0,0:0:0:0:
318,8,69676,1,2,0:1:0:0:
278,224,69837,5,4,1:0:0:0:
6,318,73848,6,0,L|3:278,1,29.6875,0|0,3:0|0:0,0:0:0:0:
241,228,74008,2,0,L|238:188,1,29.6875,2|0,3:2|0:0,0:0:0:0:
84,288,74169,2,0,L|81:248,1,29.6875,0|0,3:0|0:0,0:0:0:0:
319,198,74329,2,0,L|316:158,1,29.6875,2|0,3:2|0:0,0:0:0:0:
162,258,74490,2,0,L|159:218,1,29.6875,0|0,3:0|0:0,0:0:0:0:
398,168,74650,2,0,L|395:128,1,29.6875,2|0,3:2|0:0,0:0:0:0:
241,228,74810,2,0,L|238:188,1,29.6875,0|0,3:0|0:0,0:0:0:0:
476,138,74971,5,8,1:1:0:0:
398,168,75131,1,8,0:1:0:0:
319,198,75291,1,8,0:1:0:0:
241,228,75452,1,8,0:1:0:0:
162,258,75613,5,8,1:1:0:0:
201,243,75693,1,8,0:1:0:0:
240,228,75773,1,8,0:1:0:0:
279,213,75854,1,8,0:1:0:0:
319,198,75934,1,8,0:1:0:0:
358,183,76014,1,8,0:1:0:0:
398,168,76094,1,8,0:1:0:0:
437,153,76175,1,8,0:1:0:0:
476,138,76254,5,8,1:1:0:0:
382,121,76415,1,8,3:1:0:0:
288,105,76575,1,8,3:1:0:0:
195,88,76736,1,8,3:1:0:0:
101,72,76896,5,8,3:1:0:0:
148,80,76976,1,8,3:1:0:0:
195,88,77056,1,8,3:1:0:0:
241,97,77137,1,8,3:1:0:0:
288,105,77217,1,8,3:1:0:0:
335,113,77297,1,8,3:1:0:0:
382,121,77377,1,8,3:1:0:0:
429,129,77457,1,8,3:1:0:0:
476,138,77538,5,8,1:1:0:0:
321,56,77698,1,8,0:1:0:0:
328,84,77778,1,8,0:1:0:0:
335,112,77858,1,8,1:1:0:0:
360,300,78019,1,8,0:1:0:0:
367,272,78099,1,8,0:1:0:0:
374,244,78179,1,8,1:1:0:0:
492,273,78340,1,8,0:1:0:0:
499,301,78420,1,8,0:1:0:0:
506,329,78500,1,8,1:1:0:0:
462,194,78660,1,8,0:1:0:0:
469,166,78740,1,8,0:1:0:0:
476,138,78821,6,2,B|506:185|489:230|489:230|496:249|496:249|491:276|491:276|516:313|460:358|394:363|349:302|374:243|374:243|328:305|266:321|221:286|212:268|212:268|241:275|273:260,1,617.5,8|0,1:0|0:0,0:0:0:0:
228,188,81067,6,0,L|44:178,1,178.125,14|0,1:3|0:0,0:0:0:0:
16,249,81388,6,0,P|28:333|92:361,1,142.500005435944,12|2,1:0|0:0,0:0:0:0:
58,36,81709,2,0,L|50:183,1,142.500005435944,8|2,1:0|0:0,0:0:0:0:
114,222,81949,1,2,0:0:0:0:
191,233,82029,2,0,P|278:229|347:213,1,142.500005435944,8|0,1:0|0:0,0:0:0:0:
508,67,82350,1,8,1:0:0:0:
458,92,82430,1,2,0:0:0:0:
432,142,82510,1,2,0:0:0:0:
439,198,82590,1,2,0:0:0:0:
476,240,82671,6,0,L|468:387,1,142.500005435944,8|2,1:0|0:0,0:0:0:0:
255,139,82992,2,0,P|252:51|305:18,1,142.500005435944,8|2,1:0|0:0,0:0:0:0:
340,223,83313,2,0,B|274:249|274:249|116:231,1,213.750008153916,8|0,1:0|0:0,0:0:0:0:
47,216,83634,1,8,1:0:0:0:
19,166,83714,1,2,0:0:0:0:
15,110,83794,1,2,0:0:0:0:
37,57,83874,1,2,0:0:0:0:
78,20,83955,6,0,P|159:16|220:54,1,142.500005435944,8|2,1:0|0:0,0:0:0:0:
116,316,84275,1,8,1:0:0:0:
416,192,84436,1,2,0:0:0:0:
339,187,84516,1,2,0:0:0:0:
261,183,84596,2,0,P|165:198|98:193,1,142.500005435944,8|2,1:0|0:0,0:0:0:0:
378,64,84917,2,0,P|466:75|510:108,1,142.500005435944,8|2,1:0|0:0,0:0:0:0:
416,192,85238,1,8,1:0:0:0:
284,28,85398,6,0,L|288:111,1,71.2500027179719,0|0,3:0|0:0,0:0:0:0:
188,152,85559,2,0,L|183:68,1,71.2500027179719,8|0,3:1|0:0,0:0:0:0:
288,24,85719,2,0,L|292:107,1,71.2500027179719,0|0,3:0|0:0,0:0:0:0:
184,156,85880,2,0,L|179:72,1,71.2500027179719,8|0,3:1|0:0,0:0:0:0:
292,20,86040,2,0,L|296:103,1,71.2500027179719,0|0,3:0|0:0,0:0:0:0:
180,160,86201,2,0,L|175:76,1,71.2500027179719,8|0,3:1|0:0,0:0:0:0:
296,16,86361,2,0,L|300:99,1,71.2500027179719,0|0,3:0|0:0,0:0:0:0:
176,164,86521,6,0,L|168:20,1,142.500005435944,12|2,1:0|0:0,0:0:0:0:
72,196,86842,1,8,1:0:0:0:
101,244,86923,1,2,0:0:0:0:
150,270,87003,1,2,0:0:0:0:
207,269,87083,1,2,0:0:0:0:
255,239,87163,2,0,P|332:225|385:260,1,142.500005435944,8|2,1:0|0:0,0:0:0:0:
488,372,87484,1,8,1:0:0:0:
490,315,87564,1,2,0:0:0:0:
493,258,87644,1,2,0:0:0:0:
496,201,87724,1,2,0:0:0:0:
499,144,87805,6,0,P|497:50|461:18,1,142.500005435944,8|2,1:0|0:0,0:0:0:0:
260,109,88126,2,0,P|252:179|255:250,1,142.500005435944,8|2,1:0|0:0,0:0:0:0:
55,356,88447,2,0,P|94:300|71:236,1,142.500005435944,8|2,1:0|0:0,0:0:0:0:
146,103,88767,1,8,1:0:0:0:
203,106,88847,1,2,0:0:0:0:
260,109,88927,1,2,0:0:0:0:
316,111,89007,1,2,0:0:0:0:
373,114,89088,6,0,P|339:60|362:-14,1,142.500005435944,8|2,1:0|0:0,0:0:0:0:
146,103,89409,1,8,1:0:0:0:
417,46,89570,1,2,0:0:0:0:
443,119,89650,1,2,0:0:0:0:
469,192,89730,2,0,L|460:349,1,142.500005435944,8|2,1:0|0:0,0:0:0:0:
261,376,90051,2,0,P|228:313|231:242,1,142.500005435944,8|2,1:0|0:0,0:0:0:0:
417,46,90372,1,8,1:0:0:0:
236,100,90532,6,0,L|93:92,1,142.500005435944,6|8,0:1|1:0,0:0:0:0:
4,204,90773,1,8,1:0:0:0:
75,249,90853,2,0,P|149:252|195:189,1,142.500005435944,14|8,1:1|1:0,0:0:0:0:
349,83,91174,2,0,P|402:85|429:107,1,71.2500027179719,6|0,0:1|0:0,0:0:0:0:
385,372,91334,2,0,L|374:159,1,213.750008153916,14|0,1:0|0:0,0:0:0:0:
241,22,91655,5,8,1:0:0:0:
254,99,91735,1,8,1:0:0:0:
184,135,91816,1,8,1:0:0:0:
128,79,91896,1,8,1:0:0:0:
163,8,91976,1,8,1:0:0:0:
23,136,92136,5,2,0:0:0:0:
17,178,92217,1,2,0:0:0:0:
11,220,92297,2,0,P|17:305|43:370,1,142.500005435944,8|2,1:0|0:0,0:0:0:0:
193,299,92618,1,8,1:0:0:0:
180,244,92698,1,2,0:0:0:0:
186,188,92778,1,2,0:0:0:0:
212,137,92858,1,2,0:0:0:0:
254,99,92938,1,8,1:0:0:0:
512,129,93099,6,0,P|462:177|394:169,1,142.500005435944,6|8,0:1|1:0,0:0:0:0:
184,76,93420,2,0,L|343:67,1,142.500005435944,6|8,0:1|1:0,0:0:0:0:
264,348,93741,1,6,0:1:0:0:
20,279,93901,5,8,1:0:0:0:
84,209,94009,5,8,1:0:0:0:
28,134,94115,5,8,1:0:0:0:
92,64,94222,6,0,P|161:43|246:53,1,142.500005435944,8|2,1:0|0:0,0:0:0:0:
496,139,94543,1,8,1:0:0:0:
313,346,94703,1,2,0:0:0:0:
308,268,94783,1,2,0:0:0:0:
304,188,94864,1,8,1:0:0:0:
92,64,95024,1,2,0:0:0:0:
496,140,95184,2,0,P|476:60|423:15,1,142.500005435944,8|2,1:0|0:0,0:0:0:0:
194,225,95505,1,8,1:0:0:0:
313,346,95666,6,0,P|405:346|449:302,1,142.500005435944,6|8,0:1|1:0,0:0:0:0:
194,225,95987,2,0,B|105:234|105:234|46:209,1,142.500005435944,6|8,0:1|1:0,0:0:0:0:
171,32,96307,2,0,P|168:68|178:105,1,71.2500027179719,6|0,0:1|0:0,0:0:0:0:
390,71,96468,2,0,L|247:63,1,142.500005435944,14|2,1:0|0:3,0:0:0:0:
56,213,96789,5,8,1:0:0:0:
120,173,96869,1,8,1:0:0:0:
190,200,96949,1,8,1:0:0:0:
211,273,97029,1,8,1:0:0:0:
166,333,97110,5,8,1:0:0:0:
212,366,97190,1,2,0:0:0:0:
268,375,97270,1,2,0:0:0:0:
321,358,97350,1,2,0:0:0:0:
361,318,97431,5,8,1:0:0:0:
331,248,97511,1,8,1:0:0:0:
368,182,97591,1,8,1:0:0:0:
443,170,97671,1,8,1:0:0:0:
498,222,97751,5,8,1:0:0:0:
448,247,97831,1,2,0:0:0:0:
392,242,97911,1,2,0:0:0:0:
347,209,97991,1,2,0:0:0:0:
327,156,98071,1,8,1:0:0:0:
49,123,98233,6,0,P|41:193|66:260,1,142.500005435944,6|8,0:1|1:0,0:0:0:0:
280,220,98553,2,0,L|272:371,1,142.500005435944,6|8,0:1|1:0,0:0:0:0:
216,124,98874,2,0,P|206:89|205:54,1,71.2500027179719,6|0,0:1|0:0,0:0:0:0:
452,12,99035,1,14,1:0:0:0:
479,61,99115,1,2,0:0:0:0:
477,117,99195,1,2,0:0:0:0:
449,166,99275,1,2,0:0:0:0:
401,195,99356,6,0,P|393:288|408:345,1,142.500005435944,8|8,1:0|1:0,0:0:0:0:
285,40,99676,2,0,L|273:196,1,142.500005435944,8|8,1:0|1:0,0:0:0:0:
209,250,99917,1,2,0:0:0:0:
122,218,99997,2,0,P|63:201|-3:249,1,142.500005435944,8|8,1:0|1:0,0:0:0:0:
278,321,100318,2,0,L|276:285,1,35.625001358986,8|0,1:0|1:0,0:0:0:0:
318,328,100398,2,0,L|316:292,1,35.625001358986,0|0,1:0|1:0,0:0:0:0:
359,336,100479,1,14,1:3:0:0:
448,160,100639,1,8,1:0:0:0:
81,105,100799,6,0,P|121:148|124:163,1,71.2500027179719,0|0,3:0|0:0,0:0:0:0:
345,364,100960,2,0,P|339:306|345:293,1,71.2500027179719,0|0,3:0|0:0,0:0:0:0:
284,0,101120,2,0,P|256:50|242:57,1,71.2500027179719,0|0,3:0|0:0,0:0:0:0:
119,330,101281,2,0,P|172:306|187:308,1,71.2500027179719,0|0,3:0|0:0,0:0:0:0:
448,160,101441,2,0,P|391:149|379:138,1,71.2500027179719,0|0,3:0|0:0,0:0:0:0:
225,131,101602,6,0,P|218:248|323:189,1,285,6|0,1:0|0:0,0:0:0:0:
284,0,101922,5,4,1:0:0:0:
