osu file format v14

[General]
AudioFilename: Ryu - Sakura Mirage [EXH].mp3
AudioLeadIn: 0
PreviewTime: 81307
Countdown: 0
SampleSet: Soft
StackLeniency: 0.3
Mode: 0
LetterboxInBreaks: 0
WidescreenStoryboard: 0

[Editor]
Bookmarks: 12073,22340,32608,42875,53142,58276,81378,91645
DistanceSpacing: 1.3
BeatDivisor: 4
GridSize: 4
TimelineZoom: 1.3

[Metadata]
Title:Sakura Mirage
TitleUnicode:Sakura Mirage
Artist:Ryu*
ArtistUnicode:Ryu☆
Creator:Priti
Version:ADVANCED
Source:SOUND VOLTEX II -infinite infection-
Tags:REFLEC BEAT groovin'!! SDVX POLICY BREAK Sakura Series Leader Lizzy Quiz-Chan
BeatmapID:557360
BeatmapSetID:205022

[Difficulty]
HPDrainRate:5
CircleSize:4
OverallDifficulty:6
ApproachRate:7.5
SliderMultiplier:1.3
SliderTickRate:2

[Events]
//Background and Video events
0,0,"wallpaper-1497002.jpg",0,0
//Break Periods
2,12283,15259
2,53352,56328
2,70037,73838
//Storyboard Layer 0 (Background)
//Storyboard Layer 1 (Fail)
//Storyboard Layer 2 (Pass)
//Storyboard Layer 3 (Foreground)
//Storyboard Sound Samples

[TimingPoints]
1816,320.855614973262,4,2,1,65,1,0
6789,-100,4,2,1,45,0,0
6949,-100,4,2,1,65,0,0
8393,-100,4,3,1,65,0,0
9676,-100,4,2,1,65,0,0
10639,-100,4,2,1,55,0,0
10960,-100,4,2,1,47,0,0
11281,-100,4,2,1,39,0,0
11602,-100,4,2,1,31,0,0
11762,-100,4,1,1,65,0,0
12083,-100,4,1,0,65,0,0
16094,-100,4,2,1,40,0,0
16254,-100,4,2,1,45,0,0
16414,-100,4,2,1,50,0,0
16575,-100,4,2,1,55,0,0
16735,-100,4,2,1,60,0,0
16896,-100,4,2,1,65,0,0
17056,-100,4,2,1,70,0,0
22350,-100,4,2,2,75,0,0
22430,-100,4,2,1,75,0,0
26361,-100,4,2,1,45,0,0
27484,-100,4,2,1,75,0,0
32056,-100,4,2,1,55,0,0
32297,-100,4,1,1,75,0,0
32618,-100,4,2,1,65,0,0
33901,-100,4,2,1,40,0,0
34543,-100,4,2,1,65,0,0
35826,-100,4,2,1,40,0,0
36147,-100,4,2,1,65,0,0
36468,-100,4,2,1,50,0,0
37110,-100,4,2,1,65,0,0
37751,-100,4,2,2,65,0,0
37832,-100,4,2,1,65,0,0
39035,-100,4,2,1,50,0,0
39676,-100,4,2,1,40,0,0
39757,-100,4,2,1,5,0,0
40318,-100,4,2,1,65,0,0
41602,-100,4,2,0,25,0,0
42243,-100,4,2,0,50,0,0
42885,-100,4,2,1,65,0,0
46735,-100,4,2,3,65,0,0
53152,-100,4,2,1,45,0,0
57163,-100,4,2,1,75,0,0
69837,-100,4,2,2,75,0,0
73848,-100,4,2,1,75,0,0
78821,-100,4,2,1,95,0,0
78901,-100,4,2,1,20,0,0
81067,-100,4,2,1,75,0,0
81388,-100,4,2,2,85,0,1
85398,-100,4,2,1,85,0,1
86521,-100,4,2,2,85,0,1
90532,-100,4,2,1,85,0,1
91735,-100,4,2,2,35,0,1
91976,-100,4,2,1,85,0,1
94008,-100,4,2,1,35,0,1
94222,-100,4,2,1,85,0,1
96869,-100,4,2,1,35,0,1
97110,-100,4,2,1,85,0,1
97511,-100,4,2,1,35,0,1
97751,-100,4,2,1,85,0,1
101922,-100,4,2,1,55,0,0

[Colours]
Combo1 : 255,106,118
Combo2 : 163,124,241
Combo3 : 248,97,206
Combo4 : 209,160,239

[HitObjects]
152,320,1816,6,0,P|152:255|158:190,1,130,12|8,1:0|1:0,0:0:0:0:
225,76,2297,1,0,0:0:0:0:
225,76,2377,1,0,0:0:0:0:
225,76,2457,2,0,L|161:73,1,65,8|0,1:0|0:0,0:0:0:0:
35,135,2778,2,0,L|100:132,1,65,8|0,1:0|0:0,0:0:0:0:
158,190,3099,2,0,P|222:193|284:175,1,130,8|8,1:0|1:0,0:0:0:0:
397,124,3580,1,0,0:0:0:0:
397,124,3660,1,0,0:0:0:0:
397,124,3741,2,0,P|406:184|407:205,1,65,8|0,1:0|0:0,0:0:0:0:
512,74,4061,2,0,P|495:101|489:133,1,65,8|0,1:0|0:0,0:0:0:0:
476,280,4383,6,0,L|328:287,1,130,8|8,1:0|1:0,0:0:0:0:
220,320,4864,1,0,0:0:0:0:
220,320,4944,1,0,0:0:0:0:
220,320,5024,2,0,P|212:252|212:184,1,130,8|8,1:0|1:0,0:0:0:0:
244,88,5505,1,0,0:0:0:0:
324,112,5666,2,0,L|371:109,12,32.5,8|2|2|2|6|0|0|0|6|0|0|0|0,1:0|0:0|0:0|0:0|0:0|0:0|0:0|0:0|0:0|0:0|0:0|0:0|3:0,0:0:0:0:
244,88,6949,5,8,1:0:0:0:
159,98,7110,2,0,P|84:106|22:119,1,130,6|6,0:1|0:1,0:0:0:0:
127,255,7751,2,0,P|184:263|259:214,1,130,6|6,0:1|0:1,0:0:0:0:
332,84,8393,1,0,0:0:0:0:
332,84,8553,2,0,L|328:8,1,65,8|0,0:1|0:0,0:0:0:0:
411,102,8874,2,0,L|407:26,1,65,8|0,0:1|0:0,0:0:0:0:
490,120,9195,2,0,L|486:44,2,65,8|0|8,0:1|0:0|0:1,0:0:0:0:
448,200,9677,6,0,L|455:335,1,130,6|6,0:1|0:1,0:0:0:0:
292,376,10318,2,0,L|285:246,1,130,6|6,0:1|0:1,0:0:0:0:
452,194,10960,2,0,L|460:338,1,130,6|6,0:1|0:1,0:0:0:0:
287,381,11601,2,0,L|283:312,1,65,6|2,0:1|3:2,0:0:0:0:
456,188,12083,5,4,1:0:0:0:
282,316,16094,6,0,L|286:381,5,65,0|2|0|2|0|2,3:0|3:2|3:0|3:2|3:0|3:2,0:0:0:0:
215,265,17217,5,8,1:0:0:0:
215,265,17377,2,0,L|344:258,1,130,6|6,0:1|0:1,0:0:0:0:
464,138,18019,2,0,L|334:131,1,130,6|6,0:1|0:1,0:0:0:0:
214,11,18660,2,0,P|159:20|134:33,1,65,2|8,3:2|3:1,0:0:0:0:
78,67,18981,1,0,3:0:0:0:
43,144,19142,2,0,L|46:219,1,65,8|0,3:1|3:0,0:0:0:0:
150,271,19463,2,0,L|153:195,1,65,8|0,3:1|3:0,0:0:0:0:
166,192,19703,1,2,0:0:0:0:
179,178,19783,1,2,3:2:0:0:
244,124,19944,6,0,P|320:120|392:128,1,130,6|6,0:1|0:1,0:0:0:0:
492,243,20585,2,0,B|501:297|501:297|482:370,1,130,6|6,0:1|0:1,0:0:0:0:
482,370,21869,6,0,L|501:297|501:297,1,65,2|10,3:0|1:3,0:0:0:0:
332,344,22350,6,0,L|188:336,1,130,12|8,1:0|1:0,0:0:0:0:
82,217,22992,2,0,P|92:164|92:144,1,65,8|2,1:0|0:0,0:0:0:0:
72,56,23313,1,8,1:0:0:0:
164,20,23473,1,2,0:0:0:0:
164,20,23553,1,2,0:0:0:0:
164,20,23634,2,0,P|239:30|304:28,1,130,8|8,1:0|1:0,0:0:0:0:
416,0,24115,1,2,0:0:0:0:
468,65,24275,2,0,L|460:204,1,130,8|8,1:0|1:0,0:0:0:0:
357,329,24917,6,0,P|311:334|236:295,1,130,8|8,1:0|1:0,0:0:0:0:
158,267,25398,1,0,0:0:0:0:
74,283,25559,2,0,L|2:279,2,65,8|0|8,1:0|0:0|1:0,0:0:0:0:
238,297,26201,1,8,1:0:0:0:
308,344,26361,2,0,B|328:295|330:249|333:182|282:177|285:110|287:64|308:16,1,325,0|8,3:0|3:1,0:0:0:0:
471,58,27484,6,0,P|475:106|475:138,1,65,12|2,1:0|0:0,0:0:0:0:
430,245,27805,2,0,P|431:308|470:366,2,130,8|0|8,1:0|1:0|1:0,0:0:0:0:
475,123,28607,1,0,0:0:0:0:
479,127,28687,1,0,0:0:0:0:
483,131,28767,2,0,L|351:124,1,130,8|8,1:0|1:0,0:0:0:0:
254,88,29249,1,2,0:0:0:0:
157,123,29409,2,0,P|160:188|172:251,1,130,8|8,1:0|1:0,0:0:0:0:
311,349,30051,6,0,P|330:286|335:222,1,130,8|8,1:0|1:0,0:0:0:0:
318,139,30532,1,0,0:0:0:0:
284,61,30693,2,0,B|348:46|348:75|412:61,1,130,8|8,1:0|1:0,0:0:0:0:
504,204,31334,1,8,1:0:0:0:
504,204,31495,2,0,L|496:347,1,130,6|6,3:1|3:1,0:0:0:0:
420,364,31976,1,8,1:0:0:0:
344,328,32136,1,8,1:0:0:0:
260,344,32297,1,14,1:0:0:0:
140,224,32618,6,0,P|135:177|136:148,1,65,8|8,1:0|1:0,0:0:0:0:
159,78,32938,1,8,1:0:0:0:
240,101,33099,1,8,1:0:0:0:
314,62,33259,2,0,P|385:43|455:138,1,195,10|0,1:0|0:0,0:0:0:0:
371,126,33901,2,0,P|300:145|262:-6,1,260,8|8,1:0|1:0,0:0:0:0:
456,124,35184,6,0,P|460:178|471:209,1,65,8|8,1:0|1:0,0:0:0:0:
489,268,35505,2,0,L|416:264,1,65,8|0,1:0|0:0,0:0:0:0:
342,242,35826,1,8,1:0:0:0:
326,247,35906,1,8,1:0:0:0:
310,252,35987,1,8,1:0:0:0:
227,235,36147,1,8,1:0:0:0:
75,160,36468,2,0,P|67:80|75:28,1,130,8|8,1:0|1:0,0:0:0:0:
240,56,37110,2,0,P|292:60|316:56,1,65,8|0,1:0|0:0,0:0:0:0:
384,32,37430,2,0,L|459:35,1,65,12|0,1:0|0:0,0:0:0:0:
488,112,37751,6,0,P|484:174|466:253,1,130,12|8,1:0|1:0,0:0:0:0:
428,314,38233,1,0,0:0:0:0:
344,301,38393,1,8,1:0:0:0:
311,300,38473,1,0,0:0:0:0:
279,307,38553,1,8,1:0:0:0:
198,332,38714,1,8,1:0:0:0:
165,329,38794,1,0,0:0:0:0:
136,315,38874,1,8,1:0:0:0:
36,364,39035,2,0,L|32:156,1,195,8|0,1:0|0:0,0:0:0:0:
91,109,39676,2,0,B|187:86|187:131|283:109,1,195,8|0,1:0|0:0,0:0:0:0:
355,72,40318,6,0,P|308:32|239:42,1,130,8|8,1:0|1:0,0:0:0:0:
195,152,40799,1,2,0:0:0:0:
195,152,40880,1,2,0:0:0:0:
195,152,40960,2,0,P|200:212|205:237,1,65,8|2,1:0|0:0,0:0:0:0:
289,294,41281,2,0,P|306:257|312:229,1,65,8|2,1:0|0:0,0:0:0:0:
256,192,41602,12,2,42564,3:0:0:0:
140,184,42885,6,0,L|147:319,1,130,12|8,1:0|1:0,0:0:0:0:
219,356,43366,1,0,0:0:0:0:
300,333,43527,2,0,P|352:341|428:304,1,130,8|8,1:0|1:0,0:0:0:0:
493,157,44168,2,0,P|491:105|483:75,1,65,8|0,1:0|0:0,0:0:0:0:
404,108,44489,2,0,L|272:101,1,130,8|8,1:0|1:0,0:0:0:0:
192,124,44971,1,0,0:0:0:0:
124,72,45131,1,8,1:0:0:0:
1,188,45452,6,0,P|7:272|22:337,1,130,8|8,1:0|1:0,0:0:0:0:
76,375,45933,1,0,0:0:0:0:
150,335,46094,2,0,L|213:338,1,65,8|0,1:0|0:0,0:0:0:0:
294,367,46414,2,0,L|361:355,1,65,8|0,1:0|0:0,0:0:0:0:
432,281,46735,2,0,P|440:239|441:215,1,65,8|0,1:0|0:0,0:0:0:0:
348,124,47056,2,0,P|340:166|339:190,1,65,8|0,1:0|0:0,0:0:0:0:
224,252,47377,2,0,P|232:210|233:186,1,65,8|0,1:0|0:0,0:0:0:0:
140,95,47698,2,0,P|132:137|131:161,1,65,8|0,1:0|0:0,0:0:0:0:
16,224,48019,6,0,P|26:158|16:83,1,130,14|10,1:0|1:0,0:0:0:0:
26,10,48500,1,0,0:0:0:0:
95,58,48661,2,0,L|224:51,1,130,10|10,1:0|1:0,0:0:0:0:
346,168,49302,2,0,P|352:200|354:233,1,65,10|0,1:0|0:0,0:0:0:0:
287,285,49623,2,0,P|340:316|409:298,1,130,10|10,1:0|1:0,0:0:0:0:
481,268,50104,2,0,L|477:332,2,65,0|10|0,0:0|1:0|0:0,0:0:0:0:
500,184,50586,6,0,P|495:132|473:47,1,130,10|10,1:0|1:0,0:0:0:0:
381,61,51067,1,0,0:0:0:0:
381,61,51147,1,0,0:0:0:0:
381,61,51227,2,0,P|331:55|307:47,1,65,10|0,1:0|0:0,0:0:0:0:
235,29,51548,2,0,P|182:36|162:49,1,65,10|0,1:0|0:0,0:0:0:0:
108,96,51869,2,0,L|109:131,7,32.5,8|0|0|0|8|0|0|0,1:0|0:0|0:0|0:0|1:0|0:0|0:0|0:0,0:0:0:0:
139,158,52511,2,0,L|137:193,7,32.5,8|0|0|0|8|0|0|0,1:0|0:0|0:0|0:0|1:0|0:0|0:0|0:0,0:0:0:0:
107,220,53152,5,4,1:0:0:0:
261,374,57163,5,6,3:1:0:0:
406,314,57484,1,6,3:1:0:0:
282,219,57805,1,6,3:1:0:0:
316,300,57965,1,6,3:1:0:0:
137,278,58286,6,0,P|137:217|153:139,1,130,14|0,1:1|0:0,0:0:0:0:
191,75,58767,1,14,1:0:0:0:
273,93,58928,2,0,L|343:89,1,65,6|0,1:0|0:0,0:0:0:0:
461,32,59249,2,0,L|397:29,1,65,14|4,1:0|1:0,0:0:0:0:
273,93,59570,2,0,P|276:162|296:224,1,130,0|0,3:0|3:0,0:0:0:0:
345,286,60051,1,0,3:0:0:0:
422,319,60211,2,0,L|485:315,2,65,0|0|6,3:0|3:0|3:1,0:0:0:0:
254,347,60853,6,0,P|190:343|126:328,1,130,14|0,1:0|0:0,0:0:0:0:
40,256,61334,1,14,1:0:0:0:
40,256,61495,2,0,L|43:188,1,65,6|0,1:0|0:0,0:0:0:0:
116,152,61815,2,0,L|112:87,1,65,14|4,1:0|1:0,0:0:0:0:
50,29,62136,2,0,L|179:35,1,130,0|0,3:0|3:0,0:0:0:0:
258,69,62618,1,0,3:0:0:0:
337,40,62778,2,0,B|401:25|401:54|465:40,1,130,0|6,3:0|3:1,0:0:0:0:
506,204,63420,6,0,P|437:205|368:173,1,130,14|0,1:0|0:0,0:0:0:0:
275,146,63901,1,14,1:0:0:0:
275,146,64061,2,0,P|218:153|202:159,1,65,6|0,1:0|0:0,0:0:0:0:
145,209,64382,2,0,P|90:205|61:195,1,65,14|4,1:0|1:0,0:0:0:0:
0,141,64703,2,0,P|22:201|11:264,1,130,14|0,1:0|3:0,0:0:0:0:
2,348,65184,1,14,1:0:0:0:
82,373,65345,2,0,P|117:371|150:355,1,65,14|0,1:0|3:0,0:0:0:0:
212,309,65666,2,0,P|263:315|287:324,1,65,14|0,1:0|3:0,0:0:0:0:
352,352,65987,6,0,L|487:344,1,130,14|14,1:0|1:0,0:0:0:0:
408,100,66789,2,0,L|404:167,1,65,14|14,1:0|1:0,0:0:0:0:
328,202,67110,2,0,P|256:198|184:182,1,130,6|6,3:1|3:1,0:0:0:0:
57,94,67751,2,0,P|34:154|36:218,1,130,6|6,0:1|0:1,0:0:0:0:
156,338,68393,2,0,L|295:330,1,130,6|6,0:1|0:1,0:0:0:0:
452,363,69035,2,0,P|468:300|465:220,1,130,6|6,0:1|0:1,0:0:0:0:
445,153,69516,1,6,0:1:0:0:
276,140,69837,5,4,1:0:0:0:
208,172,74971,5,8,1:1:0:0:
256,192,75051,12,8,76896,3:1:0:0:
116,152,77537,6,0,L|252:144,1,130,8|8,1:0|1:0,0:0:0:0:
408,188,78179,2,0,P|416:260|408:332,1,130,8|8,1:0|1:0,0:0:0:0:
248,368,78821,5,8,1:0:0:0:
256,192,78901,12,14,81067,1:3:0:0:
90,103,81388,6,0,P|94:159|110:247,1,130,12|8,1:0|1:0,0:0:0:0:
177,298,81869,1,2,0:0:0:0:
177,298,81949,1,0,0:0:0:0:
177,298,82029,2,0,P|217:302|253:314,1,65,8|0,1:0|0:0,0:0:0:0:
332,343,82350,2,0,P|367:342|409:329,1,65,8|2,1:0|0:0,0:0:0:0:
469,269,82671,2,0,L|462:137,1,130,8|8,1:0|1:0,0:0:0:0:
427,47,83152,1,2,0:0:0:0:
336,80,83313,1,8,1:0:0:0:
144,44,83634,2,0,L|146:-3,2,32.5,8|2|2,1:0|0:0|0:0,0:0:0:0:
74,113,83955,6,0,L|77:188,1,65,8|2,1:0|0:0,0:0:0:0:
41,268,84275,2,0,P|105:257|169:255,1,130,8|8,1:0|1:0,0:0:0:0:
265,277,84757,1,2,0:0:0:0:
355,312,84917,2,0,P|388:309|419:299,1,65,8|2,1:0|0:0,0:0:0:0:
482,225,85238,1,8,1:0:0:0:
440,140,85398,2,0,L|443:68,5,65,0|8|0|8|0|8,3:0|3:1|3:0|3:1|3:0|3:1,0:0:0:0:
348,108,86521,6,0,L|212:115,1,130,12|8,1:0|1:0,0:0:0:0:
125,81,87003,1,2,0:0:0:0:
125,81,87083,1,2,0:0:0:0:
124,81,87163,2,0,P|96:138|102:202,1,130,8|8,1:0|1:0,0:0:0:0:
248,332,87805,2,0,L|377:325,1,130,8|8,1:0|1:0,0:0:0:0:
452,260,88286,1,2,0:0:0:0:
404,174,88447,2,0,P|398:129|402:100,1,65,8|2,1:0|0:0,0:0:0:0:
373,16,88767,1,8,1:0:0:0:
373,16,88848,1,2,0:0:0:0:
373,16,88928,1,2,0:0:0:0:
281,47,89088,6,0,L|146:58,1,130,8|8,1:0|1:0,0:0:0:0:
69,112,89570,1,2,0:0:0:0:
69,112,89650,1,2,0:0:0:0:
69,112,89730,2,0,P|73:144|86:179,1,65,8|2,1:0|0:0,0:0:0:0:
160,313,90051,2,0,P|171:269|173:241,1,65,8|2,1:0|0:0,0:0:0:0:
237,175,90372,1,8,1:0:0:0:
320,224,90532,2,0,P|389:226|452:193,1,130,6|14,0:1|1:1,0:0:0:0:
347,29,91174,1,6,0:1:0:0:
253,54,91334,2,0,P|201:46|170:36,1,65,14|0,1:0|0:0,0:0:0:0:
92,20,91655,5,8,1:0:0:0:
95,52,91735,1,8,1:0:0:0:
98,84,91815,1,8,1:0:0:0:
101,116,91895,1,8,1:0:0:0:
105,149,91975,1,8,1:0:0:0:
165,335,92297,2,0,P|217:331|242:322,1,65,8|2,1:0|0:0,0:0:0:0:
317,286,92618,1,8,1:0:0:0:
389,351,92778,1,2,0:0:0:0:
393,355,92858,1,2,0:0:0:0:
397,358,92938,1,8,1:0:0:0:
480,307,93099,2,0,P|492:222|494:164,1,130,6|6,0:1|0:1,0:0:0:0:
390,11,93741,1,6,0:1:0:0:
315,70,93901,2,0,L|260:64,2,43.3333333333333,8|8|8,1:0|1:0|1:0,0:0:0:0:
330,85,94222,6,0,P|326:157|306:232,1,130,8|8,1:0|1:0,0:0:0:0:
268,300,94703,1,2,0:0:0:0:
272,304,94783,1,2,0:0:0:0:
276,308,94864,2,0,L|201:313,1,65,8|2,1:0|0:0,0:0:0:0:
119,344,95184,2,0,P|113:288|117:264,1,65,8|2,1:0|0:0,0:0:0:0:
76,152,95505,1,8,1:0:0:0:
76,152,95666,2,0,P|94:92|89:14,2,130,6|6|6,0:1|0:1|0:1,0:0:0:0:
156,207,96468,2,0,L|236:203,1,65,14|2,1:0|0:3,0:0:0:0:
295,140,96789,6,0,P|342:147|376:164,1,65,8|8,1:0|1:0,1:0:0:0:
371,167,97029,1,8,1:0:0:0:
384,180,97110,1,8,1:0:0:0:
259,329,97430,2,0,P|212:322|178:305,1,65,8|8,1:0|1:0,1:0:0:0:
183,302,97670,1,8,1:0:0:0:
170,289,97751,1,8,1:0:0:0:
25,156,98072,1,8,1:0:0:0:
25,156,98233,2,0,B|102:166|102:166|158:138,1,130,6|6,0:1|0:1,0:0:0:0:
327,64,98874,1,6,0:1:0:0:
327,64,99035,2,0,P|382:73|406:87,1,65,14|2,1:0|0:0,0:0:0:0:
456,148,99356,6,0,L|452:215,1,65,8|8,1:0|1:0,0:0:0:0:
374,290,99676,2,0,L|370:222,1,65,8|8,1:0|1:0,0:0:0:0:
272,172,99997,2,0,L|268:239,1,65,8|8,1:0|1:0,0:0:0:0:
190,314,100318,2,0,L|186:246,1,65,8|14,1:0|1:3,0:0:0:0:
88,196,100639,1,8,1:0:0:0:
88,196,100799,2,0,L|84:263,2,65,0|0|0,3:0|3:0|3:0,0:0:0:0:
171,149,101281,2,0,L|157:86,1,65,0|0,3:0|3:0,0:0:0:0:
28,101,101602,6,0,P|106:90|163:86,1,130,6|4,1:0|1:0,0:0:0:0:
