osu file format v14

[General]
AudioFilename: Ryu - Sakura Mirage [EXH].mp3
AudioLeadIn: 0
PreviewTime: -1
Countdown: 1
SampleSet: None
StackLeniency: 0.7
Mode: 0
LetterboxInBreaks: 1
WidescreenStoryboard: 0

[Editor]
DistanceSpacing: 1.5
BeatDivisor: 4
GridSize: 16
TimelineZoom: 1

[Metadata]
Title:Sakura Mirage
TitleUnicode:Sakura Mirage
Artist:Ryu
ArtistUnicode:Ryu¡¸
Creator:Naranja Sagged
Version:Superb
Source:osu!
Tags:cookiezi shigetora rrtyui naranja sagged kelvin chan
BeatmapID:731490
BeatmapSetID:329988

[Difficulty]
HPDrainRate:4
CircleSize:5
OverallDifficulty:6
ApproachRate:9.5
SliderMultiplier:1.4
SliderTickRate:1

[Events]
//Background and Video events
0,0,"savor.png",0,0
//Break Periods
//Storyboard Layer 0 (Background)
//Storyboard Layer 1 (Fail)
//Storyboard Layer 2 (Pass)
//Storyboard Layer 3 (Foreground)
//Storyboard Sound Samples

[TimingPoints]
3075.66405665894,320.822626197045,4,1,0,100,1,0

[HitObjects]
112,112,1046,6,0,P|224:112|208:144,1,105
112,336,1939,1,0,0:0:0:0:
112,32,2193,1,0,0:0:0:0:
432,32,2514,1,0,0:0:0:0:
432,336,2835,1,0,0:0:0:0:
112,336,3155,1,0,0:0:0:0:
432,336,3476,1,0,0:0:0:0:
432,32,3797,1,0,0:0:0:0:
432,336,4118,1,0,0:0:0:0:
0,272,4439,5,0,0:0:0:0:
256,0,4759,1,0,0:0:0:0:
496,176,5000,1,0,0:0:0:0:
256,160,5241,1,0,0:0:0:0:
32,192,5562,1,0,0:0:0:0:
32,192,5642,1,0,0:0:0:0:
32,192,5722,1,0,0:0:0:0:
32,192,5802,1,0,0:0:0:0:
32,192,5882,1,0,0:0:0:0:
32,192,5963,1,0,0:0:0:0:
160,288,6203,1,0,0:0:0:0:
320,336,6684,6,0,B|384:256|368:176|352:96|352:96,1,245
288,64,7326,1,0,0:0:0:0:
208,48,7406,1,0,0:0:0:0:
128,64,7486,1,0,0:0:0:0:
80,128,7567,1,0,0:0:0:0:
80,208,7647,1,0,0:0:0:0:
128,272,7727,1,0,0:0:0:0:
208,288,7807,1,0,0:0:0:0:
272,256,7888,1,0,0:0:0:0:
304,192,7968,1,0,0:0:0:0:
288,304,8289,6,0,L|336:352|336:352,1,70
336,256,8609,6,0,L|384:304|384:304,1,70
384,224,8850,6,0,L|432:272|432:272,1,70
400,304,9171,5,0,0:0:0:0:
464,320,9251,6,0,P|464:208|416:192,1,175
368,160,9732,5,0,0:0:0:0:
320,96,9812,1,0,0:0:0:0:
256,64,9893,1,0,0:0:0:0:
176,64,9973,1,0,0:0:0:0:
112,96,10053,1,0,0:0:0:0:
80,160,10133,1,0,0:0:0:0:
80,240,10213,1,0,0:0:0:0:
128,304,10294,1,0,0:0:0:0:
192,352,10374,1,0,0:0:0:0:
256,352,10454,1,0,0:0:0:0:
320,320,10534,1,0,0:0:0:0:
368,288,10614,6,0,P|432:192|416:112,1,175
512,96,11256,2,0,P|400:144|320:144,1,175
16,112,11978,2,0,L|32:64,1,35
48,48,12138,5,0,0:0:0:0:
80,32,12219,1,0,0:0:0:0:
112,32,12299,1,0,0:0:0:0:
144,48,12379,1,0,0:0:0:0:
176,80,12459,1,0,0:0:0:0:
176,112,12539,1,0,0:0:0:0:
160,144,12620,1,0,0:0:0:0:
128,160,12700,1,0,0:0:0:0:
96,176,12780,1,0,0:0:0:0:
64,192,12860,1,0,0:0:0:0:
112,192,12940,1,0,0:0:0:0:
144,208,13021,1,0,0:0:0:0:
176,240,13101,1,0,0:0:0:0:
192,288,13181,1,0,0:0:0:0:
160,320,13261,1,0,0:0:0:0:
128,352,13341,1,0,0:0:0:0:
80,352,13422,1,0,0:0:0:0:
64,320,13502,1,0,0:0:0:0:
112,304,13582,1,0,0:0:0:0:
160,288,13662,1,0,0:0:0:0:
208,272,13743,1,0,0:0:0:0:
240,256,13823,1,0,0:0:0:0:
272,240,13903,1,0,0:0:0:0:
304,224,13983,1,0,0:0:0:0:
336,224,14063,1,0,0:0:0:0:
352,224,14144,1,0,0:0:0:0:
368,224,14224,1,0,0:0:0:0:
384,240,14304,1,0,0:0:0:0:
384,240,14384,1,0,0:0:0:0:
384,240,14464,1,0,0:0:0:0:
384,240,14545,1,0,0:0:0:0:
352,256,14625,1,0,0:0:0:0:
320,272,14705,1,0,0:0:0:0:
288,288,14785,1,0,0:0:0:0:
256,304,14865,1,0,0:0:0:0:
224,320,14946,1,0,0:0:0:0:
224,320,15026,1,0,0:0:0:0:
224,320,15106,1,0,0:0:0:0:
224,320,15186,1,0,0:0:0:0:
256,304,15266,1,0,0:0:0:0:
288,288,15347,1,0,0:0:0:0:
304,256,15427,1,0,0:0:0:0:
304,224,15507,1,0,0:0:0:0:
288,192,15587,1,0,0:0:0:0:
256,176,15667,1,0,0:0:0:0:
224,176,15748,1,0,0:0:0:0:
192,192,15828,1,0,0:0:0:0:
176,224,15908,1,0,0:0:0:0:
224,240,15988,1,0,0:0:0:0:
240,208,16068,1,0,0:0:0:0:
240,176,16148,1,0,0:0:0:0:
224,144,16228,1,0,0:0:0:0:
192,128,16308,1,0,0:0:0:0:
160,128,16389,1,0,0:0:0:0:
128,144,16469,1,0,0:0:0:0:
112,176,16549,1,0,0:0:0:0:
160,208,16630,1,0,0:0:0:0:
176,176,16710,1,0,0:0:0:0:
176,144,16790,1,0,0:0:0:0:
160,112,16870,1,0,0:0:0:0:
128,96,16950,1,0,0:0:0:0:
96,96,17031,1,0,0:0:0:0:
64,112,17111,1,0,0:0:0:0:
48,144,17191,1,0,0:0:0:0:
48,192,17272,6,0,P|96:256|80:352,1,175
96,176,17913,6,0,P|144:240|128:336,1,175
144,160,18555,6,0,P|192:224|176:320,1,175
144,352,19036,1,0,0:0:0:0:
96,320,19116,1,0,0:0:0:0:
80,272,19197,1,0,0:0:0:0:
80,224,19277,1,0,0:0:0:0:
112,176,19357,1,0,0:0:0:0:
160,160,19437,1,0,0:0:0:0:
208,160,19517,1,0,0:0:0:0:
240,192,19598,1,0,0:0:0:0:
256,240,19678,1,0,0:0:0:0:
240,288,19758,1,0,0:0:0:0:
208,336,19838,1,0,0:0:0:0:
208,336,19918,6,0,P|240:368|368:352,1,175
448,144,20560,2,0,P|352:64|336:48,1,140
432,112,21202,2,0,L|320:16,1,140
416,64,21843,2,0,L|272:16,1,140
160,48,22485,5,0,0:0:0:0:
160,96,22565,1,0,0:0:0:0:
160,144,22645,1,0,0:0:0:0:
160,192,22726,1,0,0:0:0:0:
160,240,22806,1,0,0:0:0:0:
256,368,22966,5,0,0:0:0:0:
464,256,23127,1,0,0:0:0:0:
48,256,23287,1,0,0:0:0:0:
352,256,23447,1,0,0:0:0:0:
160,256,23608,1,0,0:0:0:0:
96,208,23768,5,0,0:0:0:0:
96,208,23848,1,0,0:0:0:0:
96,208,23929,1,0,0:0:0:0:
256,0,24089,1,0,0:0:0:0:
256,320,24330,1,0,0:0:0:0:
256,320,24410,1,0,0:0:0:0:
256,320,24490,1,0,0:0:0:0:
256,0,24650,1,0,0:0:0:0:
336,64,24811,5,0,0:0:0:0:
192,64,24971,1,0,0:0:0:0:
336,96,25132,1,0,0:0:0:0:
192,96,25292,1,0,0:0:0:0:
336,128,25453,1,0,0:0:0:0:
192,128,25613,1,0,0:0:0:0:
96,128,25854,6,0,P|160:112|160:128,1,105
176,160,26174,1,0,0:0:0:0:
192,192,26255,1,0,0:0:0:0:
224,208,26335,1,0,0:0:0:0:
256,208,26415,1,0,0:0:0:0:
288,176,26495,1,0,0:0:0:0:
288,128,26575,1,0,0:0:0:0:
272,96,26656,1,0,0:0:0:0:
240,80,26736,1,0,0:0:0:0:
192,96,26816,1,0,0:0:0:0:
176,128,26896,1,0,0:0:0:0:
176,160,26976,1,0,0:0:0:0:
192,192,27057,1,0,0:0:0:0:
224,208,27137,1,0,0:0:0:0:
256,208,27217,1,0,0:0:0:0:
288,192,27297,6,0,P|336:160|336:144,1,70
256,352,27698,5,0,0:0:0:0:
336,240,27859,1,0,0:0:0:0:
256,352,28019,1,0,0:0:0:0:
144,144,28180,1,0,0:0:0:0:
256,352,28340,1,0,0:0:0:0:
384,64,28500,1,0,0:0:0:0:
256,352,28661,1,0,0:0:0:0:
80,16,28821,1,0,0:0:0:0:
256,352,28982,1,0,0:0:0:0:
256,352,29142,1,0,0:0:0:0:
256,352,29302,1,0,0:0:0:0:
256,352,29463,1,0,0:0:0:0:
256,352,29623,1,0,0:0:0:0:
256,352,29784,1,0,0:0:0:0:
352,304,29944,6,0,L|416:240,1,70
176,80,30265,2,0,L|112:144,1,70
352,240,30586,2,0,L|400:176,1,70
192,144,30746,2,0,L|128:208,1,70
256,192,31067,5,0,0:0:0:0:
256,192,31227,1,0,0:0:0:0:
256,192,31388,1,0,0:0:0:0:
352,192,31548,1,0,0:0:0:0:
160,192,31709,1,0,0:0:0:0:
416,192,31869,1,0,0:0:0:0:
96,192,32029,1,0,0:0:0:0:
112,304,32190,6,0,P|224:272|224:208,1,175
192,112,32751,6,0,L|160:144,1,35
256,288,32912,2,0,L|288:272,1,35
384,160,33072,2,0,L|368:128,1,35
320,96,33313,5,0,0:0:0:0:
272,96,33393,1,0,0:0:0:0:
224,96,33473,1,0,0:0:0:0:
176,96,33553,1,0,0:0:0:0:
176,304,33714,5,0,0:0:0:0:
272,96,33874,5,0,0:0:0:0:
224,96,33954,1,0,0:0:0:0:
176,96,34035,1,0,0:0:0:0:
128,96,34115,1,0,0:0:0:0:
144,304,34355,5,0,0:0:0:0:
224,96,34516,5,0,0:0:0:0:
176,128,34596,1,0,0:0:0:0:
160,176,34676,1,0,0:0:0:0:
192,224,34756,1,0,0:0:0:0:
240,240,34837,1,0,0:0:0:0:
288,224,34917,1,0,0:0:0:0:
320,192,34997,1,0,0:0:0:0:
336,144,35077,1,0,0:0:0:0:
336,96,35157,1,0,0:0:0:0:
304,48,35238,1,0,0:0:0:0:
256,32,35318,1,0,0:0:0:0:
208,32,35398,1,0,0:0:0:0:
160,48,35478,1,0,0:0:0:0:
112,80,35558,1,0,0:0:0:0:
80,128,35639,1,0,0:0:0:0:
64,176,35719,1,0,0:0:0:0:
64,224,35799,1,0,0:0:0:0:
80,272,35879,1,0,0:0:0:0:
112,304,35959,1,0,0:0:0:0:
144,320,36040,1,0,0:0:0:0:
160,320,36120,1,0,0:0:0:0:
176,320,36200,1,0,0:0:0:0:
192,320,36280,1,0,0:0:0:0:
208,320,36361,1,0,0:0:0:0:
400,144,36521,6,0,L|368:192,1,35
96,128,36842,2,0,L|128:176,1,35
256,112,37163,2,0,L|256:160,1,35
400,192,37483,6,0,L|352:192,1,35
365,192,37644,2,0,L|320:192,1,35
330,192,37804,2,0,L|288:192,1,35
272,192,37965,1,0,0:0:0:0:
240,192,38045,1,0,0:0:0:0:
208,192,38125,1,0,0:0:0:0:
176,192,38205,1,0,0:0:0:0:
144,192,38285,1,0,0:0:0:0:
112,192,38366,1,0,0:0:0:0:
80,192,38446,1,0,0:0:0:0:
48,192,38526,1,0,0:0:0:0:
48,240,38606,1,0,0:0:0:0:
80,240,38686,1,0,0:0:0:0:
112,240,38767,1,0,0:0:0:0:
144,240,38847,1,0,0:0:0:0:
176,240,38927,1,0,0:0:0:0:
208,240,39007,1,0,0:0:0:0:
240,240,39088,1,0,0:0:0:0:
272,240,39168,1,0,0:0:0:0:
304,240,39248,1,0,0:0:0:0:
304,288,39328,1,0,0:0:0:0:
272,288,39408,1,0,0:0:0:0:
240,288,39489,1,0,0:0:0:0:
208,288,39569,1,0,0:0:0:0:
176,288,39649,1,0,0:0:0:0:
144,288,39729,1,0,0:0:0:0:
112,288,39809,1,0,0:0:0:0:
80,288,39890,1,0,0:0:0:0:
48,288,39970,1,0,0:0:0:0:
160,32,40130,5,0,0:0:0:0:
288,32,40291,1,0,0:0:0:0:
160,144,40451,1,0,0:0:0:0:
288,144,40611,1,0,0:0:0:0:
160,256,40772,1,0,0:0:0:0:
304,256,40932,1,0,0:0:0:0:
224,368,41093,1,0,0:0:0:0:
224,112,41253,1,0,0:0:0:0:
224,288,41413,1,0,0:0:0:0:
64,224,41574,6,0,L|64:160,1,35
224,176,41814,2,0,L|224:224,1,35
400,240,42055,2,0,L|400:192,1,35
400,192,42216,1,0,0:0:0:0:
400,176,42296,1,0,0:0:0:0:
144,32,42937,6,0,P|80:64|80:96,1,105
80,128,43178,1,0,0:0:0:0:
96,176,43258,1,0,0:0:0:0:
128,208,43338,1,0,0:0:0:0:
176,224,43499,1,0,0:0:0:0:
224,224,43579,1,0,0:0:0:0:
256,192,43659,1,0,0:0:0:0:
272,144,43739,1,0,0:0:0:0:
272,112,43820,1,0,0:0:0:0:
272,144,43900,1,0,0:0:0:0:
288,192,43980,1,0,0:0:0:0:
320,224,44060,1,0,0:0:0:0:
368,240,44140,1,0,0:0:0:0:
416,224,44221,1,0,0:0:0:0:
448,192,44301,1,0,0:0:0:0:
464,144,44381,1,0,0:0:0:0:
464,112,44461,1,0,0:0:0:0:
464,96,44541,1,0,0:0:0:0:
464,80,44622,1,0,0:0:0:0:
400,48,44782,5,0,0:0:0:0:
320,256,44943,1,0,0:0:0:0:
224,48,45103,1,0,0:0:0:0:
144,256,45263,1,0,0:0:0:0:
48,48,45424,1,0,0:0:0:0:
32,304,45584,6,0,P|64:368|112:336,1,140
128,304,45985,1,0,0:0:0:0:
96,272,46065,1,0,0:0:0:0:
64,240,46146,1,0,0:0:0:0:
64,208,46226,1,0,0:0:0:0:
80,160,46306,1,0,0:0:0:0:
112,128,46386,1,0,0:0:0:0:
160,128,46466,1,0,0:0:0:0:
208,144,46547,1,0,0:0:0:0:
240,176,46627,1,0,0:0:0:0:
240,224,46707,1,0,0:0:0:0:
224,256,46787,1,0,0:0:0:0:
176,256,46867,1,0,0:0:0:0:
144,224,46948,1,0,0:0:0:0:
144,192,47028,1,0,0:0:0:0:
160,144,47108,1,0,0:0:0:0:
192,112,47188,1,0,0:0:0:0:
240,112,47268,1,0,0:0:0:0:
288,128,47349,1,0,0:0:0:0:
320,160,47429,1,0,0:0:0:0:
320,208,47509,1,0,0:0:0:0:
304,240,47589,1,0,0:0:0:0:
256,240,47670,1,0,0:0:0:0:
224,208,47751,1,0,0:0:0:0:
224,176,47831,1,0,0:0:0:0:
240,128,47911,1,0,0:0:0:0:
272,96,47991,1,0,0:0:0:0:
320,96,48071,1,0,0:0:0:0:
368,112,48152,1,0,0:0:0:0:
400,144,48232,1,0,0:0:0:0:
400,192,48312,1,0,0:0:0:0:
384,224,48392,1,0,0:0:0:0:
352,256,48472,1,0,0:0:0:0:
304,272,48552,1,0,0:0:0:0:
256,272,48632,1,0,0:0:0:0:
208,256,48712,1,0,0:0:0:0:
176,224,48792,1,0,0:0:0:0:
144,176,48873,1,0,0:0:0:0:
144,224,48953,1,0,0:0:0:0:
160,272,49033,1,0,0:0:0:0:
192,304,49113,1,0,0:0:0:0:
240,320,49193,1,0,0:0:0:0:
288,320,49274,1,0,0:0:0:0:
336,304,49354,1,0,0:0:0:0:
384,272,49434,1,0,0:0:0:0:
416,240,49514,1,0,0:0:0:0:
416,272,49594,1,0,0:0:0:0:
400,304,49675,1,0,0:0:0:0:
368,336,49755,1,0,0:0:0:0:
320,352,49835,1,0,0:0:0:0:
288,368,49915,1,0,0:0:0:0:
240,368,49995,1,0,0:0:0:0:
192,352,50076,1,0,0:0:0:0:
160,336,50156,1,0,0:0:0:0:
128,304,50236,1,0,0:0:0:0:
112,272,50316,1,0,0:0:0:0:
112,240,50397,1,0,0:0:0:0:
112,208,50477,1,0,0:0:0:0:
112,192,50557,1,0,0:0:0:0:
112,176,50637,1,0,0:0:0:0:
112,160,50717,1,0,0:0:0:0:
112,144,50798,1,0,0:0:0:0:
0,192,50958,5,0,0:0:0:0:
256,0,51279,1,0,0:0:0:0:
512,192,51600,1,0,0:0:0:0:
256,384,51920,1,0,0:0:0:0:
0,384,52241,5,0,0:0:0:0:
0,0,52562,1,0,0:0:0:0:
512,0,52883,1,0,0:0:0:0:
512,384,53204,1,0,0:0:0:0:
256,192,53605,12,0,56572,0:0:0:0:
96,80,57134,5,0,0:0:0:0:
448,80,57374,1,0,0:0:0:0:
224,80,57936,1,0,0:0:0:0:
288,80,58096,1,0,0:0:0:0:
256,144,58337,6,0,L|256:304,1,140
192,224,58898,5,0,0:0:0:0:
320,224,59059,1,0,0:0:0:0:
192,224,59540,5,0,0:0:0:0:
160,192,59700,1,0,0:0:0:0:
128,160,59781,1,0,0:0:0:0:
112,112,59861,1,0,0:0:0:0:
112,64,59941,1,0,0:0:0:0:
144,32,60021,1,0,0:0:0:0:
192,32,60101,1,0,0:0:0:0:
224,64,60182,1,0,0:0:0:0:
240,96,60262,1,0,0:0:0:0:
256,64,60342,1,0,0:0:0:0:
288,32,60422,1,0,0:0:0:0:
336,48,60502,1,0,0:0:0:0:
352,80,60583,1,0,0:0:0:0:
352,128,60663,1,0,0:0:0:0:
320,176,60743,1,0,0:0:0:0:
512,352,60823,1,0,0:0:0:0:
256,16,61144,5,0,0:0:0:0:
96,96,61385,5,0,0:0:0:0:
448,96,61545,1,0,0:0:0:0:
176,272,61946,5,0,0:0:0:0:
128,240,62026,1,0,0:0:0:0:
96,192,62107,1,0,0:0:0:0:
80,144,62187,1,0,0:0:0:0:
64,96,62267,1,0,0:0:0:0:
64,48,62347,1,0,0:0:0:0:
80,96,62427,1,0,0:0:0:0:
96,128,62508,1,0,0:0:0:0:
128,160,62588,1,0,0:0:0:0:
160,192,62668,1,0,0:0:0:0:
192,208,62748,1,0,0:0:0:0:
224,224,62828,1,0,0:0:0:0:
192,176,62909,1,0,0:0:0:0:
160,144,62989,1,0,0:0:0:0:
144,112,63069,1,0,0:0:0:0:
128,80,63149,1,0,0:0:0:0:
160,112,63229,1,0,0:0:0:0:
176,144,63310,1,0,0:0:0:0:
192,176,63390,1,0,0:0:0:0:
256,48,63951,5,0,0:0:0:0:
256,288,64112,1,0,0:0:0:0:
112,224,64593,5,0,0:0:0:0:
160,288,64673,1,0,0:0:0:0:
240,304,64753,1,0,0:0:0:0:
320,272,64834,1,0,0:0:0:0:
352,192,64914,1,0,0:0:0:0:
336,112,64994,1,0,0:0:0:0:
256,64,65074,1,0,0:0:0:0:
160,80,65154,1,0,0:0:0:0:
112,128,65235,1,0,0:0:0:0:
96,208,65315,1,0,0:0:0:0:
128,288,65395,1,0,0:0:0:0:
192,320,65475,1,0,0:0:0:0:
272,320,65555,1,0,0:0:0:0:
352,288,65636,1,0,0:0:0:0:
384,240,65716,6,0,L|432:160,1,70
432,160,65956,1,0,0:0:0:0:
432,160,66037,1,0,0:0:0:0:
432,160,66117,1,0,0:0:0:0:
432,160,66197,1,0,0:0:0:0:
256,192,66598,5,0,0:0:0:0:
256,192,66758,1,0,0:0:0:0:
256,112,66919,1,0,0:0:0:0:
256,272,67079,1,0,0:0:0:0:
256,112,67240,1,0,0:0:0:0:
256,272,67400,1,0,0:0:0:0:
0,192,67881,5,0,0:0:0:0:
512,192,68042,1,0,0:0:0:0:
16,192,68202,1,0,0:0:0:0:
496,192,68363,1,0,0:0:0:0:
32,192,68523,1,0,0:0:0:0:
480,192,68683,1,0,0:0:0:0:
80,112,68844,6,0,L|432:112,1,350
256,192,69886,12,0,71250,0:0:0:0:
48,80,71491,6,0,B|128:16|160:224|192:32|256:224|320:16|352:240|384:32|400:256|432:16|128:304|320:48|368:32,1,490
208,320,72854,2,0,B|64:272|448:272|32:240|496:224|-32:208|496:176|32:176|528:144|0:96|192:192,1,350
192,192,73977,5,0,0:0:0:0:
160,144,74057,1,0,0:0:0:0:
144,96,74137,1,0,0:0:0:0:
160,48,74218,1,0,0:0:0:0:
192,16,74298,1,0,0:0:0:0:
240,0,74378,1,0,0:0:0:0:
288,16,74458,1,0,0:0:0:0:
320,32,74538,1,0,0:0:0:0:
352,80,74619,1,0,0:0:0:0:
352,128,74699,1,0,0:0:0:0:
320,160,74779,1,0,0:0:0:0:
288,192,74859,1,0,0:0:0:0:
256,208,74939,1,0,0:0:0:0:
144,304,75180,5,0,0:0:0:0:
144,304,75340,1,0,0:0:0:0:
144,304,75501,1,0,0:0:0:0:
144,304,75661,1,0,0:0:0:0:
192,304,75741,1,0,0:0:0:0:
240,304,75822,1,0,0:0:0:0:
288,304,75902,1,0,0:0:0:0:
336,304,75982,1,0,0:0:0:0:
384,304,76062,1,0,0:0:0:0:
432,304,76143,1,0,0:0:0:0:
480,304,76223,1,0,0:0:0:0:
480,256,76383,5,0,0:0:0:0:
480,256,76544,1,0,0:0:0:0:
480,256,76704,1,0,0:0:0:0:
480,256,76864,1,0,0:0:0:0:
400,256,76945,1,0,0:0:0:0:
336,256,77025,1,0,0:0:0:0:
272,256,77105,1,0,0:0:0:0:
208,256,77185,1,0,0:0:0:0:
144,256,77265,1,0,0:0:0:0:
80,256,77346,1,0,0:0:0:0:
128,80,77506,5,0,0:0:0:0:
400,80,77666,1,0,0:0:0:0:
128,112,77827,1,0,0:0:0:0:
400,112,77987,1,0,0:0:0:0:
128,144,78148,1,0,0:0:0:0:
400,144,78308,1,0,0:0:0:0:
64,80,78468,6,0,B|0:16|288:80|112:192|416:208|192:48,1,385
256,192,79591,12,0,81035,0:0:0:0:
256,112,81436,5,0,0:0:0:0:
416,32,81597,1,0,0:0:0:0:
464,64,81677,1,0,0:0:0:0:
448,112,81757,1,0,0:0:0:0:
256,112,81917,1,0,0:0:0:0:
80,32,82078,1,0,0:0:0:0:
32,64,82158,1,0,0:0:0:0:
48,112,82238,1,0,0:0:0:0:
256,192,82399,5,0,0:0:0:0:
16,320,82559,1,0,0:0:0:0:
48,272,82639,1,0,0:0:0:0:
80,224,82719,1,0,0:0:0:0:
112,176,82800,1,0,0:0:0:0:
128,224,82880,1,0,0:0:0:0:
144,272,82960,1,0,0:0:0:0:
160,320,83040,1,0,0:0:0:0:
192,272,83120,1,0,0:0:0:0:
208,224,83201,1,0,0:0:0:0:
224,176,83281,1,0,0:0:0:0:
240,128,83361,1,0,0:0:0:0:
256,80,83441,1,0,0:0:0:0:
272,32,83521,1,0,0:0:0:0:
272,32,83602,1,0,0:0:0:0:
272,32,83682,1,0,0:0:0:0:
272,32,83762,1,0,0:0:0:0:
272,32,83842,1,0,0:0:0:0:
288,48,83922,1,0,0:0:0:0:
304,64,84003,1,0,0:0:0:0:
320,80,84083,1,0,0:0:0:0:
336,96,84163,1,0,0:0:0:0:
352,112,84243,1,0,0:0:0:0:
368,128,84323,1,0,0:0:0:0:
400,160,84404,1,0,0:0:0:0:
432,208,84484,1,0,0:0:0:0:
448,256,84564,1,0,0:0:0:0:
416,304,84644,1,0,0:0:0:0:
368,304,84725,1,0,0:0:0:0:
320,272,84805,1,0,0:0:0:0:
304,224,84885,1,0,0:0:0:0:
320,272,84965,1,0,0:0:0:0:
320,320,85045,1,0,0:0:0:0:
272,352,85126,1,0,0:0:0:0:
224,352,85206,1,0,0:0:0:0:
192,320,85286,1,0,0:0:0:0:
176,272,85366,1,0,0:0:0:0:
192,224,85446,1,0,0:0:0:0:
224,224,85527,1,0,0:0:0:0:
240,272,85607,1,0,0:0:0:0:
240,320,85687,1,0,0:0:0:0:
192,352,85768,1,0,0:0:0:0:
144,352,85848,1,0,0:0:0:0:
112,320,85928,1,0,0:0:0:0:
96,272,86008,1,0,0:0:0:0:
128,224,86088,1,0,0:0:0:0:
144,272,86168,1,0,0:0:0:0:
144,320,86248,1,0,0:0:0:0:
96,352,86329,1,0,0:0:0:0:
48,352,86409,1,0,0:0:0:0:
16,320,86489,1,0,0:0:0:0:
0,272,86569,1,0,0:0:0:0:
16,224,86649,1,0,0:0:0:0:
48,176,86730,1,0,0:0:0:0:
96,144,86810,1,0,0:0:0:0:
144,144,86890,1,0,0:0:0:0:
192,160,86970,1,0,0:0:0:0:
224,208,87050,1,0,0:0:0:0:
240,256,87131,1,0,0:0:0:0:
272,304,87211,1,0,0:0:0:0:
320,320,87291,1,0,0:0:0:0:
368,304,87371,1,0,0:0:0:0:
416,272,87452,1,0,0:0:0:0:
416,224,87532,1,0,0:0:0:0:
400,160,87612,1,0,0:0:0:0:
352,128,87692,1,0,0:0:0:0:
304,112,87772,1,0,0:0:0:0:
256,112,87853,1,0,0:0:0:0:
208,144,87933,1,0,0:0:0:0:
176,192,88013,1,0,0:0:0:0:
176,256,88093,1,0,0:0:0:0:
208,304,88173,1,0,0:0:0:0:
256,336,88254,1,0,0:0:0:0:
320,336,88334,1,0,0:0:0:0:
368,304,88414,1,0,0:0:0:0:
384,256,88494,1,0,0:0:0:0:
384,208,88574,1,0,0:0:0:0:
368,160,88655,1,0,0:0:0:0:
320,144,88735,1,0,0:0:0:0:
272,160,88815,1,0,0:0:0:0:
240,208,88895,1,0,0:0:0:0:
256,240,88975,1,0,0:0:0:0:
304,272,89056,1,0,0:0:0:0:
336,240,89136,1,0,0:0:0:0:
336,192,89216,1,0,0:0:0:0:
288,192,89296,1,0,0:0:0:0:
288,208,89376,1,0,0:0:0:0:
288,208,89457,1,0,0:0:0:0:
288,208,89537,1,0,0:0:0:0:
288,208,89617,1,0,0:0:0:0:
96,96,89777,5,0,0:0:0:0:
96,256,89938,1,0,0:0:0:0:
160,32,90098,1,0,0:0:0:0:
160,336,90259,1,0,0:0:0:0:
320,32,90419,1,0,0:0:0:0:
320,336,90580,1,0,0:0:0:0:
384,96,90740,1,0,0:0:0:0:
384,256,90900,1,0,0:0:0:0:
112,176,91061,6,0,L|176:144,1,70
96,304,91382,5,0,0:0:0:0:
96,32,91542,1,0,0:0:0:0:
416,32,91702,1,0,0:0:0:0:
416,304,91863,1,0,0:0:0:0:
256,288,92023,5,0,0:0:0:0:
128,160,92184,1,0,0:0:0:0:
256,48,92344,1,0,0:0:0:0:
384,160,92504,1,0,0:0:0:0:
48,192,92665,5,0,0:0:0:0:
80,272,92745,1,0,0:0:0:0:
144,336,92825,1,0,0:0:0:0:
224,352,92905,1,0,0:0:0:0:
304,336,92986,1,0,0:0:0:0:
368,288,93066,1,0,0:0:0:0:
416,224,93146,1,0,0:0:0:0:
432,144,93226,1,0,0:0:0:0:
432,144,93307,2,0,P|416:64|352:48,1,140
144,272,93788,5,0,0:0:0:0:
144,128,93948,1,0,0:0:0:0:
320,128,94109,1,0,0:0:0:0:
320,272,94269,1,0,0:0:0:0:
80,240,94429,5,0,0:0:0:0:
80,176,94590,1,0,0:0:0:0:
384,176,94750,1,0,0:0:0:0:
384,240,94911,1,0,0:0:0:0:
64,48,95071,6,0,P|176:48|208:80,1,140
144,16,95552,2,0,B|336:64|160:176|336:80,1,245
384,112,96274,5,0,0:0:0:0:
464,272,96435,1,0,0:0:0:0:
432,320,96515,1,0,0:0:0:0:
384,304,96595,1,0,0:0:0:0:
160,160,96755,5,0,0:0:0:0:
80,320,96916,1,0,0:0:0:0:
112,368,96996,1,0,0:0:0:0:
160,336,97076,1,0,0:0:0:0:
256,368,97237,6,0,L|256:288,1,70
256,288,97477,1,0,0:0:0:0:
208,256,97557,1,0,0:0:0:0:
160,224,97638,1,0,0:0:0:0:
112,192,97718,1,0,0:0:0:0:
176,176,97798,1,0,0:0:0:0:
128,144,97878,1,0,0:0:0:0:
80,112,97958,1,0,0:0:0:0:
32,80,98039,1,0,0:0:0:0:
80,80,98119,1,0,0:0:0:0:
128,64,98199,1,0,0:0:0:0:
176,80,98279,1,0,0:0:0:0:
208,128,98359,1,0,0:0:0:0:
224,176,98440,1,0,0:0:0:0:
208,224,98520,1,0,0:0:0:0:
192,272,98600,1,0,0:0:0:0:
176,320,98680,1,0,0:0:0:0:
192,352,98761,1,0,0:0:0:0:
224,384,98921,1,0,0:0:0:0:
256,384,99001,1,0,0:0:0:0:
304,352,99081,1,0,0:0:0:0:
320,304,99162,1,0,0:0:0:0:
336,272,99242,1,0,0:0:0:0:
352,240,99322,1,0,0:0:0:0:
352,224,99402,1,0,0:0:0:0:
352,224,99482,1,0,0:0:0:0:
352,224,99563,1,0,0:0:0:0:
352,224,99643,1,0,0:0:0:0:
352,192,99723,1,0,0:0:0:0:
352,160,99803,1,0,0:0:0:0:
336,112,99883,1,0,0:0:0:0:
304,80,99964,1,0,0:0:0:0:
256,48,100044,1,0,0:0:0:0:
208,64,100124,1,0,0:0:0:0:
144,192,100445,5,0,0:0:0:0:
336,192,100605,1,0,0:0:0:0:
144,288,100846,6,0,L|192:256,1,35
256,64,101006,2,0,L|256:128,1,35
336,288,101167,2,0,L|304:256,1,35
112,128,101407,6,0,L|144:160,1,35
368,128,101568,2,0,L|320:176,1,35
256,192,101969,5,0,0:0:0:0:
256,192,102209,12,0,105899,0:0:0:0:
