osu file format v14

[General]
AudioFilename: Sakura Mirage.mp3
AudioLeadIn: 0
PreviewTime: 81342
Countdown: 1
SampleSet: Normal
StackLeniency: 0.7
Mode: 1
LetterboxInBreaks: 1
WidescreenStoryboard: 0

[Editor]
DistanceSpacing: 1
BeatDivisor: 4
GridSize: 4
TimelineZoom: 2

[Metadata]
Title:Sakura Mirage
TitleUnicode:Sakura Mirage
Artist:Ryu*
ArtistUnicode:Ryu☆
Creator:LunaticP
Version:Taiko Eclipse
Source:
Tags:
BeatmapID:655145
BeatmapSetID:290872

[Difficulty]
HPDrainRate:6
CircleSize:5
OverallDifficulty:6
ApproachRate:5
SliderMultiplier:1.4
SliderTickRate:1

[Events]
//Background and Video events
0,0,"42949235.jpg",0,100
//Break Periods
//Storyboard Layer 0 (Background)
//Storyboard Layer 1 (Fail)
//Storyboard Layer 2 (Pass)
//Storyboard Layer 3 (Foreground)
//Storyboard Sound Samples

[TimingPoints]
1770,320.855614973262,4,1,0,100,1,0
53106,-50,4,1,0,100,0,0
56957,-100,4,1,0,100,0,0
81342,-90.9090909090909,4,1,0,100,0,1
101876,-100,4,1,0,100,0,0

[HitObjects]
128,220,1770,5,4,0:0:0:0:
128,220,1930,1,0,0:0:0:0:
128,220,2010,1,0,0:0:0:0:
128,220,2090,1,8,0:0:0:0:
292,204,2171,1,0,0:0:0:0:
292,204,2251,1,0,0:0:0:0:
184,144,2411,1,0,0:0:0:0:
184,144,2491,1,0,0:0:0:0:
280,116,2572,1,8,0:0:0:0:
184,144,2732,1,0,0:0:0:0:
328,168,2812,1,0,0:0:0:0:
184,144,2892,1,8,0:0:0:0:
200,248,3053,1,8,0:0:0:0:
200,248,3133,1,8,0:0:0:0:
200,248,3213,1,0,0:0:0:0:
200,248,3294,1,0,0:0:0:0:
200,248,3374,1,8,0:0:0:0:
200,248,3534,1,0,0:0:0:0:
452,240,3614,1,0,0:0:0:0:
452,240,3695,1,8,0:0:0:0:
136,272,3855,1,8,0:0:0:0:
136,272,3935,1,0,0:0:0:0:
136,272,4015,1,0,0:0:0:0:
136,272,4096,1,0,0:0:0:0:
136,272,4176,1,8,0:0:0:0:
248,160,4336,1,0,0:0:0:0:
248,192,4417,1,0,0:0:0:0:
248,192,4497,1,0,0:0:0:0:
248,192,4577,1,0,0:0:0:0:
248,192,4657,1,8,0:0:0:0:
248,192,4737,1,8,0:0:0:0:
248,192,4818,1,0,0:0:0:0:
248,192,4978,1,8,0:0:0:0:
248,192,5058,1,0,0:0:0:0:
248,192,5138,1,8,0:0:0:0:
248,192,5219,1,8,0:0:0:0:
248,192,5299,1,0,0:0:0:0:
292,304,5459,1,0,0:0:0:0:
408,232,5620,1,8,0:0:0:0:
408,232,5700,1,8,0:0:0:0:
160,220,5780,1,0,0:0:0:0:
160,220,5860,1,0,0:0:0:0:
160,220,5941,1,8,0:0:0:0:
160,220,6021,1,8,0:0:0:0:
160,220,6101,1,0,0:0:0:0:
160,220,6181,1,0,0:0:0:0:
352,160,6261,1,8,0:0:0:0:
352,160,6342,1,8,0:0:0:0:
352,160,6422,1,8,0:0:0:0:
352,160,6502,1,0,0:0:0:0:
352,160,6582,1,8,0:0:0:0:
352,160,6663,1,8,0:0:0:0:
352,160,6743,1,8,0:0:0:0:
352,160,6823,1,8,0:0:0:0:
352,160,6903,1,0,0:0:0:0:
304,136,7064,1,0,0:0:0:0:
272,176,7224,1,8,0:0:0:0:
272,176,7304,1,8,0:0:0:0:
272,176,7384,1,0,0:0:0:0:
272,176,7545,1,8,0:0:0:0:
272,176,7625,1,8,0:0:0:0:
272,176,7705,1,0,0:0:0:0:
272,176,7866,1,8,0:0:0:0:
272,176,7946,1,8,0:0:0:0:
272,176,8026,1,0,0:0:0:0:
272,176,8106,1,0,0:0:0:0:
272,176,8187,1,8,0:0:0:0:
176,176,8347,1,0,0:0:0:0:
288,248,8427,1,0,0:0:0:0:
288,248,8507,1,8,0:0:0:0:
288,248,8668,1,8,0:0:0:0:
288,248,8748,1,8,0:0:0:0:
288,248,8828,1,8,0:0:0:0:
288,248,8989,1,8,0:0:0:0:
288,248,9069,1,0,0:0:0:0:
288,248,9149,1,8,0:0:0:0:
288,248,9310,1,0,0:0:0:0:
336,136,9470,1,8,0:0:0:0:
200,260,9630,1,0,0:0:0:0:
200,260,9711,1,0,0:0:0:0:
200,260,9791,1,8,0:0:0:0:
264,144,9951,1,0,0:0:0:0:
264,144,10112,1,0,0:0:0:0:
276,172,10272,1,0,0:0:0:0:
276,172,10352,1,0,0:0:0:0:
276,172,10433,1,8,0:0:0:0:
276,172,10593,1,0,0:0:0:0:
212,224,10753,1,8,0:0:0:0:
212,224,10834,1,8,0:0:0:0:
212,224,10914,1,0,0:0:0:0:
212,224,10994,1,0,0:0:0:0:
212,224,11074,1,8,0:0:0:0:
260,216,11155,1,8,0:0:0:0:
260,216,11235,1,0,0:0:0:0:
260,216,11315,1,0,0:0:0:0:
260,216,11395,1,8,0:0:0:0:
260,216,11475,1,0,0:0:0:0:
260,216,11556,1,8,0:0:0:0:
260,216,11636,1,0,0:0:0:0:
260,216,11716,1,8,0:0:0:0:
316,200,11796,1,8,0:0:0:0:
316,200,11876,1,8,0:0:0:0:
316,200,11957,1,8,0:0:0:0:
316,200,12037,1,0,0:0:0:0:
312,88,12197,1,0,0:0:0:0:
300,268,12358,1,8,0:0:0:0:
260,120,12598,1,0,0:0:0:0:
260,120,12679,1,8,0:0:0:0:
224,96,12839,1,8,0:0:0:0:
224,96,12999,1,0,0:0:0:0:
356,192,13160,1,0,0:0:0:0:
356,192,13240,1,0,0:0:0:0:
356,192,13320,1,8,0:0:0:0:
440,304,13401,1,0,0:0:0:0:
244,252,13481,1,8,0:0:0:0:
224,176,13641,1,8,0:0:0:0:
224,176,13721,1,8,0:0:0:0:
224,176,13802,1,0,0:0:0:0:
184,248,13962,1,8,0:0:0:0:
184,248,14042,1,8,0:0:0:0:
184,248,14122,1,0,0:0:0:0:
184,248,14203,1,0,0:0:0:0:
184,248,14283,1,8,0:0:0:0:
504,188,14443,1,0,0:0:0:0:
324,160,14524,1,0,0:0:0:0:
324,160,14604,1,8,0:0:0:0:
312,116,14764,1,8,0:0:0:0:
312,116,14925,1,8,0:0:0:0:
332,220,15165,1,0,0:0:0:0:
332,220,15245,1,8,0:0:0:0:
368,180,15406,1,0,0:0:0:0:
260,152,15566,1,8,0:0:0:0:
260,152,15647,1,0,0:0:0:0:
260,152,15727,1,8,0:0:0:0:
260,152,15807,1,8,0:0:0:0:
260,152,15887,1,0,0:0:0:0:
260,152,16048,1,8,0:0:0:0:
224,240,16128,1,0,0:0:0:0:
224,240,16208,1,8,0:0:0:0:
224,240,16368,1,0,0:0:0:0:
328,224,16449,1,0,0:0:0:0:
328,224,16529,1,8,0:0:0:0:
328,224,16689,1,0,0:0:0:0:
356,168,16850,1,8,0:0:0:0:
232,124,16930,1,8,0:0:0:0:
448,260,17010,1,0,0:0:0:0:
448,260,17171,1,8,0:0:0:0:
400,80,17331,1,0,0:0:0:0:
284,304,17491,1,8,0:0:0:0:
300,160,17732,1,8,0:0:0:0:
216,180,17812,1,0,0:0:0:0:
216,180,17973,1,8,0:0:0:0:
248,104,18133,1,0,0:0:0:0:
248,104,18294,1,8,0:0:0:0:
296,112,18374,1,0,0:0:0:0:
464,184,18454,1,8,0:0:0:0:
168,268,18614,1,0,0:0:0:0:
308,268,18775,1,8,0:0:0:0:
292,120,18855,1,8,0:0:0:0:
292,120,18935,1,0,0:0:0:0:
292,120,19015,1,0,0:0:0:0:
292,120,19096,1,8,0:0:0:0:
292,120,19256,1,0,0:0:0:0:
240,176,19417,1,8,0:0:0:0:
240,176,19497,1,0,0:0:0:0:
304,100,19577,1,0,0:0:0:0:
304,100,19657,1,0,0:0:0:0:
304,100,19737,1,8,0:0:0:0:
404,104,19898,1,0,0:0:0:0:
404,104,20058,1,8,0:0:0:0:
188,212,20299,1,0,0:0:0:0:
188,212,20379,1,8,0:0:0:0:
188,212,20540,1,0,0:0:0:0:
292,244,20700,1,8,0:0:0:0:
292,244,20780,1,8,0:0:0:0:
292,244,20860,1,0,0:0:0:0:
292,244,21021,1,8,0:0:0:0:
308,168,21181,1,0,0:0:0:0:
348,224,21342,1,12,0:0:0:0:
416,292,21502,1,4,0:0:0:0:
416,292,21663,1,4,0:0:0:0:
416,292,21823,1,12,0:0:0:0:
260,120,21983,1,4,0:0:0:0:
260,120,22144,1,12,0:0:0:0:
260,120,22304,1,12,0:0:0:0:
240,180,22625,1,8,0:0:0:0:
276,232,22946,1,8,0:0:0:0:
276,232,23026,1,8,0:0:0:0:
276,232,23106,1,0,0:0:0:0:
336,248,23187,1,8,0:0:0:0:
336,248,23267,1,0,0:0:0:0:
416,244,23347,1,0,0:0:0:0:
184,260,23427,1,8,0:0:0:0:
184,260,23507,1,8,0:0:0:0:
184,260,23588,1,0,0:0:0:0:
356,208,23748,1,8,0:0:0:0:
356,208,23909,1,8,0:0:0:0:
224,104,23989,1,8,0:0:0:0:
224,104,24069,1,0,0:0:0:0:
224,104,24229,1,8,0:0:0:0:
224,104,24390,1,0,0:0:0:0:
328,248,24550,1,0,0:0:0:0:
328,248,24630,1,0,0:0:0:0:
328,248,24711,1,0,0:0:0:0:
328,248,24791,1,0,0:0:0:0:
328,248,24871,1,8,0:0:0:0:
328,248,25032,1,0,0:0:0:0:
328,248,25192,1,8,0:0:0:0:
280,204,25513,1,8,0:0:0:0:
280,204,25593,1,8,0:0:0:0:
280,204,25673,1,8,0:0:0:0:
280,204,25753,1,0,0:0:0:0:
280,204,25834,1,8,0:0:0:0:
240,180,25914,1,0,0:0:0:0:
240,180,25994,1,8,0:0:0:0:
240,180,26074,1,0,0:0:0:0:
240,180,26155,1,0,0:0:0:0:
356,144,26315,1,0,0:0:0:0:
356,144,26475,1,8,0:0:0:0:
276,128,26556,1,8,0:0:0:0:
276,128,26636,1,0,0:0:0:0:
276,128,26796,1,0,0:0:0:0:
276,128,26957,1,8,0:0:0:0:
204,244,27117,1,0,0:0:0:0:
204,244,27197,1,0,0:0:0:0:
204,244,27278,1,8,0:0:0:0:
204,244,27438,1,4,0:0:0:0:
388,184,27598,1,8,0:0:0:0:
388,184,27759,1,8,0:0:0:0:
268,232,28080,1,8,0:0:0:0:
268,232,28160,1,8,0:0:0:0:
268,232,28240,1,8,0:0:0:0:
268,232,28320,1,8,0:0:0:0:
268,232,28401,1,0,0:0:0:0:
268,232,28481,1,0,0:0:0:0:
268,232,28561,1,8,0:0:0:0:
268,232,28641,1,8,0:0:0:0:
276,188,28721,1,0,0:0:0:0:
428,140,28882,1,8,0:0:0:0:
320,140,29042,1,8,0:0:0:0:
320,140,29122,1,8,0:0:0:0:
320,140,29203,1,0,0:0:0:0:
268,88,29363,1,8,0:0:0:0:
268,88,29524,1,0,0:0:0:0:
272,160,29684,1,0,0:0:0:0:
272,160,29764,1,0,0:0:0:0:
272,160,29844,1,8,0:0:0:0:
272,160,29925,1,0,0:0:0:0:
272,160,30005,1,0,0:0:0:0:
272,160,30165,1,0,0:0:0:0:
272,160,30326,1,8,0:0:0:0:
200,248,30647,1,8,0:0:0:0:
200,248,30727,1,0,0:0:0:0:
200,248,30807,1,8,0:0:0:0:
200,248,30887,1,0,0:0:0:0:
200,248,30967,1,0,0:0:0:0:
200,248,31048,1,8,0:0:0:0:
200,248,31128,1,8,0:0:0:0:
200,248,31208,1,0,0:0:0:0:
200,248,31288,1,8,0:0:0:0:
336,228,31449,1,0,0:0:0:0:
336,228,31609,1,8,0:0:0:0:
504,244,31769,1,0,0:0:0:0:
320,192,31930,1,12,0:0:0:0:
348,168,32090,1,4,0:0:0:0:
348,168,32251,1,4,0:0:0:0:
348,168,32411,1,12,0:0:0:0:
348,168,32572,1,4,0:0:0:0:
256,168,32892,1,0,0:0:0:0:
256,168,33213,1,8,0:0:0:0:
224,248,33374,1,0,0:0:0:0:
224,248,33534,1,0,0:0:0:0:
224,248,33614,1,0,0:0:0:0:
224,248,33695,1,8,0:0:0:0:
224,248,33855,1,0,0:0:0:0:
224,248,33935,1,0,0:0:0:0:
224,248,34015,1,8,0:0:0:0:
240,136,34176,1,0,0:0:0:0:
272,132,34336,1,0,0:0:0:0:
272,132,34497,1,8,0:0:0:0:
272,132,34577,1,8,0:0:0:0:
272,132,34657,1,0,0:0:0:0:
272,132,34818,1,8,0:0:0:0:
272,132,34978,1,0,0:0:0:0:
352,192,35138,1,0,0:0:0:0:
352,192,35219,1,0,0:0:0:0:
352,192,35299,1,8,0:0:0:0:
352,192,35459,1,8,0:0:0:0:
352,192,35620,1,0,0:0:0:0:
380,148,35780,1,0,0:0:0:0:
380,148,35860,1,0,0:0:0:0:
380,148,35941,1,8,0:0:0:0:
380,148,36101,1,0,0:0:0:0:
380,148,36261,1,8,0:0:0:0:
148,192,36422,1,8,0:0:0:0:
380,148,36502,1,0,0:0:0:0:
148,192,36582,1,0,0:0:0:0:
188,136,36743,1,8,0:0:0:0:
188,136,36823,1,8,0:0:0:0:
188,136,36903,1,0,0:0:0:0:
188,136,36983,1,0,0:0:0:0:
188,136,37064,1,8,0:0:0:0:
188,136,37144,1,8,0:0:0:0:
188,136,37224,1,0,0:0:0:0:
436,212,37384,1,0,0:0:0:0:
292,192,37705,1,4,0:0:0:0:
292,192,37866,1,0,0:0:0:0:
292,192,38026,1,8,0:0:0:0:
272,256,38187,1,0,0:0:0:0:
264,184,38347,1,0,0:0:0:0:
264,184,38427,1,0,0:0:0:0:
264,184,38507,1,8,0:0:0:0:
264,184,38668,1,0,0:0:0:0:
264,184,38748,1,0,0:0:0:0:
264,184,38828,1,8,0:0:0:0:
380,308,38989,1,8,0:0:0:0:
380,308,39069,1,8,0:0:0:0:
380,308,39149,1,0,0:0:0:0:
380,308,39229,1,0,0:0:0:0:
380,308,39310,1,8,0:0:0:0:
380,308,39470,1,0,0:0:0:0:
340,236,39630,1,0,0:0:0:0:
340,236,39711,1,0,0:0:0:0:
340,236,39791,1,0,0:0:0:0:
340,236,39871,1,0,0:0:0:0:
340,236,39951,1,8,0:0:0:0:
340,236,40112,1,0,0:0:0:0:
236,256,40272,1,0,0:0:0:0:
236,256,40433,1,0,0:0:0:0:
236,256,40593,1,8,0:0:0:0:
236,256,40753,1,0,0:0:0:0:
320,164,40914,1,0,0:0:0:0:
320,164,41074,1,8,0:0:0:0:
320,164,41235,1,0,0:0:0:0:
320,164,41395,1,8,0:0:0:0:
220,144,41556,1,8,0:0:0:0:
220,144,41636,1,8,0:0:0:0:
220,144,41716,1,0,0:0:0:0:
220,144,41796,1,0,0:0:0:0:
248,200,41876,1,8,0:0:0:0:
248,200,41957,1,8,0:0:0:0:
248,200,42037,1,0,0:0:0:0:
248,200,42117,1,0,0:0:0:0:
248,200,42197,1,8,0:0:0:0:
248,200,42278,1,8,0:0:0:0:
248,200,42358,1,8,0:0:0:0:
248,200,42438,1,0,0:0:0:0:
256,172,42518,1,8,0:0:0:0:
256,172,42598,1,0,0:0:0:0:
256,172,42679,1,0,0:0:0:0:
256,172,42759,1,8,0:0:0:0:
256,172,42839,1,0,0:0:0:0:
460,144,42999,1,8,0:0:0:0:
300,48,43160,1,0,0:0:0:0:
256,260,43240,1,0,0:0:0:0:
256,260,43320,1,8,0:0:0:0:
228,292,43481,1,0,0:0:0:0:
228,292,43641,1,8,0:0:0:0:
228,292,43802,1,0,0:0:0:0:
228,292,43882,1,0,0:0:0:0:
404,240,43962,1,8,0:0:0:0:
348,244,44122,1,8,0:0:0:0:
348,244,44203,1,8,0:0:0:0:
348,244,44283,1,0,0:0:0:0:
328,164,44363,1,8,0:0:0:0:
328,164,44443,1,0,0:0:0:0:
236,184,44604,1,0,0:0:0:0:
236,184,44764,1,8,0:0:0:0:
236,184,44844,1,8,0:0:0:0:
236,184,44925,1,0,0:0:0:0:
432,144,45085,1,8,0:0:0:0:
360,132,45245,1,0,0:0:0:0:
184,152,45406,1,0,0:0:0:0:
192,144,45486,1,0,0:0:0:0:
192,144,45566,1,8,0:0:0:0:
252,84,45727,1,8,0:0:0:0:
252,84,45807,1,8,0:0:0:0:
252,84,45887,1,0,0:0:0:0:
252,84,46048,1,0,0:0:0:0:
252,84,46208,1,8,0:0:0:0:
336,212,46368,1,0,0:0:0:0:
336,212,46529,1,0,0:0:0:0:
204,204,46689,1,8,0:0:0:0:
204,204,46769,1,8,0:0:0:0:
228,264,46850,1,0,0:0:0:0:
228,264,46930,1,0,0:0:0:0:
228,264,47010,1,8,0:0:0:0:
228,264,47090,1,8,0:0:0:0:
228,264,47171,1,0,0:0:0:0:
228,264,47251,1,0,0:0:0:0:
252,184,47331,1,0,0:0:0:0:
252,184,47411,1,8,0:0:0:0:
252,184,47491,1,0,0:0:0:0:
252,184,47572,1,0,0:0:0:0:
324,136,47652,1,8,0:0:0:0:
324,136,47732,1,0,0:0:0:0:
324,136,47812,1,8,0:0:0:0:
352,192,47973,1,4,0:0:0:0:
348,120,48133,1,8,0:0:0:0:
280,112,48294,1,8,0:0:0:0:
280,112,48374,1,8,0:0:0:0:
280,112,48454,1,0,0:0:0:0:
280,112,48534,1,8,0:0:0:0:
280,112,48614,1,0,0:0:0:0:
344,232,48775,1,8,0:0:0:0:
268,292,48935,1,8,0:0:0:0:
268,292,49015,1,0,0:0:0:0:
268,292,49096,1,8,0:0:0:0:
268,292,49176,1,0,0:0:0:0:
268,292,49256,1,8,0:0:0:0:
268,292,49417,1,0,0:0:0:0:
224,196,49577,1,0,0:0:0:0:
224,196,49657,1,0,0:0:0:0:
224,196,49737,1,8,0:0:0:0:
292,184,49898,1,8,0:0:0:0:
292,184,49978,1,0,0:0:0:0:
292,184,50058,1,8,0:0:0:0:
364,104,50219,1,8,0:0:0:0:
364,104,50299,1,8,0:0:0:0:
364,104,50379,1,0,0:0:0:0:
364,104,50540,1,0,0:0:0:0:
292,228,50700,1,0,0:0:0:0:
292,228,50780,1,0,0:0:0:0:
292,228,50860,1,8,0:0:0:0:
356,200,51021,1,0,0:0:0:0:
356,200,51101,1,0,0:0:0:0:
356,200,51181,1,8,0:0:0:0:
252,156,51342,1,0,0:0:0:0:
252,156,51422,1,8,0:0:0:0:
252,156,51502,1,8,0:0:0:0:
252,156,51663,1,0,0:0:0:0:
132,256,51823,1,8,0:0:0:0:
132,256,51903,1,8,0:0:0:0:
132,256,51983,1,0,0:0:0:0:
132,256,52064,1,0,0:0:0:0:
132,256,52144,1,8,0:0:0:0:
132,256,52224,1,8,0:0:0:0:
132,256,52304,1,8,0:0:0:0:
132,256,52384,1,0,0:0:0:0:
272,272,52465,1,8,0:0:0:0:
272,272,52545,1,0,0:0:0:0:
272,272,52625,1,8,0:0:0:0:
272,272,52705,1,0,0:0:0:0:
272,272,52786,1,8,0:0:0:0:
272,272,52866,1,8,0:0:0:0:
340,128,52946,1,0,0:0:0:0:
208,196,53106,2,0,L|488:172|488:172,8,280
428,232,57117,1,0,0:0:0:0:
428,232,57438,1,0,0:0:0:0:
304,180,57759,1,0,0:0:0:0:
304,180,57919,1,8,0:0:0:0:
276,240,58240,1,4,0:0:0:0:
252,124,58721,1,0,0:0:0:0:
252,124,58882,1,0,0:0:0:0:
328,120,59203,1,8,0:0:0:0:
192,248,59524,1,8,0:0:0:0:
192,248,59604,1,8,0:0:0:0:
192,248,59684,1,8,0:0:0:0:
192,248,59764,1,0,0:0:0:0:
192,248,59844,1,8,0:0:0:0:
192,248,59925,1,8,0:0:0:0:
192,248,60005,1,0,0:0:0:0:
192,248,60085,1,0,0:0:0:0:
192,248,60165,1,0,0:0:0:0:
192,248,60245,1,8,0:0:0:0:
192,248,60326,1,0,0:0:0:0:
192,248,60406,1,8,0:0:0:0:
192,248,60486,1,8,0:0:0:0:
192,248,60566,1,0,0:0:0:0:
192,248,60647,1,0,0:0:0:0:
192,248,60727,1,8,0:0:0:0:
192,248,60807,1,0,0:0:0:0:
320,200,61288,1,0,0:0:0:0:
320,200,61449,1,0,0:0:0:0:
320,200,61769,1,8,0:0:0:0:
212,164,62090,1,8,0:0:0:0:
212,164,62171,1,0,0:0:0:0:
212,164,62251,1,8,0:0:0:0:
212,164,62331,1,8,0:0:0:0:
212,164,62411,1,0,0:0:0:0:
212,164,62491,1,8,0:0:0:0:
212,164,62572,1,8,0:0:0:0:
400,192,62652,1,0,0:0:0:0:
400,192,62732,1,8,0:0:0:0:
400,192,62812,1,0,0:0:0:0:
400,192,62892,1,8,0:0:0:0:
400,192,62973,1,0,0:0:0:0:
400,192,63053,1,0,0:0:0:0:
400,192,63133,1,0,0:0:0:0:
400,192,63213,1,8,0:0:0:0:
400,192,63294,1,0,0:0:0:0:
400,192,63374,1,0,0:0:0:0:
408,112,63855,1,0,0:0:0:0:
408,112,64015,1,0,0:0:0:0:
408,112,64336,1,8,0:0:0:0:
232,216,64657,1,8,0:0:0:0:
232,216,64737,1,0,0:0:0:0:
232,216,64818,1,0,0:0:0:0:
232,216,64898,1,0,0:0:0:0:
232,216,64978,1,8,0:0:0:0:
232,216,65058,1,8,0:0:0:0:
232,216,65138,1,0,0:0:0:0:
232,216,65219,1,0,0:0:0:0:
232,216,65299,1,8,0:0:0:0:
232,216,65379,1,8,0:0:0:0:
232,216,65459,1,8,0:0:0:0:
232,216,65540,1,0,0:0:0:0:
288,104,65620,1,8,0:0:0:0:
288,104,65941,1,8,0:0:0:0:
248,136,66021,1,8,0:0:0:0:
248,136,66101,1,8,0:0:0:0:
248,136,66181,1,0,0:0:0:0:
332,184,66261,1,0,0:0:0:0:
332,184,66342,1,8,0:0:0:0:
332,184,66422,1,0,0:0:0:0:
332,184,66502,1,0,0:0:0:0:
332,184,66582,1,8,0:0:0:0:
332,184,66663,1,8,0:0:0:0:
332,184,66743,1,8,0:0:0:0:
332,184,66823,1,0,0:0:0:0:
332,184,66903,1,8,0:0:0:0:
368,132,67224,1,0,0:0:0:0:
368,132,67304,1,0,0:0:0:0:
368,132,67384,1,8,0:0:0:0:
368,132,67545,1,0,0:0:0:0:
368,132,67625,1,0,0:0:0:0:
368,132,67705,1,8,0:0:0:0:
368,132,67866,1,0,0:0:0:0:
368,132,67946,1,0,0:0:0:0:
368,132,68026,1,8,0:0:0:0:
368,132,68187,1,0,0:0:0:0:
368,132,68267,1,0,0:0:0:0:
368,132,68347,1,8,0:0:0:0:
224,128,68507,1,8,0:0:0:0:
224,128,68588,1,8,0:0:0:0:
224,128,68668,1,0,0:0:0:0:
224,128,68748,1,8,0:0:0:0:
224,128,68828,1,8,0:0:0:0:
224,128,68909,1,8,0:0:0:0:
224,128,68989,1,0,0:0:0:0:
224,128,69069,1,0,0:0:0:0:
224,128,69149,1,0,0:0:0:0:
224,128,69229,1,8,0:0:0:0:
224,128,69310,1,0,0:0:0:0:
224,128,69390,1,8,0:0:0:0:
224,128,69470,1,8,0:0:0:0:
312,184,69550,1,0,0:0:0:0:
312,184,69630,1,8,0:0:0:0:
296,116,69791,1,4,0:0:0:0:
220,220,70112,1,8,0:0:0:0:
300,196,70433,1,8,0:0:0:0:
300,196,70593,1,0,0:0:0:0:
300,196,70753,1,8,0:0:0:0:
448,156,70914,1,0,0:0:0:0:
240,176,71074,1,0,0:0:0:0:
240,176,71235,1,0,0:0:0:0:
240,176,71395,1,8,0:0:0:0:
240,176,71556,1,0,0:0:0:0:
316,80,71716,1,0,0:0:0:0:
324,264,72037,1,0,0:0:0:0:
324,264,72197,1,0,0:0:0:0:
324,264,72358,1,8,0:0:0:0:
372,168,72679,1,8,0:0:0:0:
264,112,72999,1,8,0:0:0:0:
264,112,73160,1,0,0:0:0:0:
264,112,73320,1,0,0:0:0:0:
264,112,73481,1,8,0:0:0:0:
240,168,73641,1,0,0:0:0:0:
240,168,73802,1,0,0:0:0:0:
240,168,73962,1,8,0:0:0:0:
240,168,74122,1,0,0:0:0:0:
240,168,74283,1,0,0:0:0:0:
360,128,74604,1,0,0:0:0:0:
360,128,74764,1,0,0:0:0:0:
360,128,74925,1,8,0:0:0:0:
372,272,75085,1,0,0:0:0:0:
372,272,75245,1,0,0:0:0:0:
372,272,75406,1,0,0:0:0:0:
212,216,75566,1,8,0:0:0:0:
288,168,75727,1,0,0:0:0:0:
288,168,75807,1,0,0:0:0:0:
284,164,75887,1,0,0:0:0:0:
344,232,75967,1,0,0:0:0:0:
284,164,76048,1,0,0:0:0:0:
284,164,76208,1,8,0:0:0:0:
304,152,76368,1,0,0:0:0:0:
304,152,76449,1,0,0:0:0:0:
304,152,76529,1,0,0:0:0:0:
304,152,76609,1,0,0:0:0:0:
304,152,76689,1,0,0:0:0:0:
304,152,76850,1,8,0:0:0:0:
464,188,77010,1,0,0:0:0:0:
464,188,77090,1,0,0:0:0:0:
464,188,77171,1,0,0:0:0:0:
464,188,77251,1,0,0:0:0:0:
464,188,77331,1,0,0:0:0:0:
464,188,77491,1,8,0:0:0:0:
296,196,77652,1,0,0:0:0:0:
296,196,77732,1,0,0:0:0:0:
296,196,77812,1,8,0:0:0:0:
296,196,77973,1,0,0:0:0:0:
296,196,78053,1,0,0:0:0:0:
296,196,78133,1,8,0:0:0:0:
368,136,78294,1,0,0:0:0:0:
368,136,78374,1,0,0:0:0:0:
368,136,78454,1,8,0:0:0:0:
368,136,78534,1,0,0:0:0:0:
368,136,78614,1,8,0:0:0:0:
368,136,78775,1,0,0:0:0:0:
348,188,78935,1,0,0:0:0:0:
348,188,79096,1,8,0:0:0:0:
348,188,79256,1,0,0:0:0:0:
348,188,79417,1,0,0:0:0:0:
208,164,81342,1,12,0:0:0:0:
208,164,81502,1,12,0:0:0:0:
208,164,81663,1,12,0:0:0:0:
348,140,81823,1,0,0:0:0:0:
348,140,81903,1,0,0:0:0:0:
348,140,81983,1,8,0:0:0:0:
348,140,82144,1,0,0:0:0:0:
264,232,82304,1,0,0:0:0:0:
264,232,82384,1,8,0:0:0:0:
264,232,82465,1,8,0:0:0:0:
264,232,82545,1,8,0:0:0:0:
264,232,82625,1,0,0:0:0:0:
264,232,82786,1,0,0:0:0:0:
380,192,82866,1,0,0:0:0:0:
380,192,82946,1,8,0:0:0:0:
380,192,83106,1,0,0:0:0:0:
380,192,83267,1,0,0:0:0:0:
268,64,83347,1,0,0:0:0:0:
348,128,83427,1,0,0:0:0:0:
348,128,83588,1,8,0:0:0:0:
348,128,83668,1,0,0:0:0:0:
452,160,83748,1,8,0:0:0:0:
452,160,83828,1,0,0:0:0:0:
452,160,83909,1,8,0:0:0:0:
440,112,84069,1,0,0:0:0:0:
440,112,84229,1,8,0:0:0:0:
196,168,84390,1,0,0:0:0:0:
196,168,84470,1,0,0:0:0:0:
196,168,84550,1,8,0:0:0:0:
324,208,84711,1,0,0:0:0:0:
324,208,84871,1,8,0:0:0:0:
324,208,85032,1,0,0:0:0:0:
400,328,85192,1,0,0:0:0:0:
400,328,85272,1,0,0:0:0:0:
400,328,85352,1,0,0:0:0:0:
400,328,85433,1,0,0:0:0:0:
400,328,85513,1,8,0:0:0:0:
400,328,85593,1,8,0:0:0:0:
400,328,85673,1,0,0:0:0:0:
320,100,85834,1,0,0:0:0:0:
324,104,85994,1,0,0:0:0:0:
324,104,86074,1,0,0:0:0:0:
324,104,86155,1,8,0:0:0:0:
416,200,86235,1,0,0:0:0:0:
416,200,86315,1,0,0:0:0:0:
264,160,86475,1,12,0:0:0:0:
264,160,86636,1,0,0:0:0:0:
272,200,86716,1,0,0:0:0:0:
272,200,86796,1,8,0:0:0:0:
272,200,86957,1,0,0:0:0:0:
360,148,87117,1,8,0:0:0:0:
320,172,87278,1,0,0:0:0:0:
284,200,87438,1,0,0:0:0:0:
284,200,87518,1,8,0:0:0:0:
284,200,87598,1,0,0:0:0:0:
284,200,87679,1,0,0:0:0:0:
284,200,87759,1,8,0:0:0:0:
284,200,87919,1,0,0:0:0:0:
448,212,87999,1,0,0:0:0:0:
284,200,88080,1,8,0:0:0:0:
284,200,88240,1,0,0:0:0:0:
284,200,88401,1,0,0:0:0:0:
448,212,88481,1,8,0:0:0:0:
448,212,88561,1,0,0:0:0:0:
428,104,88721,1,8,0:0:0:0:
428,104,88802,1,0,0:0:0:0:
428,104,88882,1,0,0:0:0:0:
428,104,88962,1,0,0:0:0:0:
428,104,89042,1,8,0:0:0:0:
440,128,89203,1,0,0:0:0:0:
440,128,89363,1,8,0:0:0:0:
228,224,89524,1,0,0:0:0:0:
228,224,89604,1,0,0:0:0:0:
228,224,89684,1,8,0:0:0:0:
228,224,89844,1,0,0:0:0:0:
388,208,90005,1,0,0:0:0:0:
388,208,90085,1,0,0:0:0:0:
388,208,90165,1,0,0:0:0:0:
340,120,90326,1,8,0:0:0:0:
388,208,90406,1,0,0:0:0:0:
340,120,90486,1,0,0:0:0:0:
340,120,90647,1,8,0:0:0:0:
340,124,90807,1,0,0:0:0:0:
400,224,90887,1,0,0:0:0:0:
400,224,90967,1,0,0:0:0:0:
320,208,91128,1,0,0:0:0:0:
320,208,91288,1,8,0:0:0:0:
412,156,91609,1,12,0:0:0:0:
412,156,91770,1,12,0:0:0:0:
412,160,91930,1,12,0:0:0:0:
236,152,92090,1,0,0:0:0:0:
236,152,92171,1,0,0:0:0:0:
236,152,92251,1,8,0:0:0:0:
360,216,92411,1,0,0:0:0:0:
296,232,92572,1,0,0:0:0:0:
296,232,92652,1,0,0:0:0:0:
296,232,92732,1,8,0:0:0:0:
296,232,92812,1,0,0:0:0:0:
296,232,92892,1,8,0:0:0:0:
296,232,93053,1,8,0:0:0:0:
272,152,93133,1,8,0:0:0:0:
272,152,93213,1,0,0:0:0:0:
272,152,93374,1,8,0:0:0:0:
272,152,93454,1,8,0:0:0:0:
272,152,93534,1,0,0:0:0:0:
388,160,93695,1,8,0:0:0:0:
388,160,93775,1,8,0:0:0:0:
388,160,93855,1,0,0:0:0:0:
388,160,93935,1,8,0:0:0:0:
388,160,94015,1,8,0:0:0:0:
388,160,94096,1,8,0:0:0:0:
388,160,94176,1,0,0:0:0:0:
240,196,94336,1,0,0:0:0:0:
240,196,94497,1,8,0:0:0:0:
136,152,94657,1,0,0:0:0:0:
136,152,94737,1,0,0:0:0:0:
136,152,94818,1,8,0:0:0:0:
136,152,94978,1,0,0:0:0:0:
352,260,95138,1,0,0:0:0:0:
352,260,95299,1,8,0:0:0:0:
200,248,95459,1,0,0:0:0:0:
200,248,95540,1,0,0:0:0:0:
200,248,95620,1,8,0:0:0:0:
468,112,95700,1,8,0:0:0:0:
200,248,95780,1,0,0:0:0:0:
200,248,95941,1,0,0:0:0:0:
328,112,96021,1,0,0:0:0:0:
328,112,96101,1,8,0:0:0:0:
328,112,96261,1,0,0:0:0:0:
328,112,96422,1,8,0:0:0:0:
308,248,96582,1,0,0:0:0:0:
308,248,96663,1,0,0:0:0:0:
308,248,96743,1,8,0:0:0:0:
280,88,96903,1,8,0:0:0:0:
280,88,97064,1,0,0:0:0:0:
176,152,97224,1,0,0:0:0:0:
176,152,97304,1,0,0:0:0:0:
176,152,97384,1,8,0:0:0:0:
176,152,97545,1,0,0:0:0:0:
348,200,97705,1,0,0:0:0:0:
348,200,97786,1,8,0:0:0:0:
348,200,97866,1,0,0:0:0:0:
348,200,97946,1,0,0:0:0:0:
348,200,98026,1,8,0:0:0:0:
232,232,98187,1,0,0:0:0:0:
232,200,98347,1,8,0:0:0:0:
232,200,98427,1,8,0:0:0:0:
232,200,98507,1,0,0:0:0:0:
232,200,98588,1,8,0:0:0:0:
232,200,98668,1,0,0:0:0:0:
420,104,98828,1,0,0:0:0:0:
312,112,98989,1,8,0:0:0:0:
312,112,99149,1,0,0:0:0:0:
312,112,99229,1,0,0:0:0:0:
312,112,99310,1,8,0:0:0:0:
400,164,99470,1,0,0:0:0:0:
400,164,99630,1,8,0:0:0:0:
400,164,99791,1,0,0:0:0:0:
312,120,99871,1,0,0:0:0:0:
312,120,99951,1,8,0:0:0:0:
312,120,100112,1,0,0:0:0:0:
332,168,100272,1,0,0:0:0:0:
332,168,100352,1,0,0:0:0:0:
332,168,100433,1,0,0:0:0:0:
332,168,100513,1,0,0:0:0:0:
332,168,100593,1,8,0:0:0:0:
344,92,100753,1,0,0:0:0:0:
352,84,100914,1,12,0:0:0:0:
352,84,101074,1,4,0:0:0:0:
352,84,101235,1,4,0:0:0:0:
484,104,101556,1,0,0:0:0:0:
256,192,101876,12,0,104443,0:0:0:0:
