osu file format v13

[General]
AudioFilename: Ryu-Sakura Mirage (www.myfreemp3.cc).mp3
AudioLeadIn: 0
PreviewTime: 81388
Countdown: 0
SampleSet: Soft
StackLeniency: 0.5
Mode: 0
LetterboxInBreaks: 1
WidescreenStoryboard: 0

[Editor]
DistanceSpacing: 1
BeatDivisor: 4
GridSize: 4
TimelineZoom: 1.1

[Metadata]
Title:Sakura Mirage
TitleUnicode:Sakura Mirage
Artist:Ryu*
ArtistUnicode:Ryu*
Creator:Kirin
Version:Hyper
Source:REFLECT BEAT groovin!!
Tags:
BeatmapID:488182
BeatmapSetID:202538

[Difficulty]
HPDrainRate:5
CircleSize:4
OverallDifficulty:4
ApproachRate:7
SliderMultiplier:1.6
SliderTickRate:1

[Events]
//Background and Video events
0,0,"brunettes_cherry_blossoms_katana_brown_eyes_kimono_torii_flower_petals_japanese_clothes_anime_girls_Wallpaper_1280x1024_www.wall321.com.jpg",0,0
//Break Periods
//Storyboard Layer 0 (Background)
//Storyboard Layer 1 (Fail)
//Storyboard Layer 2 (Pass)
//Storyboard Layer 3 (Foreground)
//Storyboard Sound Samples

[TimingPoints]
1816,320.855614973262,4,2,0,70,1,0
22350,-100,4,2,0,70,0,1
32618,-100,4,2,0,70,0,0
81388,-100,4,2,0,70,0,1
101922,-100,4,2,0,70,0,0
104489,-100,4,2,0,5,0,0

[Colours]
Combo1 : 128,0,128
Combo2 : 255,128,192
Combo3 : 255,128,255
Combo4 : 128,128,255

[HitObjects]
64,196,1816,6,0,P|80:252|192:272,1,160
148,204,2297,1,0,0:0:0:0:
228,212,2457,1,0,0:0:0:0:
276,148,2618,2,0,P|304:104|336:92,1,80
356,168,2938,1,0,0:0:0:0:
408,228,3099,2,0,P|392:312|312:332,1,160
104,228,3741,2,0,P|120:312|200:332,1,160
180,256,4222,5,0,0:0:0:0:
176,176,4382,1,0,0:0:0:0:
104,144,4543,1,0,0:0:0:0:
80,68,4703,1,0,0:0:0:0:
160,68,4864,2,0,B|200:64|200:64|248:72,1,80
336,144,5184,2,0,B|296:148|296:148|248:140,1,80
256,220,5505,1,0,0:0:0:0:
324,264,5666,6,0,L|368:300,2,40,0|0|0,0:0|0:0|0:0,0:0:0:0:
252,300,5987,2,0,L|252:348,2,40,0|0|0,0:0|0:0|0:0,0:0:0:0:
184,260,6307,2,0,L|144:284,2,40,0|0|0,0:0|0:0|0:0,0:0:0:0:
184,180,6628,2,0,L|136:152,2,40,0|0|0,0:0|0:0|0:0,0:0:0:0:
212,104,6949,2,0,P|248:80|364:120,1,160
284,152,7430,5,0,0:0:0:0:
348,200,7591,2,0,B|384:224|384:224|400:264,1,80
372,336,7912,2,0,B|336:312|336:312|320:272,1,80
244,284,8233,1,0,0:0:0:0:
168,304,8393,1,0,0:0:0:0:
92,324,8553,2,0,B|52:308|52:308|52:264,1,80
112,216,8874,1,0,0:0:0:0:
188,188,9035,1,0,0:0:0:0:
260,152,9195,2,0,B|260:108|260:108|232:84,1,80
152,84,9516,6,0,P|188:20|280:24,1,160
420,88,10158,2,0,B|408:172|408:172|448:200|424:268,1,160
256,192,10799,12,0,12083,0:0:0:0:
192,108,12404,6,0,P|156:76|120:64,1,80
116,144,12725,2,0,P|152:176|188:188,1,80
216,260,13045,2,0,P|216:308|244:348,1,80
304,300,13366,1,0,0:0:0:0:
460,264,13687,1,0,0:0:0:0:
424,192,13848,1,0,0:0:0:0:
464,124,14008,1,0,0:0:0:0:
424,56,14168,1,0,0:0:0:0:
368,112,14329,6,0,P|320:124|280:104,1,80
244,52,14650,2,0,P|216:120|264:184,1,160
400,268,15291,2,0,P|356:320|256:328,1,160
136,304,15933,2,0,B|104:280|104:280|88:240,1,80
120,168,16254,2,0,B|152:192|152:192|168:232,1,80
220,152,16575,2,0,B|188:128|188:128|172:88,1,80
240,48,16896,1,0,0:0:0:0:
292,108,17056,1,0,0:0:0:0:
372,96,17217,6,0,P|420:136|408:228,1,160
361,321,17858,2,0,B|332:256|332:256|248:228,1,160
124,328,18500,1,0,0:0:0:0:
76,264,18660,1,0,0:0:0:0:
112,192,18821,2,0,L|60:116,1,80
168,132,19142,2,0,L|216:208,2,80,0|0|0,0:0|0:0|0:0,0:0:0:0:
208,64,19623,5,0,0:0:0:0:
208,64,19783,2,0,P|268:48|392:80,1,160
404,220,20425,2,0,P|336:192|288:112,1,160
256,192,21067,12,0,22350,0:0:0:0:
256,96,22671,6,0,P|192:104|160:192,1,160
256,288,23313,2,0,P|320:280|352:192,1,160
400,132,23794,1,0,0:0:0:0:
436,204,23955,1,0,0:0:0:0:
424,284,24115,1,0,0:0:0:0:
364,336,24275,1,0,0:0:0:0:
288,364,24436,2,0,B|244:368|244:368|192:364,1,80
168,296,24757,5,0,0:0:0:0:
144,220,24917,1,0,0:0:0:0:
80,268,25078,1,0,0:0:0:0:
60,192,25238,2,0,P|60:128|144:76,1,160
132,76,25639,1,0,0:0:0:0:
132,76,25719,1,0,0:0:0:0:
208,100,25880,2,0,P|240:112|288:96,1,80
344,44,26201,5,0,0:0:0:0:
408,192,26521,1,0,0:0:0:0:
328,332,26842,1,0,0:0:0:0:
168,340,27163,1,0,0:0:0:0:
244,200,27484,2,0,L|160:196,1,80
88,176,27805,5,0,0:0:0:0:
60,100,27965,1,0,0:0:0:0:
116,44,28126,2,0,L|160:40,2,40,0|0|0,0:0|0:0|0:0,0:0:0:0:
196,48,28447,2,0,P|240:72|284:64,1,80
344,44,28767,2,0,P|404:48|428:144,1,160
368,180,29249,1,0,0:0:0:0:
292,208,29409,2,0,P|307:281|381:296,1,160
464,292,29890,5,0,0:0:0:0:
476,212,30051,1,0,0:0:0:0:
484,132,30211,1,0,0:0:0:0:
468,52,30372,2,0,P|384:92|164:52,1,320
32,136,31334,2,0,P|36:176|60:224,1,80
116,164,31655,2,0,P|136:224|136:248,1,80
188,300,31976,5,0,0:0:0:0:
260,332,32136,1,0,0:0:0:0:
296,260,32297,1,0,0:0:0:0:
224,228,32457,1,0,0:0:0:0:
288,180,32618,2,0,L|328:108,2,80,0|0|0,0:0|0:0|0:0,0:0:0:0:
368,188,33099,5,0,0:0:0:0:
448,180,33259,2,0,P|432:232|316:244,1,160
184,308,33901,2,0,L|144:324,2,40,0|0|0,0:0|0:0|0:0,0:0:0:0:
156,232,34222,2,0,L|104:240,2,40,0|0|0,0:0|0:0|0:0,0:0:0:0:
136,152,34543,2,0,P|132:104|32:48,2,160,0|0|0,0:0|0:0|0:0,0:0:0:0:
216,164,35345,2,0,P|264:172|308:148,1,80
252,92,35666,5,0,0:0:0:0:
312,40,35826,2,0,P|364:76|376:108,1,80
404,164,36147,1,0,0:0:0:0:
380,240,36307,1,0,0:0:0:0:
428,304,36468,2,0,L|448:340,2,40,0|0|0,0:0|0:0|0:0,0:0:0:0:
348,312,36789,2,0,L|332:352,2,40,0|0|0,0:0|0:0|0:0,0:0:0:0:
288,256,37110,2,0,P|232:256|204:356,1,160
44,296,37751,6,0,P|84:320|120:320,1,80
100,240,38072,2,0,L|124:160,1,80
88,92,38393,2,0,L|76:44,2,40,0|0|0,0:0|0:0|0:0,0:0:0:0:
168,100,38714,2,0,L|196:52,2,40,0|0|0,0:0|0:0|0:0,0:0:0:0:
228,152,39035,2,0,P|356:228|492:144,2,320,0|0|0,0:0|0:0|0:0,0:0:0:0:
256,192,40398,12,0,41602,0:0:0:0:
256,44,41922,6,0,P|224:124|256:184,1,160
408,132,42564,2,0,P|456:168|464:208,1,80
404,236,42885,6,0,P|360:256|288:356,1,160
212,332,43366,1,0,0:0:0:0:
140,296,43527,2,0,B|100:288|100:288|68:244,1,80
80,176,43848,2,0,B|120:184|120:184|152:228,1,80
224,224,44168,6,0,P|284:216|320:120,2,160,0|0|0,0:0|0:0|0:0,0:0:0:0:
244,144,44971,2,0,P|208:116|172:116,1,80
100,84,45291,1,0,0:0:0:0:
168,40,45452,2,0,L|252:40,1,80
324,68,45773,2,0,P|388:72|424:60,1,80
468,116,46094,2,0,P|468:168|440:204,1,80
384,152,46414,2,0,L|304:192,1,80
248,140,46735,6,0,P|228:196|324:264,1,160
448,292,47377,1,0,0:0:0:0:
296,340,47698,1,0,0:0:0:0:
136,320,48019,2,0,B|96:304|96:304|72:276,1,80
132,224,48340,2,0,B|108:196|108:196|68:180,1,80
36,108,48660,6,0,B|128:84|128:84|160:104|208:88,1,160
260,52,49142,1,0,0:0:0:0:
312,112,49302,2,0,P|328:176|316:204,1,80
248,160,49623,2,0,P|244:212|264:252,1,80
212,304,49944,1,0,0:0:0:0:
288,332,50104,1,0,0:0:0:0:
368,320,50265,1,0,0:0:0:0:
424,264,50425,1,0,0:0:0:0:
420,184,50586,6,0,P|392:156|384:36,1,160
300,48,51067,1,0,0:0:0:0:
220,40,51227,2,0,P|226:118|181:182,1,160
140,112,51709,1,0,0:0:0:0:
72,152,51869,6,0,L|36:180,2,40,0|0|0,0:0|0:0|0:0,0:0:0:0:
112,220,52190,1,0,0:0:0:0:
112,220,52270,1,0,0:0:0:0:
112,220,52350,1,0,0:0:0:0:
152,288,52511,2,0,L|184:260,2,40,0|0|0,0:0|0:0|0:0,0:0:0:0:
248,336,52832,2,0,L|248:288,2,40,0|0|0,0:0|0:0|0:0,0:0:0:0:
256,192,53152,12,0,56842,0:0:0:0:
248,304,57163,6,0,P|228:248|240:200,1,80
308,248,57484,2,0,P|316:196|304:152,1,80
256,112,57805,1,0,0:0:0:0:
204,52,57965,1,0,0:0:0:0:
84,160,58286,2,0,P|48:236|88:296,1,160
128,228,58767,1,0,0:0:0:0:
128,228,58928,2,0,L|206:240,1,80
172,160,59249,2,0,L|268:148,1,80
268,72,59570,6,0,P|316:104|332:152,2,80,0|0|0,0:0|0:0|0:0,0:0:0:0:
188,72,60051,2,0,P|140:40|124:-8,2,80,0|0|0,0:0|0:0|0:0,0:0:0:0:
228,140,60532,2,0,L|228:304,1,160
464,336,61334,2,0,L|392:292,1,80
296,172,61815,2,0,P|228:224|256:316,1,160
304,252,62297,1,0,0:0:0:0:
376,224,62457,1,0,0:0:0:0:
376,144,62618,1,0,0:0:0:0:
312,96,62778,2,0,P|272:80|208:76,1,80
216,152,63099,6,0,P|152:112|152:24,1,160
84,264,63901,2,0,L|112:176,1,80
224,300,64382,2,0,B|288:284|316:316|384:296,1,160
444,244,64864,1,0,0:0:0:0:
456,164,65024,1,0,0:0:0:0:
404,104,65184,2,0,P|356:112|304:88,1,80
172,56,65666,1,0,0:0:0:0:
284,172,65987,1,0,0:0:0:0:
128,204,66307,1,0,0:0:0:0:
236,324,66628,6,0,L|216:232,2,80,0|0|0,0:0|0:0|0:0,0:0:0:0:
316,344,67110,2,0,L|400:344,1,80
452,288,67430,2,0,P|480:208|436:136,1,160
328,40,68072,2,0,P|300:120|344:192,1,160
172,200,68714,1,0,0:0:0:0:
204,44,69035,1,0,0:0:0:0:
104,160,69356,2,0,L|180:204,1,80
256,340,69837,6,0,B|328:296|308:224|308:224|260:220|228:148|272:68|336:88,2,320,0|0|0,0:0|0:0|0:0,0:0:0:0:
180,316,71281,2,0,L|92:280,1,80
28,296,71602,2,0,P|48:224|64:204,1,80
220,116,72083,1,0,0:0:0:0:
292,80,72243,1,0,0:0:0:0:
364,44,72404,2,0,P|372:104|288:160,2,160,0|0|0,0:0|0:0|0:0,0:0:0:0:
292,80,73206,1,0,0:0:0:0:
220,116,73366,1,0,0:0:0:0:
152,156,73527,1,0,0:0:0:0:
96,212,73687,6,0,B|88:252|88:252|112:296,1,80
180,320,74008,2,0,B|188:280|188:280|164:236,1,80
236,164,74329,2,0,B|228:204|228:204|252:248,1,80
320,272,74650,2,0,B|328:232|328:232|304:188,1,80
348,128,74971,1,0,0:0:0:0:
420,96,75131,1,0,0:0:0:0:
452,168,75291,1,0,0:0:0:0:
380,204,75452,1,0,0:0:0:0:
444,252,75612,6,0,P|440:300|400:344,1,80
356,280,75933,2,0,P|304:300|260:292,1,80
300,220,76254,1,0,0:0:0:0:
220,236,76414,1,0,0:0:0:0:
180,304,76575,1,0,0:0:0:0:
104,324,76735,1,0,0:0:0:0:
48,264,76896,2,0,L|48:184,1,80
124,208,77217,2,0,L|124:120,1,80
184,76,77537,6,0,L|216:48,2,40,0|0|0,0:0|0:0|0:0,0:0:0:0:
240,132,77858,2,0,L|284:128,2,40,0|0|0,0:0|0:0|0:0,0:0:0:0:
260,212,78179,2,0,L|304:224,2,40,0|0|0,0:0|0:0|0:0,0:0:0:0:
208,272,78500,2,0,P|208:332|232:360,1,80
284,304,78821,1,0,0:0:0:0:
364,300,78981,1,0,0:0:0:0:
432,260,79142,1,0,0:0:0:0:
448,180,79302,1,0,0:0:0:0:
256,192,79463,12,0,81067,0:0:0:0:
168,328,81388,6,0,P|124:288|152:180,1,160
192,252,81869,1,0,0:0:0:0:
264,216,82029,1,0,0:0:0:0:
336,180,82190,2,0,P|316:120|276:100,1,80
228,92,82511,2,0,P|260:48|300:28,1,80
360,40,82832,1,0,0:0:0:0:
428,84,82992,1,0,0:0:0:0:
456,160,83152,1,0,0:0:0:0:
440,240,83313,5,0,0:0:0:0:
380,292,83473,2,0,P|367:328|331:344,1,80
240,344,83794,1,0,0:0:0:0:
164,336,83955,2,0,P|204:280|292:288,2,160,0|0|0,0:0|0:0|0:0,0:0:0:0:
92,296,84757,1,0,0:0:0:0:
68,220,84917,1,0,0:0:0:0:
104,148,85078,1,0,0:0:0:0:
164,96,85238,6,0,L|248:96,1,80
292,36,85559,2,0,P|316:84|312:124,1,80
276,176,85880,2,0,P|268:228|288:272,1,80
348,216,86201,2,0,L|436:216,1,80
440,296,86521,1,0,0:0:0:0:
368,332,86682,1,0,0:0:0:0:
288,344,86842,2,0,L|124:344,1,160
64,292,87324,5,0,0:0:0:0:
140,268,87484,1,0,0:0:0:0:
216,244,87644,1,0,0:0:0:0:
156,192,87805,2,0,P|124:148|76:140,1,80
36,96,88126,2,0,P|76:56|128:48,1,80
176,48,88447,1,0,0:0:0:0:
256,48,88607,1,0,0:0:0:0:
336,48,88767,1,0,0:0:0:0:
296,120,88928,5,0,0:0:0:0:
220,140,89088,2,0,P|268:188|356:172,2,160,0|0|0,0:0|0:0|0:0,0:0:0:0:
296,120,89890,1,0,0:0:0:0:
372,100,90051,1,0,0:0:0:0:
428,156,90211,1,0,0:0:0:0:
408,232,90372,6,0,P|400:288|424:324,1,80
328,304,90693,2,0,L|240:304,2,80,0|0|0,0:0|0:0|0:0,0:0:0:0:
292,232,91174,2,0,L|196:232,1,80
132,232,91495,1,0,0:0:0:0:
68,184,91655,2,0,L|40:148,4,40,0|0|0|0|0,0:0|0:0|0:0|0:0|0:0,0:0:0:0:
136,140,92136,1,0,0:0:0:0:
136,60,92297,2,0,P|184:76|192:196,2,160,0|0|0,0:0|0:0|0:0,0:0:0:0:
136,140,93099,5,0,0:0:0:0:
208,172,93259,1,0,0:0:0:0:
288,156,93420,1,0,0:0:0:0:
340,96,93580,1,0,0:0:0:0:
416,120,93741,1,0,0:0:0:0:
364,188,93901,2,0,P|360:244|436:324,1,160
356,360,94382,5,0,0:0:0:0:
300,300,94543,1,0,0:0:0:0:
244,244,94703,1,0,0:0:0:0:
244,244,94783,1,0,0:0:0:0:
244,244,94864,1,0,0:0:0:0:
176,288,95024,2,0,P|132:272|88:288,1,80
40,228,95345,5,0,0:0:0:0:
92,168,95505,2,0,L|144:100,1,80
192,164,95826,2,0,L|244:96,1,80
288,164,96147,1,0,0:0:0:0:
368,164,96307,2,0,L|420:96,2,80,0|0|0,0:0|0:0|0:0,0:0:0:0:
328,232,96789,2,0,L|304:268,4,40,0|0|0|0|0,0:0|0:0|0:0|0:0|0:0,0:0:0:0:
400,272,97270,1,0,0:0:0:0:
468,316,97430,2,0,L|496:280,4,40,0|0|0|0|0,0:0|0:0|0:0|0:0|0:0,0:0:0:0:
400,272,97912,5,0,0:0:0:0:
336,320,98072,2,0,P|280:328|232:312,1,80
188,280,98393,2,0,P|156:232|156:196,1,80
152,132,98714,2,0,P|176:88|212:64,1,80
236,140,99035,1,0,0:0:0:0:
316,156,99195,1,0,0:0:0:0:
384,116,99356,6,0,P|340:84|280:84,2,80,0|0|0,0:0|0:0|0:0,0:0:0:0:
384,196,99837,1,0,0:0:0:0:
384,276,99997,1,0,0:0:0:0:
332,336,100158,2,0,L|244:336,1,80
184,296,100479,1,0,0:0:0:0:
112,260,100639,2,0,L|64:180,1,80
152,180,100960,2,0,L|152:88,1,80
224,136,101281,2,0,L|280:64,1,80
348,40,101602,1,0,0:0:0:0:
256,192,101922,12,0,104489,0:0:0:0:
