osu file format v13

[General]
AudioFilename: Ryu - Sakura Mirage [EXH].mp3
AudioLeadIn: 0
PreviewTime: 81057
Countdown: 0
SampleSet: Soft
StackLeniency: 0.7
Mode: 0
LetterboxInBreaks: 1
WidescreenStoryboard: 0

[Editor]
DistanceSpacing: 1.9
BeatDivisor: 4
GridSize: 4
TimelineZoom: 2.699999

[Metadata]
Title:Sakura Mirage
TitleUnicode:Sakura Mirage
Artist:Ryu*
ArtistUnicode:Ryu☆
Creator:AJeyB
Version:EX
Source:
Tags:
BeatmapID:475667
BeatmapSetID:200757

[Difficulty]
HPDrainRate:4
CircleSize:4
OverallDifficulty:8
ApproachRate:9
SliderMultiplier:1.7
SliderTickRate:1

[Events]
//Background and Video events
0,0,"touhou_black_hair_cherry_blossoms_clouds_hat_petals_red_eyes_ribbons_shameimaru_aya_short_hair_skirt_sky_socks_torii_touhou_water_waterfall_wings_1680x1221.jpg",0,0
//Break Periods
2,53502,56553
//Storyboard Layer 0 (Background)
//Storyboard Layer 1 (Fail)
//Storyboard Layer 2 (Pass)
//Storyboard Layer 3 (Foreground)
//Storyboard Sound Samples
//Background Colour Transformations
3,100,163,162,255

[TimingPoints]
1806,320.855614973262,4,2,0,80,1,0
7100,-66.6666666666667,4,2,0,80,0,0
12073,-100,4,2,0,80,0,0
26351,-100,4,3,0,26,0,0
27474,-100,4,2,0,91,0,0
27634,-100,4,2,0,80,0,0
37100,-100,4,2,0,20,0,0
37420,-100,4,2,0,80,0,0
39346,-100,4,2,0,60,0,0
39666,-200,4,2,0,30,0,0
39987,-133.333333333333,4,2,0,51,0,0
40148,-100,4,2,0,60,0,0
40308,-100,4,2,0,80,0,0
70148,-133.333333333333,4,2,0,80,0,0
81378,-100,4,2,0,80,0,1
101912,-100,4,2,0,80,0,0

[HitObjects]
264,188,1806,6,0,L|204:216,1,42.5,8|0,0:0|0:0,0:0:0:0:
296,196,1966,5,0,0:0:0:0:
312,200,2046,1,0,0:0:0:0:
328,204,2126,2,0,L|352:156,1,42.5,8|0,0:0|0:0,0:0:0:0:
360,220,2287,5,0,0:0:0:0:
376,228,2367,1,0,0:0:0:0:
404,244,2447,2,0,L|452:264,1,42.5,8|0,0:0|0:0,0:0:0:0:
480,196,2608,5,0,0:0:0:0:
472,184,2688,1,0,0:0:0:0:
460,172,2768,2,0,L|500:132,1,42.5,8|0,0:0|0:0,0:0:0:0:
424,72,2928,5,0,0:0:0:0:
408,72,3009,1,0,0:0:0:0:
392,72,3089,2,0,L|328:48,1,42.5,8|0,0:0|0:0,0:0:0:0:
164,84,3249,5,0,0:0:0:0:
180,88,3330,1,0,0:0:0:0:
196,92,3410,2,0,L|272:72,1,42.5,8|0,0:0|0:0,0:0:0:0:
380,152,3570,5,0,0:0:0:0:
356,148,3650,1,0,0:0:0:0:
324,152,3731,1,8,0:0:0:0:
316,180,3811,5,0,0:0:0:0:
304,208,3891,1,0,0:0:0:0:
276,200,3971,5,0,0:0:0:0:
252,184,4051,1,8,0:0:0:0:
224,168,4132,1,0,0:0:0:0:
196,156,4212,1,0,0:0:0:0:
176,176,4292,5,0,0:0:0:0:
160,196,4372,1,8,0:0:0:0:
144,216,4453,1,0,0:0:0:0:
132,236,4533,1,0,0:0:0:0:
120,256,4613,1,0,0:0:0:0:
104,276,4693,2,0,L|64:256,1,42.5,8|0,0:0|0:0,0:0:0:0:
72,136,4854,5,0,0:0:0:0:
96,152,4934,1,0,0:0:0:0:
124,168,5014,2,0,L|164:136,1,42.5,8|0,0:0|0:0,0:0:0:0:
408,108,5174,5,0,0:0:0:0:
376,108,5255,1,0,0:0:0:0:
348,108,5335,2,0,L|304:84,1,42.5,8|0,0:0|0:0,0:0:0:0:
436,248,5495,5,0,0:0:0:0:
396,232,5576,1,0,0:0:0:0:
360,212,5656,1,8,0:0:0:0:
356,232,5736,5,0,0:0:0:0:
352,252,5816,1,0,0:0:0:0:
348,272,5896,1,0,0:0:0:0:
344,292,5977,2,0,L|372:336,1,42.5,8|0,0:0|0:0,0:0:0:0:
216,284,6137,5,0,0:0:0:0:
196,272,6217,1,0,0:0:0:0:
176,260,6297,2,0,L|124:264,1,42.5,8|0,0:0|0:0,0:0:0:0:
64,200,6458,5,0,0:0:0:0:
96,172,6538,1,0,0:0:0:0:
128,148,6618,1,0,0:0:0:0:
168,136,6699,1,0,0:0:0:0:
212,140,6779,1,0,0:0:0:0:
256,144,6859,1,0,0:0:0:0:
292,164,6939,1,8,0:0:0:0:
328,184,7019,1,0,0:0:0:0:
356,208,7100,2,0,L|480:300,1,127.500004863739,2|0,0:1|0:1,0:1:0:0:
200,112,7420,6,0,B|132:124|132:124|48:72,1,127.500004863739,2|0,0:1|0:1,0:1:0:0:
356,80,7741,2,0,B|400:132|400:132|476:172,1,127.500004863739,2|0,0:1|0:1,0:1:0:0:
232,328,8062,2,0,B|204:288|204:288|112:220,1,127.500004863739,2|0,0:1|0:1,0:1:0:0:
240,108,8383,5,2,0:3:0:0:
268,132,8543,1,2,0:3:0:0:
300,156,8704,1,2,0:3:0:0:
332,180,8864,1,2,0:3:0:0:
364,204,9025,1,2,0:3:0:0:
392,228,9185,1,2,0:3:0:0:
424,252,9346,1,2,0:3:0:0:
456,276,9506,1,6,0:3:0:0:
216,292,9666,6,2,L|76:312,1,127.500004863739,2|0,0:1|0:0,0:1:0:0:
180,60,9987,2,0,L|208:184,1,127.500004863739,2|0,0:1|0:0,0:1:0:0:
480,100,10308,2,0,L|332:68,1,127.500004863739,2|0,0:1|0:0,0:1:0:0:
336,328,10629,2,0,L|396:196,1,127.500004863739,2|0,0:1|0:0,0:1:0:0:
120,140,10950,2,0,L|56:264,1,127.500004863739,2|0,0:1|0:0,0:1:0:0:
348,152,11271,2,0,L|212:100,1,127.500004863739,2|0,0:1|0:0,0:0:0:0:
360,72,11592,2,0,P|392:52|424:44,1,63.7500024318696,2|0,0:1|0:0,0:0:0:0:
472,160,11752,2,0,B|376:164|376:164|232:108,1,191.250007295609,10|0,0:1|0:0,0:0:0:0:
260,148,12073,5,0,0:0:0:0:
232,164,12233,1,0,0:0:0:0:
204,180,12394,2,0,L|184:60,1,85
60,160,12715,5,0,0:0:0:0:
44,168,12795,1,0,0:0:0:0:
28,176,12875,1,0,0:0:0:0:
28,28,13035,1,0,0:0:0:0:
208,76,13196,5,0,0:0:0:0:
220,80,13276,1,0,0:0:0:0:
232,84,13356,1,0,0:0:0:0:
376,64,13517,5,0,0:0:0:0:
408,188,13677,1,0,0:0:0:0:
280,192,13838,1,0,0:0:0:0:
456,68,13998,1,0,0:0:0:0:
284,260,14158,1,0,0:0:0:0:
336,368,14319,1,0,0:0:0:0:
200,332,14479,1,0,0:0:0:0:
200,332,14560,1,0,0:0:0:0:
200,332,14640,1,0,0:0:0:0:
336,368,14800,1,0,0:0:0:0:
152,320,14961,2,0,L|80:240,1,85
88,152,15201,5,0,0:0:0:0:
88,152,15281,1,0,0:0:0:0:
88,152,15362,1,0,0:0:0:0:
88,152,15442,1,0,0:0:0:0:
140,48,15602,1,0,0:0:0:0:
220,88,15763,1,0,0:0:0:0:
228,108,15843,1,0,0:0:0:0:
236,128,15923,1,0,0:0:0:0:
392,136,16084,5,2,0:0:0:0:
260,76,16244,1,2,0:0:0:0:
412,96,16404,5,2,0:0:0:0:
304,60,16565,1,2,0:0:0:0:
384,88,16725,5,2,0:0:0:0:
444,148,16886,1,2,0:0:0:0:
456,232,17046,1,2,0:0:0:0:
412,304,17207,1,14,0:0:0:0:
176,248,17367,6,0,L|84:304,1,85,2|0,0:1|0:0,0:0:0:0:
128,112,17688,2,0,L|212:72,1,85,2|0,0:1|0:0,0:0:0:0:
380,128,18009,2,0,L|320:48,1,85,2|0,0:1|0:0,0:0:0:0:
280,264,18330,2,0,L|364:216,1,85,2|0,0:1|0:0,0:0:0:0:
312,68,18650,5,2,0:0:0:0:
292,84,18811,1,2,0:0:0:0:
272,100,18971,1,2,0:0:0:0:
252,116,19132,1,2,0:0:0:0:
232,132,19292,1,2,0:0:0:0:
212,148,19453,1,2,0:0:0:0:
192,164,19613,1,2,0:0:0:0:
172,180,19773,1,6,0:0:0:0:
352,232,19934,6,0,B|364:192|364:192|404:164,1,85,2|0,0:1|0:0,0:0:0:0:
292,84,20255,2,0,B|256:112|256:112|212:104,1,85,2|0,0:1|0:0,0:0:0:0:
156,280,20576,2,0,B|184:272|184:272|240:276,1,85,2|0,0:1|0:0,0:0:0:0:
36,184,20896,2,0,B|80:160|80:160|88:120,1,85,2|0,0:1|0:0,0:0:0:0:
240,96,21217,5,0,0:0:0:0:
320,124,21378,1,0,0:0:0:0:
376,188,21538,1,0,0:0:0:0:
392,272,21699,1,0,0:0:0:0:
344,344,21859,2,0,L|320:340,2,21.25,0|0|0,0:0|0:0|0:0,0:0:0:0:
232,312,22019,2,0,L|256:312,3,14.1666666666667,0|0|0|0,0:0|0:0|0:0|0:0,0:0:0:0:
260,248,22180,5,0,0:0:0:0:
440,64,22340,1,0,0:0:0:0:
288,144,22501,1,0,0:0:0:0:
448,204,22661,2,0,L|480:288,1,85,0|0,0:0|0:0,0:0:0:0:
460,308,22902,1,0,0:0:0:0:
440,328,22982,1,0,0:0:0:0:
412,340,23062,1,0,0:0:0:0:
384,344,23142,5,0,0:0:0:0:
440,64,23303,1,0,0:0:0:0:
356,328,23463,1,0,0:0:0:0:
336,312,23543,1,0,0:0:0:0:
316,296,23624,1,0,0:0:0:0:
156,348,23784,5,0,0:0:0:0:
248,144,23945,1,0,0:0:0:0:
108,240,24105,1,0,0:0:0:0:
208,104,24265,1,0,0:0:0:0:
68,200,24426,1,0,0:0:0:0:
176,68,24586,1,0,0:0:0:0:
36,164,24747,1,0,0:0:0:0:
68,200,24827,1,0,0:0:0:0:
108,240,24907,1,0,0:0:0:0:
252,332,25068,1,0,0:0:0:0:
392,236,25228,6,0,L|476:196,1,85
472,164,25469,1,0,0:0:0:0:
464,132,25549,1,0,0:0:0:0:
444,104,25629,1,0,0:0:0:0:
420,80,25709,1,0,0:0:0:0:
292,204,25870,1,0,0:0:0:0:
184,80,26030,1,0,0:0:0:0:
168,92,26110,1,0,0:0:0:0:
152,104,26191,1,0,0:0:0:0:
312,48,26351,5,0,0:0:0:0:
408,188,26511,1,0,0:0:0:0:
460,256,26672,1,0,0:0:0:0:
420,312,26832,1,0,0:0:0:0:
376,336,26993,1,0,0:0:0:0:
344,336,27153,1,0,0:0:0:0:
328,328,27314,1,0,0:0:0:0:
36,88,27474,5,14,0:0:0:0:
180,176,27634,1,0,0:0:0:0:
340,116,27795,2,0,L|336:216,1,85
308,220,28035,1,0,0:0:0:0:
284,248,28116,1,0,0:0:0:0:
272,280,28196,1,0,0:0:0:0:
268,312,28276,1,0,0:0:0:0:
164,176,28437,1,0,0:0:0:0:
88,328,28597,1,0,0:0:0:0:
80,308,28677,1,0,0:0:0:0:
72,288,28757,1,0,0:0:0:0:
228,348,28918,5,0,0:0:0:0:
348,248,29078,1,0,0:0:0:0:
240,64,29239,1,0,0:0:0:0:
168,260,29399,1,0,0:0:0:0:
372,124,29560,1,0,0:0:0:0:
108,136,29720,1,0,0:0:0:0:
332,300,29880,1,0,0:0:0:0:
340,280,29961,1,0,0:0:0:0:
348,260,30041,1,0,0:0:0:0:
116,160,30201,1,0,0:0:0:0:
348,260,30362,6,0,L|412:360,1,85,0|0,0:0|0:0,0:0:0:0:
424,344,30602,1,0,0:0:0:0:
456,336,30683,1,0,0:0:0:0:
484,316,30763,1,0,0:0:0:0:
492,284,30843,1,0,0:0:0:0:
412,136,31003,1,0,0:0:0:0:
184,248,31164,1,0,0:0:0:0:
200,236,31244,1,0,0:0:0:0:
220,224,31324,1,0,0:0:0:0:
448,44,31485,6,0,L|488:136,1,85,2|0,0:1|0:0,0:0:0:0:
276,64,31805,2,0,P|250:65|229:75,1,42.5,2|0,0:1|0:0,0:0:0:0:
124,144,31966,1,0,3:0:0:0:
96,220,32046,5,0,0:0:0:0:
179,209,32127,1,0,0:0:0:0:
190,293,32207,1,0,0:0:0:0:
105,303,32287,1,0,0:0:0:0:
224,124,32447,5,0,0:0:0:0:
32,76,32608,1,0,1:0:0:0:
36,248,32768,1,0,1:0:0:0:
136,144,32928,1,0,1:0:0:0:
180,264,33089,1,0,1:0:0:0:
240,172,33249,2,0,L|288:128,2,56.6666666666667,0|0|0,0:0|0:0|0:0,0:0:0:0:
404,112,33570,2,0,L|352:152,2,56.6666666666667,0|0|0,0:0|0:0|0:0,0:0:0:0:
148,92,33891,5,0,1:0:0:0:
128,84,33971,1,0,1:0:0:0:
108,76,34051,1,0,1:0:0:0:
88,68,34132,1,0,1:0:0:0:
68,60,34212,1,0,1:0:0:0:
48,48,34292,1,0,1:0:0:0:
28,40,34372,1,0,1:0:0:0:
24,84,34453,1,0,0:0:0:0:
24,128,34533,2,0,L|24:224,1,85
36,244,34773,5,0,0:0:0:0:
56,272,34854,1,0,0:0:0:0:
84,292,34934,1,0,0:0:0:0:
116,300,35014,1,0,0:0:0:0:
148,304,35094,1,0,0:0:0:0:
180,304,35174,1,0,0:0:0:0:
268,156,35335,1,0,0:0:0:0:
116,236,35495,6,0,L|116:188,1,42.5
120,156,35656,1,0,0:0:0:0:
124,116,35736,1,0,0:0:0:0:
124,76,35816,1,0,0:0:0:0:
136,92,35896,1,0,0:0:0:0:
148,108,35977,1,0,0:0:0:0:
160,124,36057,1,0,0:0:0:0:
172,140,36137,1,0,0:0:0:0:
316,52,36297,5,0,0:0:0:0:
440,172,36458,2,2,L|480:136,1,42.5,2|2,0:1|0:0,0:0:0:0:
304,192,36618,1,0,0:0:0:0:
272,216,36699,1,0,0:0:0:0:
240,240,36779,2,2,L|192:280,1,42.5,2|2,0:1|0:0,0:0:0:0:
484,244,36939,1,0,0:0:0:0:
456,268,37019,1,0,0:0:0:0:
432,288,37100,2,0,L|356:348,1,85,0|0,0:0|0:0,0:0:0:0:
252,72,37420,5,14,0:0:0:0:
104,40,37741,5,0,0:0:0:0:
56,140,37902,1,0,0:0:0:0:
212,176,38062,1,0,0:0:0:0:
20,92,38223,1,0,0:0:0:0:
32,100,38303,1,0,0:0:0:0:
44,108,38383,6,0,L|48:72,1,21.25
88,108,38463,2,0,L|100:128,1,21.25,0|0,0:0|0:0,0:0:0:0:
132,104,38543,1,0,0:0:0:0:
388,156,38704,2,0,L|388:184,1,21.25
348,172,38784,2,0,L|328:156,1,21.25
308,192,38864,1,0,0:0:0:0:
152,280,39025,6,0,L|184:312,1,42.5
208,312,39185,1,0,0:0:0:0:
232,316,39265,1,0,0:0:0:0:
252,320,39346,2,0,L|340:272,1,85
344,296,39586,1,0,0:0:0:0:
360,316,39666,6,0,L|420:352,1,63.75
480,304,39987,6,0,B|492:244|492:244|500:224|500:200|488:184,1,95.6250036478044
488,136,40308,5,0,0:0:0:0:
460,128,40388,1,0,0:0:0:0:
432,116,40469,1,0,0:0:0:0:
404,108,40549,1,0,0:0:0:0:
376,100,40629,1,0,0:0:0:0:
348,92,40709,1,0,0:0:0:0:
320,84,40789,1,0,0:0:0:0:
292,76,40870,1,0,0:0:0:0:
264,68,40950,1,0,0:0:0:0:
236,60,41030,1,0,0:0:0:0:
208,52,41110,2,0,L|156:36,1,42.5
0,136,41271,2,0,L|108:172,1,85
228,224,41592,5,0,0:0:0:0:
217,180,41672,1,0,0:0:0:0:
256,164,41752,1,0,0:0:0:0:
280,184,41832,1,0,0:0:0:0:
276,212,41912,1,0,0:0:0:0:
244,216,41993,1,0,0:0:0:0:
236,184,42073,1,0,0:0:0:0:
256,180,42153,1,0,0:0:0:0:
268,188,42233,1,0,0:0:0:0:
268,200,42314,1,0,0:0:0:0:
264,204,42394,1,0,0:0:0:0:
256,200,42474,1,0,0:0:0:0:
256,192,42554,1,6,0:0:0:0:
408,264,42875,6,0,L|436:212,1,42.5,14|0,0:0|0:0,0:0:0:0:
388,272,43035,1,0,0:0:0:0:
356,272,43116,1,0,0:0:0:0:
328,268,43196,1,8,0:0:0:0:
300,264,43276,1,0,0:0:0:0:
272,260,43356,2,0,L|224:244,1,42.5
128,128,43517,5,8,0:0:0:0:
104,144,43597,1,0,0:0:0:0:
76,160,43677,2,0,L|44:104,1,42.5
224,64,43838,5,8,0:0:0:0:
260,76,43918,1,0,0:0:0:0:
296,92,43998,1,0,0:0:0:0:
332,104,44078,1,0,0:0:0:0:
364,120,44158,1,8,0:0:0:0:
348,148,44239,1,0,0:0:0:0:
320,176,44319,2,0,L|280:212,1,42.5
168,320,44479,5,8,0:0:0:0:
192,300,44559,1,0,0:0:0:0:
208,276,44640,1,0,0:0:0:0:
224,252,44720,1,0,0:0:0:0:
236,224,44800,2,0,P|252:200|260:172,1,42.5,8|0,0:0|0:0,0:0:0:0:
164,68,44961,5,0,0:0:0:0:
136,80,45041,1,0,0:0:0:0:
116,100,45121,1,8,0:0:0:0:
104,128,45201,1,0,0:0:0:0:
92,156,45281,1,0,0:0:0:0:
88,184,45362,1,0,0:0:0:0:
84,212,45442,2,0,P|80:236|84:256,1,42.5,8|0,0:0|0:0,0:0:0:0:
236,360,45602,5,0,0:0:0:0:
260,344,45683,1,0,0:0:0:0:
276,320,45763,1,8,0:0:0:0:
280,292,45843,1,0,0:0:0:0:
276,264,45923,1,0,0:0:0:0:
264,236,46003,1,0,0:0:0:0:
244,212,46084,2,0,P|232:188|204:176,1,42.5,8|0,0:0|0:0,0:0:0:0:
392,208,46244,5,0,0:0:0:0:
420,196,46324,1,0,0:0:0:0:
444,176,46404,1,8,0:0:0:0:
444,144,46485,1,0,0:0:0:0:
428,120,46565,1,0,0:0:0:0:
404,104,46645,1,0,0:0:0:0:
376,92,46725,1,0,0:0:0:0:
348,96,46805,1,0,0:0:0:0:
332,120,46886,1,0,0:0:0:0:
324,148,46966,1,0,0:0:0:0:
316,176,47046,1,0,0:0:0:0:
324,204,47126,1,0,0:0:0:0:
336,232,47207,1,0,0:0:0:0:
336,260,47287,1,0,0:0:0:0:
316,280,47367,1,0,0:0:0:0:
288,276,47447,1,0,0:0:0:0:
260,272,47527,1,0,0:0:0:0:
232,260,47608,5,0,0:0:0:0:
208,244,47688,1,0,0:0:0:0:
180,248,47768,1,0,0:0:0:0:
164,272,47848,1,0,0:0:0:0:
144,292,47928,1,0,0:0:0:0:
132,320,48009,1,0,0:0:0:0:
108,340,48089,1,0,0:0:0:0:
80,352,48169,1,0,0:0:0:0:
52,344,48249,1,0,0:0:0:0:
24,332,48330,2,0,P|12:308|12:288,1,42.5,8|0,0:0|0:0,0:0:0:0:
28,164,48490,5,0,0:0:0:0:
68,136,48570,1,0,0:0:0:0:
108,116,48650,2,0,P|128:108|152:104,1,42.5,8|0,0:0|0:0,0:0:0:0:
252,108,48811,5,0,0:0:0:0:
304,116,48891,1,0,0:0:0:0:
352,132,48971,2,0,P|376:132|404:144,1,42.5,8|0,0:0|0:0,0:0:0:0:
452,188,49132,1,0,0:0:0:0:
476,232,49212,1,0,0:0:0:0:
480,284,49292,2,0,L|464:328,1,42.5,8|0,0:0|0:0,0:0:0:0:
384,332,49453,1,0,0:0:0:0:
340,308,49533,1,0,0:0:0:0:
312,264,49613,2,0,L|324:224,1,42.5,8|0,0:0|0:0,0:0:0:0:
252,184,49773,5,0,0:0:0:0:
204,160,49854,1,0,0:0:0:0:
156,148,49934,2,0,L|112:180,1,42.5,8|0,0:0|0:0,0:0:0:0:
156,304,50094,1,0,0:0:0:0:
136,352,50174,1,0,0:0:0:0:
84,356,50255,2,0,L|40:360,1,42.5,8|0,0:0|0:0,0:0:0:0:
28,232,50415,5,0,0:0:0:0:
80,216,50495,1,0,0:0:0:0:
112,180,50576,2,0,P|128:168|144:148,1,42.5,8|0,0:0|0:0,0:0:0:0:
268,112,50736,1,0,0:0:0:0:
292,96,50816,1,0,0:0:0:0:
320,84,50896,2,0,P|344:76|368:80,1,42.5,8|0,0:0|0:0,0:0:0:0:
380,196,51057,5,0,0:0:0:0:
408,236,51137,1,0,0:0:0:0:
456,248,51217,2,0,L|472:292,1,42.5,8|0,0:0|0:0,0:0:0:0:
500,168,51378,1,0,0:0:0:0:
480,128,51458,1,0,0:0:0:0:
440,96,51538,2,0,L|432:48,1,42.5,8|0,0:0|0:0,0:0:0:0:
348,60,51699,5,0,0:0:0:0:
316,64,51779,1,0,0:0:0:0:
284,72,51859,1,0,0:0:0:0:
252,88,51939,1,0,0:0:0:0:
228,112,52019,1,0,0:0:0:0:
220,144,52100,1,0,0:0:0:0:
228,176,52180,1,0,0:0:0:0:
244,208,52260,1,0,0:0:0:0:
264,236,52340,1,0,0:0:0:0:
276,268,52420,1,0,0:0:0:0:
264,300,52501,1,0,0:0:0:0:
236,316,52581,1,0,0:0:0:0:
204,320,52661,1,0,0:0:0:0:
172,312,52741,1,0,0:0:0:0:
140,300,52822,1,0,0:0:0:0:
116,276,52902,1,0,0:0:0:0:
104,244,52982,1,0,0:0:0:0:
104,212,53062,5,0,0:0:0:0:
100,180,53142,2,4,L|140:144,2,42.5,4|4|4,0:0|0:0|0:0,0:0:0:0:
264,104,57153,6,0,L|356:96,1,85,2|0,0:1|0:0,0:0:0:0:
156,52,57474,2,0,L|68:60,1,85,2|0,0:1|0:0,0:0:0:0:
300,212,57795,2,0,L|348:208,1,42.5,2|0,0:1|0:0,0:0:0:0:
248,296,57955,2,0,L|176:212,1,85,2|0,0:1|0:0,0:0:0:0:
48,228,58276,1,2,0:1:0:0:
328,104,58757,5,2,0:1:0:0:
156,264,58918,1,2,0:1:0:0:
168,60,59239,2,0,L|120:96,3,56.6666666666667,2|0|0|4,0:1|0:0|0:0|0:0,0:0:0:0:
432,160,59720,2,0,L|376:156,1,42.5
440,132,59880,5,0,0:0:0:0:
448,104,59960,1,0,0:0:0:0:
452,76,60041,2,0,L|504:88,1,42.5
424,188,60201,5,0,0:0:0:0:
416,216,60281,1,0,0:0:0:0:
408,244,60362,1,0,0:0:0:0:
400,272,60442,1,0,0:0:0:0:
396,292,60522,2,0,L|308:284,1,85,2|0,0:1|0:0,0:0:0:0:
128,196,60843,2,0,L|224:208,1,85,2|0,0:1|0:0,0:0:0:0:
292,132,61164,6,0,L|272:132,4,10.625,0|0|0|0|0,0:0|0:0|0:0|0:0|0:0,0:0:0:0:
216,112,61324,2,0,L|248:72,1,42.5,2|0,0:1|0:0,0:0:0:0:
364,132,61485,2,0,L|348:176,1,42.5,2|0,0:1|0:0,0:0:0:0:
312,256,61805,6,0,L|360:296,1,42.5,2|0,0:1|0:0,0:0:0:0:
372,292,61966,1,0,0:0:0:0:
112,296,62126,5,0,0:0:0:0:
156,300,62207,1,0,0:0:0:0:
200,300,62287,1,0,0:0:0:0:
240,284,62367,1,0,0:0:0:0:
264,248,62447,1,0,0:0:0:0:
296,220,62527,1,0,0:0:0:0:
336,204,62608,1,0,0:0:0:0:
376,196,62688,1,0,0:0:0:0:
420,196,62768,5,0,0:0:0:0:
344,160,62928,1,0,0:0:0:0:
260,132,63089,2,0,L|280:84,1,42.5,2|0,0:1|0:0,0:0:0:0:
184,108,63249,1,0,0:0:0:0:
100,88,63410,2,0,L|60:176,1,85,2|0,0:1|0:0,0:0:0:0:
260,184,63731,6,0,L|248:184,4,10.625,0|0|0|0|0,0:0|0:0|0:0|0:0|0:0,0:0:0:0:
252,112,63891,2,0,L|200:132,1,42.5,2|0,0:1|0:0,0:0:0:0:
328,216,64051,2,0,L|280:256,1,42.5,2|0,0:1|0:0,0:0:0:0:
392,92,64372,2,0,L|476:108,1,85,2|0,0:1|0:0,0:0:0:0:
472,264,64693,5,0,0:0:0:0:
436,240,64773,1,0,0:0:0:0:
396,228,64854,1,0,0:0:0:0:
356,248,64934,1,0,0:0:0:0:
320,272,65014,1,0,0:0:0:0:
280,280,65094,1,0,0:0:0:0:
244,256,65174,2,0,L|188:256,1,42.5,2|0,0:1|0:0,0:0:0:0:
296,148,65335,2,0,L|352:148,1,42.5,2|0,0:1|0:0,0:0:0:0:
212,124,65495,5,0,0:0:0:0:
168,116,65576,1,0,0:0:0:0:
128,132,65656,2,0,L|80:160,1,42.5,2|0,0:1|0:0,0:0:0:0:
232,56,65816,5,0,0:0:0:0:
272,64,65896,1,0,0:0:0:0:
308,88,65977,2,0,L|376:112,1,42.5,2|0,0:1|0:0,0:0:0:0:
480,196,66137,1,0,0:0:0:0:
436,200,66217,1,0,0:0:0:0:
392,204,66297,2,0,L|324:216,1,42.5,2|0,0:1|0:0,0:0:0:0:
180,336,66779,6,0,L|244:372,1,42.5,2|0,0:1|0:0,0:0:0:0:
192,172,66939,2,0,L|144:144,1,42.5,2|0,0:1|0:0,0:0:0:0:
56,48,67100,2,0,L|156:48,1,85,2|0,0:1|0:0,0:0:0:0:
320,136,67420,2,0,L|220:136,1,85,2|0,0:1|0:0,0:0:0:0:
32,264,67741,2,0,L|120:264,1,85,2|0,0:1|0:0,0:0:0:0:
348,280,68062,2,0,L|312:360,1,85,2|0,0:1|0:0,0:0:0:0:
172,208,68383,2,0,L|216:124,1,85,2|0,0:1|0:0,0:0:0:0:
460,80,68704,2,0,L|424:176,1,85,2|0,0:1|0:0,0:0:0:0:
120,240,69025,2,0,L|224:276,1,85,2|0,0:1|0:0,0:0:0:0:
476,324,69346,2,0,L|428:336,1,42.5,2|0,0:1|0:0,0:0:0:0:
204,324,69506,2,0,B|244:320|268:272|240:240|196:232,1,127.5,2|0,0:1|0:0,0:0:0:0:
136,216,69827,1,4,1:0:0:0:
136,88,70148,5,0,0:0:0:0:
144,176,70308,1,0,0:0:0:0:
56,212,70469,1,0,0:0:0:0:
120,268,70629,1,0,0:0:0:0:
204,272,70789,1,0,0:0:0:0:
272,220,70950,1,0,0:0:0:0:
292,136,71110,1,0,0:0:0:0:
228,80,71271,1,0,0:0:0:0:
144,76,71431,1,2,0:0:0:0:
228,80,71592,1,0,0:0:0:0:
304,44,71752,1,4,0:0:0:0:
456,140,72073,5,0,0:0:0:0:
388,188,72233,1,0,0:0:0:0:
456,236,72394,2,0,L|496:312,1,63.7500024318696
284,348,72715,1,0,0:0:0:0:
292,192,73035,5,0,0:0:0:0:
220,240,73196,1,0,0:0:0:0:
136,228,73356,1,0,0:0:0:0:
156,312,73517,1,0,0:0:0:0:
232,352,73677,1,2,0:0:0:0:
312,324,73838,1,0,0:0:0:0:
364,260,73998,1,0,0:0:0:0:
380,280,74158,1,0,0:0:0:0:
396,300,74319,1,4,0:0:0:0:
496,160,74640,5,0,0:0:0:0:
412,168,74800,1,0,0:0:0:0:
328,188,74961,2,0,L|244:212,1,63.7500024318696
360,76,75281,2,0,L|420:112,1,63.7500024318696
456,180,75602,1,0,0:0:0:0:
372,172,75763,1,0,0:0:0:0:
432,228,75923,1,0,0:0:0:0:
380,292,76084,1,0,0:0:0:0:
300,316,76244,1,0,0:0:0:0:
220,288,76404,1,0,0:0:0:0:
288,336,76565,1,0,0:0:0:0:
240,268,76725,1,0,0:0:0:0:
276,256,76886,5,0,0:0:0:0:
324,248,77046,1,0,0:0:0:0:
376,256,77207,1,0,0:0:0:0:
496,156,77367,1,0,0:0:0:0:
360,72,77527,1,0,0:0:0:0:
360,72,77688,1,0,0:0:0:0:
244,168,77848,1,0,0:0:0:0:
244,168,78009,1,0,0:0:0:0:
180,220,78169,1,0,0:0:0:0:
56,212,78330,1,0,0:0:0:0:
180,220,78490,1,0,0:0:0:0:
180,220,78650,1,0,0:0:0:0:
264,320,78811,1,0,0:0:0:0:
264,320,78971,1,0,0:0:0:0:
264,320,79132,1,0,0:0:0:0:
376,248,79292,1,0,0:0:0:0:
376,248,79453,2,0,L|452:280,1,63.7500024318696
184,108,81057,6,0,L|120:104,2,42.5000016212464,0|0|0,0:0|0:0|0:0,0:0:0:0:
204,96,81378,5,0,0:0:0:0:
421,168,81538,1,0,0:0:0:0:
203,241,81699,1,0,0:0:0:0:
342,50,81859,1,0,0:0:0:0:
342,50,81939,1,0,0:0:0:0:
342,50,82019,1,0,0:0:0:0:
342,286,82180,1,0,0:0:0:0:
184,348,82340,1,0,0:0:0:0:
148,328,82420,1,0,0:0:0:0:
128,292,82501,1,0,0:0:0:0:
124,248,82581,1,0,0:0:0:0:
132,208,82661,5,0,0:0:0:0:
12,88,82822,1,0,0:0:0:0:
244,184,82982,1,0,0:0:0:0:
404,124,83142,1,0,0:0:0:0:
476,276,83303,2,0,L|472:360,1,85
312,296,83624,1,0,0:0:0:0:
312,296,83704,5,0,0:0:0:0:
272,276,83784,1,0,0:0:0:0:
224,272,83864,1,0,0:0:0:0:
180,288,83945,1,0,0:0:0:0:
88,304,84105,1,0,0:0:0:0:
224,96,84265,1,0,0:0:0:0:
392,72,84426,1,0,0:0:0:0:
424,100,84506,1,0,0:0:0:0:
436,144,84586,1,0,0:0:0:0:
224,168,84747,5,0,0:0:0:0:
496,252,84907,1,0,0:0:0:0:
376,332,85068,1,0,0:0:0:0:
208,364,85228,1,0,0:0:0:0:
44,328,85388,1,0,0:0:0:0:
20,160,85549,1,0,0:0:0:0:
52,188,85629,1,0,0:0:0:0:
92,200,85709,1,0,0:0:0:0:
256,56,85870,2,0,L|256:156,1,85
440,64,86191,5,0,0:0:0:0:
396,60,86271,1,0,0:0:0:0:
356,72,86351,1,0,0:0:0:0:
324,96,86431,1,0,0:0:0:0:
300,132,86511,1,0,0:0:0:0:
184,108,86672,1,0,0:0:0:0:
20,72,86832,1,0,0:0:0:0:
40,120,86912,1,0,0:0:0:0:
56,168,86993,1,0,0:0:0:0:
48,216,87073,1,0,0:0:0:0:
20,264,87153,1,0,0:0:0:0:
176,196,87314,1,0,0:0:0:0:
104,44,87474,5,0,0:0:0:0:
136,84,87554,1,0,0:0:0:0:
172,116,87634,1,0,0:0:0:0:
216,136,87715,1,0,0:0:0:0:
268,140,87795,1,0,0:0:0:0:
480,128,87955,1,0,0:0:0:0:
344,248,88116,1,0,0:0:0:0:
484,376,88276,1,0,0:0:0:0:
320,336,88437,1,0,0:0:0:0:
320,336,88597,1,0,0:0:0:0:
320,336,88757,5,0,0:0:0:0:
284,312,88838,1,0,0:0:0:0:
248,288,88918,1,0,0:0:0:0:
208,272,88998,1,0,0:0:0:0:
168,264,89078,1,0,0:0:0:0:
52,316,89239,1,0,0:0:0:0:
124,112,89399,1,0,0:0:0:0:
268,200,89560,1,0,0:0:0:0:
260,180,89640,1,0,0:0:0:0:
252,160,89720,1,0,0:0:0:0:
44,72,89880,1,0,0:0:0:0:
100,216,90041,1,0,0:0:0:0:
228,300,90201,1,0,0:0:0:0:
364,232,90362,1,0,0:0:0:0:
452,108,90522,6,0,L|488:80,1,42.5,2|0,0:1|0:0,0:0:0:0:
259,57,90683,1,0,0:0:0:0:
237,130,90763,1,0,0:0:0:0:
299,174,90843,1,0,0:0:0:0:
360,128,90923,1,0,0:0:0:0:
336,56,91003,1,0,0:0:0:0:
420,304,91164,2,0,L|432:352,1,42.5,2|0,0:1|0:0,0:0:0:0:
288,332,91324,2,0,L|180:308,1,85,2|0,0:1|0:0,0:0:0:0:
80,196,91645,6,0,L|96:160,1,21.25
140,200,91725,2,0,L|156:228,1,21.25
200,200,91806,2,0,L|232:176,1,21.25
260,204,91886,2,0,L|276:224,1,21.25
320,208,91966,1,0,0:0:0:0:
452,104,92126,1,0,0:0:0:0:
412,88,92207,1,0,0:0:0:0:
372,72,92287,1,0,0:0:0:0:
432,232,92447,5,0,0:0:0:0:
268,284,92608,1,0,0:0:0:0:
308,308,92688,1,0,0:0:0:0:
344,328,92768,1,0,0:0:0:0:
428,344,92848,1,0,0:0:0:0:
484,288,92928,1,0,0:0:0:0:
380,148,93089,2,0,L|436:152,1,42.5,2|0,0:1|0:0,0:0:0:0:
188,328,93249,5,0,0:0:0:0:
368,356,93410,2,0,L|380:308,1,42.5,2|0,0:1|0:0,0:0:0:0:
204,132,93570,1,0,0:0:0:0:
140,288,93731,2,0,L|72:264,1,42.5,2|0,0:1|0:0,0:0:0:0:
0,160,93891,1,0,0:0:0:0:
64,104,93998,1,0,0:0:0:0:
140,144,94105,1,0,0:0:0:0:
124,232,94212,1,0,0:0:0:0:
272,232,94372,5,0,0:0:0:0:
344,92,94533,1,0,0:0:0:0:
452,220,94693,1,0,0:0:0:0:
452,200,94773,1,0,0:0:0:0:
452,180,94854,1,0,0:0:0:0:
284,208,95014,1,0,0:0:0:0:
432,124,95174,1,0,0:0:0:0:
368,284,95335,1,0,0:0:0:0:
332,120,95495,1,0,0:0:0:0:
468,216,95656,6,0,L|444:172,1,42.5,2|0,0:1|0:0,0:0:0:0:
344,92,95816,1,0,0:0:0:0:
164,104,95977,6,0,L|188:60,1,42.5
372,40,96137,1,0,0:0:0:0:
292,216,96297,6,0,L|344:200,1,42.5,2|0,0:1|0:0,0:0:0:0:
496,152,96458,2,0,L|488:224,1,42.5,2|0,0:1|0:0,0:0:0:0:
472,352,96618,2,0,L|400:348,1,42.5,2|0,0:2|0:0,0:0:0:0:
252,344,96779,1,0,0:0:0:0:
248,328,96859,1,0,0:0:0:0:
248,312,96939,1,0,0:0:0:0:
244,296,97019,1,0,0:0:0:0:
244,280,97100,1,0,0:0:0:0:
348,144,97260,5,0,0:0:0:0:
392,156,97340,1,0,0:0:0:0:
432,176,97420,1,0,0:0:0:0:
468,236,97501,1,0,0:0:0:0:
468,304,97581,1,0,0:0:0:0:
416,348,97661,1,0,0:0:0:0:
348,360,97741,1,0,0:0:0:0:
340,320,97822,1,0,0:0:0:0:
316,288,97902,1,0,0:0:0:0:
272,268,97982,1,0,0:0:0:0:
224,260,98062,1,0,0:0:0:0:
44,212,98223,6,0,P|44:188|56:140,1,42.5,2|0,0:1|0:0,0:0:0:0:
128,36,98383,1,0,0:0:0:0:
268,132,98543,6,0,L|304:160,1,42.5,2|0,0:1|0:0,0:0:0:0:
448,272,98704,1,0,0:0:0:0:
204,320,98864,6,0,L|248:284,1,42.5,2|0,0:1|0:0,0:0:0:0:
412,160,99025,2,0,L|376:188,1,42.5,2|0,0:1|0:0,0:0:0:0:
220,252,99185,1,0,0:0:0:0:
228,216,99265,1,0,0:0:0:0:
236,180,99346,1,0,0:0:0:0:
348,52,99506,1,0,0:0:0:0:
496,228,99666,1,0,0:0:0:0:
388,360,99827,1,0,0:0:0:0:
356,352,99907,1,0,0:0:0:0:
324,344,99987,1,0,0:0:0:0:
300,176,100148,1,0,0:0:0:0:
132,168,100308,6,0,L|112:160,5,14.1666666666667,0|0|0|0|0|0,0:0|0:0|0:0|0:0|0:0|0:0,0:0:0:0:
148,160,100469,2,0,L|216:112,1,42.5
252,84,100629,1,0,0:0:0:0:
404,160,100789,1,0,0:0:0:0:
312,344,100950,1,0,0:0:0:0:
292,300,101030,1,0,0:0:0:0:
272,260,101110,1,0,0:0:0:0:
240,224,101191,1,0,0:0:0:0:
200,200,101271,1,0,0:0:0:0:
112,176,101431,1,0,0:0:0:0:
260,92,101592,2,0,L|384:96,1,85
440,236,101912,1,0,0:0:0:0:
256,192,102073,12,0,105442,0:0:0:0:
