osu file format v12

[General]
AudioFilename: Ryu - Sakura Luminance (kors k Remix).mp3
AudioLeadIn: 0
PreviewTime: 59337
Countdown: 0
SampleSet: None
StackLeniency: 0.7
Mode: 3
LetterboxInBreaks: 0
SpecialStyle: 0
WidescreenStoryboard: 0

[Editor]
DistanceSpacing: 0.7
BeatDivisor: 8
GridSize: 8

[Metadata]
Title:Sakura Luminance (kors k Remix)
TitleUnicode:Sakura Luminance (kors k Remix)
Artist:Ryu*
ArtistUnicode:Ryu ☆
Creator:AngelFault
Version:4k Luminous
Source:Beatmania IIDX
Tags:
BeatmapID:374052
BeatmapSetID:151845

[Difficulty]
HPDrainRate:7
CircleSize:4
OverallDifficulty:7
ApproachRate:5
SliderMultiplier:1.4
SliderTickRate:1

[Events]
//Background and Video events
0,0,"BG.jpg",0,0
//Break Periods
//Storyboard Layer 0 (Background)
//Storyboard Layer 1 (Fail)
//Storyboard Layer 2 (Pass)
//Storyboard Layer 3 (Foreground)
//Storyboard Sound Samples
//Background Colour Transformations
3,100,163,162,255

[TimingPoints]
1472,352.941176470588,4,2,0,10,1,0

[HitObjects]
64,192,1472,1,0,0:0:0:0:
448,192,1472,128,0,1824:0:0:0:0:
192,192,1472,1,0,0:0:0:0:
192,192,1824,1,0,0:0:0:0:
64,192,1824,1,0,0:0:0:0:
320,192,2001,1,0,0:0:0:0:
64,192,2177,1,0,0:0:0:0:
192,192,2266,1,0,0:0:0:0:
448,192,2266,1,0,0:0:0:0:
192,192,2442,1,0,0:0:0:0:
64,192,2530,1,0,0:0:0:0:
448,192,2530,1,0,0:0:0:0:
320,192,2619,1,0,0:0:0:0:
448,192,2795,1,0,0:0:0:0:
64,192,2883,1,0,0:0:0:0:
192,192,2883,1,0,0:0:0:0:
320,192,3060,1,0,0:0:0:0:
192,192,3236,1,0,0:0:0:0:
448,192,3236,1,0,0:0:0:0:
320,192,3413,1,0,0:0:0:0:
192,192,3589,1,0,0:0:0:0:
64,192,3589,1,0,0:0:0:0:
320,192,3766,1,0,0:0:0:0:
448,192,3942,1,0,0:0:0:0:
192,192,3942,1,0,0:0:0:0:
64,192,4119,1,0,0:0:0:0:
320,192,4119,1,0,0:0:0:0:
192,192,4295,1,0,0:0:0:0:
448,192,4295,1,0,0:0:0:0:
320,192,4648,1,0,0:0:0:0:
192,192,4648,1,0,0:0:0:0:
64,192,4824,1,0,0:0:0:0:
320,192,4824,1,0,0:0:0:0:
448,192,5001,1,0,0:0:0:0:
192,192,5089,1,0,0:0:0:0:
64,192,5089,1,0,0:0:0:0:
320,192,5266,1,0,0:0:0:0:
448,192,5354,1,0,0:0:0:0:
64,192,5354,1,0,0:0:0:0:
192,192,5442,1,0,0:0:0:0:
448,192,5619,1,0,0:0:0:0:
320,192,5707,1,0,0:0:0:0:
192,192,5707,1,0,0:0:0:0:
192,192,5883,1,0,0:0:0:0:
64,192,5883,1,0,0:0:0:0:
448,192,6060,1,0,0:0:0:0:
320,192,6060,1,0,0:0:0:0:
192,192,6236,1,0,0:0:0:0:
64,192,6413,128,0,6766:0:0:0:0:
448,192,6413,1,0,0:0:0:0:
320,192,6589,1,0,0:0:0:0:
448,192,6766,1,0,0:0:0:0:
192,192,6766,1,0,0:0:0:0:
320,192,6942,1,0,0:0:0:0:
64,192,7119,128,0,7471:0:0:0:0:
192,192,7119,1,0,0:0:0:0:
448,192,7119,1,0,0:0:0:0:
448,192,7471,1,0,0:0:0:0:
320,192,7471,1,0,0:0:0:0:
192,192,7648,1,0,0:0:0:0:
448,192,7824,1,0,0:0:0:0:
64,192,7824,1,0,0:0:0:0:
192,192,7913,1,0,0:0:0:0:
320,192,7913,1,0,0:0:0:0:
64,192,8089,1,0,0:0:0:0:
320,192,8177,1,0,0:0:0:0:
448,192,8177,1,0,0:0:0:0:
192,192,8266,1,0,0:0:0:0:
448,192,8354,1,0,0:0:0:0:
320,192,8442,1,0,0:0:0:0:
64,192,8530,1,0,0:0:0:0:
192,192,8530,1,0,0:0:0:0:
448,192,8707,1,0,0:0:0:0:
320,192,8883,1,0,0:0:0:0:
64,192,8883,1,0,0:0:0:0:
448,192,9060,1,0,0:0:0:0:
192,192,9236,1,0,0:0:0:0:
64,192,9236,1,0,0:0:0:0:
320,192,9413,1,0,0:0:0:0:
448,192,9589,1,0,0:0:0:0:
192,192,9589,1,0,0:0:0:0:
64,192,9766,1,0,0:0:0:0:
448,192,9766,1,0,0:0:0:0:
320,192,9854,1,0,0:0:0:0:
64,192,9942,128,0,10295:0:0:0:0:
192,192,9942,1,0,0:0:0:0:
448,192,9942,1,0,0:0:0:0:
320,192,10119,1,0,0:0:0:0:
448,192,10295,1,0,0:0:0:0:
192,192,10295,1,0,0:0:0:0:
320,192,10471,1,0,0:0:0:0:
448,192,10471,1,0,0:0:0:0:
64,192,10560,1,0,0:0:0:0:
320,192,10648,1,0,0:0:0:0:
192,192,10648,1,0,0:0:0:0:
448,192,10736,1,0,0:0:0:0:
64,192,10824,1,0,0:0:0:0:
192,192,10913,1,0,0:0:0:0:
320,192,11001,1,0,0:0:0:0:
448,192,11001,1,0,0:0:0:0:
64,192,11089,1,0,0:0:0:0:
320,192,11177,1,0,0:0:0:0:
192,192,11266,1,0,0:0:0:0:
320,192,11354,1,0,0:0:0:0:
448,192,11354,1,0,0:0:0:0:
64,192,11530,1,0,0:0:0:0:
320,192,11619,1,0,0:0:0:0:
192,192,11707,1,0,0:0:0:0:
448,192,11707,1,0,0:0:0:0:
64,192,11883,1,0,0:0:0:0:
192,192,11971,1,0,0:0:0:0:
448,192,12060,128,0,12766:0:0:0:0:
320,192,12060,1,0,0:0:0:0:
64,192,12060,1,0,0:0:0:0:
192,192,12236,1,0,0:0:0:0:
320,192,12324,1,0,0:0:0:0:
64,192,12413,1,0,0:0:0:0:
192,192,12413,1,0,0:0:0:0:
320,192,12589,1,0,0:0:0:0:
192,192,12677,1,0,0:0:0:0:
64,192,12766,1,0,0:0:0:0:
192,192,12810,1,0,0:0:0:0:
320,192,12854,1,0,0:0:0:0:
448,192,12898,1,0,0:0:0:0:
64,192,12942,1,0,0:0:0:0:
192,192,12986,1,0,0:0:0:0:
320,192,13030,1,0,0:0:0:0:
448,192,13074,1,0,0:0:0:0:
64,192,13119,1,0,0:0:0:0:
192,192,13163,1,0,0:0:0:0:
320,192,13207,1,0,0:0:0:0:
448,192,13251,1,0,0:0:0:0:
64,192,13295,1,0,0:0:0:0:
192,192,13339,1,0,0:0:0:0:
320,192,13383,1,0,0:0:0:0:
448,192,13427,1,0,0:0:0:0:
64,192,13471,1,0,0:0:0:0:
192,192,13516,1,0,0:0:0:0:
320,192,13560,1,0,0:0:0:0:
448,192,13604,1,0,0:0:0:0:
64,192,13648,1,0,0:0:0:0:
192,192,13736,1,0,0:0:0:0:
448,192,13824,1,0,0:0:0:0:
320,192,13824,1,0,0:0:0:0:
192,192,13913,1,0,0:0:0:0:
448,192,14001,1,0,0:0:0:0:
64,192,14001,1,0,0:0:0:0:
320,192,14089,1,0,0:0:0:0:
64,192,14177,1,0,0:0:0:0:
192,192,14177,1,0,0:0:0:0:
320,192,14354,1,0,0:0:0:0:
192,192,14442,1,0,0:0:0:0:
64,192,14530,1,0,0:0:0:0:
448,192,14530,1,0,0:0:0:0:
192,192,14707,1,0,0:0:0:0:
448,192,14795,1,0,0:0:0:0:
320,192,14883,1,0,0:0:0:0:
64,192,14883,1,0,0:0:0:0:
64,192,15060,1,0,0:0:0:0:
320,192,15148,1,0,0:0:0:0:
192,192,15236,1,0,0:0:0:0:
448,192,15236,1,0,0:0:0:0:
64,192,15413,1,0,0:0:0:0:
192,192,15501,1,0,0:0:0:0:
448,192,15589,1,0,0:0:0:0:
320,192,15589,1,0,0:0:0:0:
192,192,15766,1,0,0:0:0:0:
320,192,15854,1,0,0:0:0:0:
64,192,15942,1,0,0:0:0:0:
448,192,15942,1,0,0:0:0:0:
192,192,16030,1,0,0:0:0:0:
320,192,16119,1,0,0:0:0:0:
192,192,16207,1,0,0:0:0:0:
448,192,16295,1,0,0:0:0:0:
64,192,16295,1,0,0:0:0:0:
320,192,16471,1,0,0:0:0:0:
64,192,16560,1,0,0:0:0:0:
192,192,16648,1,0,0:0:0:0:
448,192,16648,1,0,0:0:0:0:
448,192,16824,1,0,0:0:0:0:
64,192,16913,1,0,0:0:0:0:
320,192,17001,1,0,0:0:0:0:
192,192,17001,1,0,0:0:0:0:
192,192,17177,1,0,0:0:0:0:
448,192,17266,1,0,0:0:0:0:
64,192,17354,1,0,0:0:0:0:
192,192,17354,1,0,0:0:0:0:
320,192,17530,1,0,0:0:0:0:
64,192,17619,1,0,0:0:0:0:
192,192,17707,1,0,0:0:0:0:
448,192,17707,1,0,0:0:0:0:
64,192,17883,1,0,0:0:0:0:
448,192,17971,1,0,0:0:0:0:
320,192,18060,1,0,0:0:0:0:
192,192,18060,1,0,0:0:0:0:
192,192,18236,1,0,0:0:0:0:
64,192,18324,1,0,0:0:0:0:
448,192,18413,1,0,0:0:0:0:
320,192,18413,1,0,0:0:0:0:
192,192,18589,1,0,0:0:0:0:
64,192,18677,1,0,0:0:0:0:
320,192,18766,1,0,0:0:0:0:
448,192,18766,1,0,0:0:0:0:
64,192,18942,1,0,0:0:0:0:
320,192,19030,1,0,0:0:0:0:
192,192,19119,1,0,0:0:0:0:
448,192,19119,1,0,0:0:0:0:
320,192,19295,1,0,0:0:0:0:
192,192,19383,1,0,0:0:0:0:
64,192,19471,1,0,0:0:0:0:
320,192,19471,1,0,0:0:0:0:
192,192,19648,1,0,0:0:0:0:
448,192,19736,1,0,0:0:0:0:
320,192,19824,1,0,0:0:0:0:
64,192,19824,1,0,0:0:0:0:
192,192,20001,1,0,0:0:0:0:
320,192,20089,1,0,0:0:0:0:
64,192,20177,1,0,0:0:0:0:
448,192,20177,1,0,0:0:0:0:
192,192,20354,1,0,0:0:0:0:
320,192,20442,1,0,0:0:0:0:
448,192,20530,1,0,0:0:0:0:
64,192,20530,1,0,0:0:0:0:
320,192,20707,1,0,0:0:0:0:
64,192,20795,1,0,0:0:0:0:
192,192,20883,1,0,0:0:0:0:
320,192,20883,1,0,0:0:0:0:
448,192,21060,1,0,0:0:0:0:
192,192,21148,1,0,0:0:0:0:
320,192,21236,1,0,0:0:0:0:
64,192,21236,1,0,0:0:0:0:
448,192,21413,1,0,0:0:0:0:
320,192,21501,1,0,0:0:0:0:
64,192,21589,1,0,0:0:0:0:
192,192,21589,1,0,0:0:0:0:
320,192,21677,1,0,0:0:0:0:
192,192,21766,1,0,0:0:0:0:
448,192,21766,1,0,0:0:0:0:
64,192,21854,1,0,0:0:0:0:
448,192,21942,1,0,0:0:0:0:
320,192,21942,1,0,0:0:0:0:
192,192,22119,1,0,0:0:0:0:
320,192,22207,1,0,0:0:0:0:
64,192,22295,1,0,0:0:0:0:
448,192,22295,1,0,0:0:0:0:
192,192,22471,1,0,0:0:0:0:
448,192,22560,1,0,0:0:0:0:
320,192,22648,1,0,0:0:0:0:
64,192,22648,1,0,0:0:0:0:
64,192,22824,1,0,0:0:0:0:
320,192,22913,1,0,0:0:0:0:
192,192,23001,1,0,0:0:0:0:
448,192,23001,1,0,0:0:0:0:
320,192,23177,1,0,0:0:0:0:
64,192,23266,1,0,0:0:0:0:
448,192,23354,1,0,0:0:0:0:
192,192,23354,1,0,0:0:0:0:
64,192,23530,1,0,0:0:0:0:
320,192,23619,1,0,0:0:0:0:
192,192,23707,1,0,0:0:0:0:
448,192,23707,1,0,0:0:0:0:
320,192,23883,1,0,0:0:0:0:
64,192,23971,1,0,0:0:0:0:
192,192,24060,1,0,0:0:0:0:
448,192,24060,1,0,0:0:0:0:
448,192,24236,1,0,0:0:0:0:
320,192,24324,1,0,0:0:0:0:
64,192,24413,1,0,0:0:0:0:
192,192,24413,1,0,0:0:0:0:
448,192,24589,1,0,0:0:0:0:
192,192,24677,1,0,0:0:0:0:
64,192,24766,1,0,0:0:0:0:
320,192,24766,1,0,0:0:0:0:
192,192,24942,1,0,0:0:0:0:
320,192,24942,1,0,0:0:0:0:
448,192,25119,128,0,25471:0:0:0:0:
320,192,25119,1,0,0:0:0:0:
64,192,25119,1,0,0:0:0:0:
64,192,25295,1,0,0:0:0:0:
192,192,25383,1,0,0:0:0:0:
64,192,25471,1,0,0:0:0:0:
320,192,25471,1,0,0:0:0:0:
192,192,25648,1,0,0:0:0:0:
448,192,25736,1,0,0:0:0:0:
320,192,25824,1,0,0:0:0:0:
64,192,25824,1,0,0:0:0:0:
192,192,26001,1,0,0:0:0:0:
320,192,26089,1,0,0:0:0:0:
64,192,26177,1,0,0:0:0:0:
448,192,26177,1,0,0:0:0:0:
320,192,26354,1,0,0:0:0:0:
64,192,26442,1,0,0:0:0:0:
448,192,26530,1,0,0:0:0:0:
192,192,26530,1,0,0:0:0:0:
192,192,26707,1,0,0:0:0:0:
64,192,26795,1,0,0:0:0:0:
320,192,26883,1,0,0:0:0:0:
448,192,26883,1,0,0:0:0:0:
64,192,27060,1,0,0:0:0:0:
320,192,27148,1,0,0:0:0:0:
192,192,27236,1,0,0:0:0:0:
448,192,27236,1,0,0:0:0:0:
448,192,27413,1,0,0:0:0:0:
192,192,27501,1,0,0:0:0:0:
64,192,27589,1,0,0:0:0:0:
320,192,27589,1,0,0:0:0:0:
192,192,27766,1,0,0:0:0:0:
320,192,27854,1,0,0:0:0:0:
448,192,27854,1,0,0:0:0:0:
64,192,27942,1,0,0:0:0:0:
192,192,28119,1,0,0:0:0:0:
320,192,28119,1,0,0:0:0:0:
448,192,28295,1,0,0:0:0:0:
64,192,28295,1,0,0:0:0:0:
320,192,28471,1,0,0:0:0:0:
448,192,28560,1,0,0:0:0:0:
64,192,28648,1,0,0:0:0:0:
192,192,28648,1,0,0:0:0:0:
320,192,28824,1,0,0:0:0:0:
64,192,28913,1,0,0:0:0:0:
192,192,29001,1,0,0:0:0:0:
448,192,29001,1,0,0:0:0:0:
320,192,29177,1,0,0:0:0:0:
64,192,29177,1,0,0:0:0:0:
448,192,29354,1,0,0:0:0:0:
192,192,29354,1,0,0:0:0:0:
192,192,29530,1,0,0:0:0:0:
320,192,29619,1,0,0:0:0:0:
64,192,29707,1,0,0:0:0:0:
192,192,29707,1,0,0:0:0:0:
320,192,29883,1,0,0:0:0:0:
448,192,29971,1,0,0:0:0:0:
192,192,30060,1,0,0:0:0:0:
64,192,30060,1,0,0:0:0:0:
448,192,30236,1,0,0:0:0:0:
192,192,30236,1,0,0:0:0:0:
320,192,30324,1,0,0:0:0:0:
64,192,30324,1,0,0:0:0:0:
192,192,30413,1,0,0:0:0:0:
448,192,30413,1,0,0:0:0:0:
320,192,30589,1,0,0:0:0:0:
448,192,30677,1,0,0:0:0:0:
64,192,30766,128,0,31119:0:0:0:0:
192,192,30766,1,0,0:0:0:0:
320,192,30766,1,0,0:0:0:0:
320,192,30942,1,0,0:0:0:0:
448,192,31030,1,0,0:0:0:0:
320,192,31119,1,0,0:0:0:0:
192,192,31119,1,0,0:0:0:0:
448,192,31295,1,0,0:0:0:0:
64,192,31383,1,0,0:0:0:0:
192,192,31471,1,0,0:0:0:0:
320,192,31471,1,0,0:0:0:0:
64,192,31648,1,0,0:0:0:0:
192,192,31736,1,0,0:0:0:0:
320,192,31824,1,0,0:0:0:0:
448,192,31824,1,0,0:0:0:0:
320,192,32001,1,0,0:0:0:0:
192,192,32089,1,0,0:0:0:0:
448,192,32177,1,0,0:0:0:0:
64,192,32177,1,0,0:0:0:0:
64,192,32354,1,0,0:0:0:0:
320,192,32442,1,0,0:0:0:0:
192,192,32530,1,0,0:0:0:0:
448,192,32530,1,0,0:0:0:0:
192,192,32707,1,0,0:0:0:0:
448,192,32795,1,0,0:0:0:0:
64,192,32883,1,0,0:0:0:0:
320,192,32883,1,0,0:0:0:0:
192,192,33060,1,0,0:0:0:0:
448,192,33148,1,0,0:0:0:0:
64,192,33236,1,0,0:0:0:0:
320,192,33236,1,0,0:0:0:0:
320,192,33413,1,0,0:0:0:0:
448,192,33501,1,0,0:0:0:0:
64,192,33589,1,0,0:0:0:0:
192,192,33589,1,0,0:0:0:0:
448,192,33766,1,0,0:0:0:0:
192,192,33766,1,0,0:0:0:0:
320,192,33854,1,0,0:0:0:0:
64,192,33942,1,0,0:0:0:0:
192,192,33942,1,0,0:0:0:0:
320,192,33986,1,0,0:0:0:0:
448,192,34030,1,0,0:0:0:0:
320,192,34074,1,0,0:0:0:0:
192,192,34119,1,0,0:0:0:0:
64,192,34163,1,0,0:0:0:0:
448,192,34207,1,0,0:0:0:0:
320,192,34251,1,0,0:0:0:0:
192,192,34295,1,0,0:0:0:0:
64,192,34295,1,0,0:0:0:0:
192,192,34471,1,0,0:0:0:0:
64,192,34560,1,0,0:0:0:0:
448,192,34648,1,0,0:0:0:0:
320,192,34648,1,0,0:0:0:0:
192,192,34824,1,0,0:0:0:0:
320,192,34913,1,0,0:0:0:0:
64,192,35001,1,0,0:0:0:0:
448,192,35001,1,0,0:0:0:0:
320,192,35177,1,0,0:0:0:0:
192,192,35177,1,0,0:0:0:0:
64,192,35266,1,0,0:0:0:0:
448,192,35354,1,0,0:0:0:0:
192,192,35354,1,0,0:0:0:0:
320,192,35530,1,0,0:0:0:0:
192,192,35619,1,0,0:0:0:0:
64,192,35707,1,0,0:0:0:0:
448,192,35707,1,0,0:0:0:0:
320,192,35883,1,0,0:0:0:0:
448,192,36060,1,0,0:0:0:0:
64,192,36060,1,0,0:0:0:0:
192,192,36236,1,0,0:0:0:0:
320,192,36324,1,0,0:0:0:0:
448,192,36413,128,0,36766:0:0:0:0:
192,192,36413,1,0,0:0:0:0:
64,192,36413,1,0,0:0:0:0:
320,192,36501,1,0,0:0:0:0:
192,192,36589,1,0,0:0:0:0:
320,192,36677,1,0,0:0:0:0:
64,192,36766,1,0,0:0:0:0:
192,192,36766,1,0,0:0:0:0:
320,192,36942,1,0,0:0:0:0:
64,192,37030,1,0,0:0:0:0:
448,192,37119,1,0,0:0:0:0:
192,192,37119,1,0,0:0:0:0:
64,192,37295,1,0,0:0:0:0:
320,192,37383,1,0,0:0:0:0:
192,192,37471,1,0,0:0:0:0:
448,192,37471,1,0,0:0:0:0:
64,192,37648,1,0,0:0:0:0:
192,192,37736,1,0,0:0:0:0:
320,192,37824,1,0,0:0:0:0:
64,192,37824,1,0,0:0:0:0:
448,192,38001,1,0,0:0:0:0:
320,192,38089,1,0,0:0:0:0:
192,192,38177,1,0,0:0:0:0:
64,192,38177,1,0,0:0:0:0:
192,192,38354,1,0,0:0:0:0:
320,192,38442,1,0,0:0:0:0:
64,192,38530,1,0,0:0:0:0:
448,192,38530,1,0,0:0:0:0:
192,192,38707,1,0,0:0:0:0:
64,192,38795,1,0,0:0:0:0:
320,192,38883,1,0,0:0:0:0:
448,192,38883,1,0,0:0:0:0:
64,192,39060,1,0,0:0:0:0:
192,192,39148,1,0,0:0:0:0:
448,192,39236,1,0,0:0:0:0:
320,192,39236,1,0,0:0:0:0:
320,192,39413,1,0,0:0:0:0:
448,192,39501,1,0,0:0:0:0:
192,192,39589,1,0,0:0:0:0:
64,192,39589,1,0,0:0:0:0:
320,192,39766,1,0,0:0:0:0:
64,192,39854,1,0,0:0:0:0:
320,192,39942,1,0,0:0:0:0:
448,192,39942,1,0,0:0:0:0:
192,192,40119,1,0,0:0:0:0:
64,192,40207,1,0,0:0:0:0:
448,192,40295,1,0,0:0:0:0:
320,192,40295,1,0,0:0:0:0:
64,192,40471,1,0,0:0:0:0:
448,192,40560,1,0,0:0:0:0:
192,192,40648,1,0,0:0:0:0:
320,192,40648,1,0,0:0:0:0:
448,192,40824,1,0,0:0:0:0:
64,192,40913,1,0,0:0:0:0:
320,192,41001,1,0,0:0:0:0:
192,192,41001,1,0,0:0:0:0:
192,192,41177,1,0,0:0:0:0:
448,192,41266,1,0,0:0:0:0:
320,192,41354,1,0,0:0:0:0:
64,192,41354,1,0,0:0:0:0:
192,192,41530,1,0,0:0:0:0:
448,192,41619,1,0,0:0:0:0:
64,192,41707,1,0,0:0:0:0:
320,192,41707,1,0,0:0:0:0:
192,192,41883,1,0,0:0:0:0:
64,192,41971,1,0,0:0:0:0:
320,192,42060,1,0,0:0:0:0:
448,192,42060,1,0,0:0:0:0:
64,192,42236,1,0,0:0:0:0:
320,192,42324,1,0,0:0:0:0:
192,192,42413,1,0,0:0:0:0:
448,192,42413,1,0,0:0:0:0:
192,192,42589,1,0,0:0:0:0:
64,192,42677,1,0,0:0:0:0:
320,192,42766,1,0,0:0:0:0:
448,192,42766,1,0,0:0:0:0:
64,192,42942,1,0,0:0:0:0:
192,192,43030,1,0,0:0:0:0:
448,192,43119,1,0,0:0:0:0:
320,192,43119,1,0,0:0:0:0:
320,192,43295,1,0,0:0:0:0:
192,192,43383,1,0,0:0:0:0:
64,192,43471,1,0,0:0:0:0:
448,192,43471,1,0,0:0:0:0:
192,192,43648,1,0,0:0:0:0:
448,192,43736,1,0,0:0:0:0:
320,192,43824,1,0,0:0:0:0:
192,192,43824,1,0,0:0:0:0:
64,192,44001,1,0,0:0:0:0:
320,192,44089,1,0,0:0:0:0:
192,192,44177,1,0,0:0:0:0:
448,192,44177,1,0,0:0:0:0:
448,192,44354,1,0,0:0:0:0:
64,192,44442,1,0,0:0:0:0:
320,192,44530,1,0,0:0:0:0:
192,192,44530,1,0,0:0:0:0:
192,192,44707,1,0,0:0:0:0:
64,192,44795,1,0,0:0:0:0:
448,192,44883,1,0,0:0:0:0:
320,192,44883,1,0,0:0:0:0:
64,192,45060,1,0,0:0:0:0:
192,192,45148,1,0,0:0:0:0:
320,192,45236,1,0,0:0:0:0:
64,192,45236,1,0,0:0:0:0:
448,192,45413,1,0,0:0:0:0:
320,192,45501,1,0,0:0:0:0:
192,192,45589,1,0,0:0:0:0:
448,192,45589,1,0,0:0:0:0:
64,192,45677,1,0,0:0:0:0:
320,192,45766,1,0,0:0:0:0:
448,192,45854,1,0,0:0:0:0:
64,192,45942,1,0,0:0:0:0:
320,192,45942,1,0,0:0:0:0:
192,192,46030,1,0,0:0:0:0:
320,192,46119,1,0,0:0:0:0:
192,192,46207,1,0,0:0:0:0:
448,192,46295,1,0,0:0:0:0:
64,192,46295,1,0,0:0:0:0:
192,192,46383,1,0,0:0:0:0:
448,192,46471,1,0,0:0:0:0:
64,192,46560,1,0,0:0:0:0:
320,192,46648,1,0,0:0:0:0:
192,192,46648,1,0,0:0:0:0:
448,192,46824,1,0,0:0:0:0:
320,192,46824,1,0,0:0:0:0:
64,192,47001,1,0,0:0:0:0:
192,192,47001,1,0,0:0:0:0:
320,192,47089,1,0,0:0:0:0:
192,192,47177,1,0,0:0:0:0:
448,192,47266,1,0,0:0:0:0:
64,192,47354,1,0,0:0:0:0:
320,192,47354,1,0,0:0:0:0:
192,192,47530,1,0,0:0:0:0:
448,192,47619,1,0,0:0:0:0:
320,192,47707,1,0,0:0:0:0:
64,192,47707,1,0,0:0:0:0:
192,192,47883,1,0,0:0:0:0:
320,192,47971,1,0,0:0:0:0:
192,192,48060,1,0,0:0:0:0:
64,192,48236,1,0,0:0:0:0:
448,192,48236,1,0,0:0:0:0:
320,192,48413,1,0,0:0:0:0:
192,192,48413,1,0,0:0:0:0:
448,192,48589,1,0,0:0:0:0:
192,192,48677,1,0,0:0:0:0:
64,192,48766,1,0,0:0:0:0:
320,192,48766,1,0,0:0:0:0:
320,192,48942,1,0,0:0:0:0:
448,192,49030,1,0,0:0:0:0:
192,192,49119,1,0,0:0:0:0:
64,192,49119,1,0,0:0:0:0:
320,192,49295,1,0,0:0:0:0:
64,192,49383,1,0,0:0:0:0:
448,192,49471,1,0,0:0:0:0:
192,192,49471,1,0,0:0:0:0:
192,192,49648,1,0,0:0:0:0:
64,192,49736,1,0,0:0:0:0:
320,192,49824,1,0,0:0:0:0:
448,192,49824,1,0,0:0:0:0:
448,192,50001,1,0,0:0:0:0:
320,192,50089,1,0,0:0:0:0:
192,192,50177,1,0,0:0:0:0:
64,192,50177,1,0,0:0:0:0:
64,192,50354,1,0,0:0:0:0:
192,192,50442,1,0,0:0:0:0:
320,192,50530,1,0,0:0:0:0:
448,192,50530,1,0,0:0:0:0:
192,192,50707,1,0,0:0:0:0:
64,192,50795,1,0,0:0:0:0:
448,192,50883,1,0,0:0:0:0:
320,192,50883,1,0,0:0:0:0:
192,192,51060,1,0,0:0:0:0:
320,192,51148,1,0,0:0:0:0:
64,192,51236,1,0,0:0:0:0:
448,192,51236,1,0,0:0:0:0:
320,192,51413,1,0,0:0:0:0:
448,192,51501,1,0,0:0:0:0:
192,192,51589,1,0,0:0:0:0:
64,192,51589,1,0,0:0:0:0:
320,192,51766,1,0,0:0:0:0:
192,192,51854,1,0,0:0:0:0:
64,192,51942,1,0,0:0:0:0:
448,192,51942,1,0,0:0:0:0:
192,192,52119,1,0,0:0:0:0:
64,192,52207,1,0,0:0:0:0:
320,192,52295,1,0,0:0:0:0:
448,192,52295,1,0,0:0:0:0:
64,192,52471,1,0,0:0:0:0:
320,192,52560,1,0,0:0:0:0:
192,192,52648,1,0,0:0:0:0:
448,192,52648,1,0,0:0:0:0:
64,192,52824,1,0,0:0:0:0:
192,192,52913,1,0,0:0:0:0:
320,192,53001,1,0,0:0:0:0:
64,192,53001,1,0,0:0:0:0:
192,192,53089,1,0,0:0:0:0:
448,192,53177,1,0,0:0:0:0:
64,192,53266,1,0,0:0:0:0:
192,192,53266,1,0,0:0:0:0:
320,192,53354,1,0,0:0:0:0:
448,192,53354,1,0,0:0:0:0:
320,192,53530,1,0,0:0:0:0:
192,192,53530,1,0,0:0:0:0:
64,192,53707,1,0,0:0:0:0:
448,192,53707,1,0,0:0:0:0:
320,192,53795,1,0,0:0:0:0:
192,192,53883,1,0,0:0:0:0:
64,192,53971,1,0,0:0:0:0:
448,192,54060,1,0,0:0:0:0:
320,192,54060,1,0,0:0:0:0:
192,192,54148,1,0,0:0:0:0:
320,192,54236,1,0,0:0:0:0:
448,192,54324,1,0,0:0:0:0:
320,192,54413,1,0,0:0:0:0:
192,192,54413,1,0,0:0:0:0:
64,192,54501,1,0,0:0:0:0:
192,192,54589,1,0,0:0:0:0:
320,192,54677,1,0,0:0:0:0:
192,192,54766,1,0,0:0:0:0:
448,192,54766,1,0,0:0:0:0:
64,192,54854,1,0,0:0:0:0:
320,192,54942,1,0,0:0:0:0:
192,192,55030,1,0,0:0:0:0:
448,192,55119,1,0,0:0:0:0:
64,192,55119,1,0,0:0:0:0:
320,192,55207,1,0,0:0:0:0:
192,192,55295,1,0,0:0:0:0:
320,192,55383,1,0,0:0:0:0:
64,192,55471,1,0,0:0:0:0:
448,192,55471,1,0,0:0:0:0:
192,192,55560,1,0,0:0:0:0:
320,192,55648,1,0,0:0:0:0:
192,192,55736,1,0,0:0:0:0:
320,192,55824,1,0,0:0:0:0:
448,192,55824,1,0,0:0:0:0:
64,192,55913,1,0,0:0:0:0:
192,192,56001,1,0,0:0:0:0:
320,192,56089,1,0,0:0:0:0:
192,192,56177,1,0,0:0:0:0:
64,192,56177,1,0,0:0:0:0:
320,192,56266,1,0,0:0:0:0:
448,192,56354,1,0,0:0:0:0:
64,192,56442,1,0,0:0:0:0:
320,192,56530,1,0,0:0:0:0:
192,192,56530,1,0,0:0:0:0:
448,192,56619,1,0,0:0:0:0:
64,192,56707,1,0,0:0:0:0:
192,192,56795,1,0,0:0:0:0:
320,192,56883,1,0,0:0:0:0:
64,192,56883,1,0,0:0:0:0:
448,192,56971,1,0,0:0:0:0:
192,192,57060,1,0,0:0:0:0:
320,192,57148,1,0,0:0:0:0:
64,192,57236,1,0,0:0:0:0:
448,192,57236,1,0,0:0:0:0:
192,192,57324,1,0,0:0:0:0:
320,192,57413,1,0,0:0:0:0:
192,192,57501,1,0,0:0:0:0:
448,192,57589,1,0,0:0:0:0:
320,192,57589,1,0,0:0:0:0:
64,192,57677,1,0,0:0:0:0:
320,192,57766,1,0,0:0:0:0:
192,192,57854,1,0,0:0:0:0:
448,192,57942,1,0,0:0:0:0:
320,192,57942,1,0,0:0:0:0:
64,192,58030,1,0,0:0:0:0:
192,192,58074,1,0,0:0:0:0:
320,192,58119,1,0,0:0:0:0:
448,192,58163,1,0,0:0:0:0:
64,192,58207,1,0,0:0:0:0:
192,192,58251,1,0,0:0:0:0:
448,192,58295,1,0,0:0:0:0:
320,192,58295,1,0,0:0:0:0:
64,192,58383,1,0,0:0:0:0:
192,192,58471,1,0,0:0:0:0:
448,192,58471,1,0,0:0:0:0:
320,192,58560,1,0,0:0:0:0:
192,192,58648,1,0,0:0:0:0:
64,192,58648,1,0,0:0:0:0:
320,192,58736,1,0,0:0:0:0:
64,192,58824,1,0,0:0:0:0:
448,192,58824,1,0,0:0:0:0:
192,192,58913,1,0,0:0:0:0:
320,192,59001,1,0,0:0:0:0:
64,192,59001,1,0,0:0:0:0:
192,192,59089,1,0,0:0:0:0:
320,192,59177,1,0,0:0:0:0:
448,192,59177,1,0,0:0:0:0:
192,192,59266,1,0,0:0:0:0:
448,192,59354,128,0,59707:0:0:0:0:
64,192,59354,1,0,0:0:0:0:
320,192,59354,1,0,0:0:0:0:
64,192,59707,1,0,0:0:0:0:
192,192,59707,1,0,0:0:0:0:
320,192,59883,1,0,0:0:0:0:
64,192,60060,1,0,0:0:0:0:
192,192,60148,1,0,0:0:0:0:
320,192,60148,1,0,0:0:0:0:
448,192,60324,1,0,0:0:0:0:
64,192,60413,1,0,0:0:0:0:
320,192,60501,1,0,0:0:0:0:
448,192,60677,1,0,0:0:0:0:
64,192,60766,1,0,0:0:0:0:
320,192,60766,1,0,0:0:0:0:
192,192,60942,1,0,0:0:0:0:
448,192,61119,1,0,0:0:0:0:
320,192,61119,1,0,0:0:0:0:
192,192,61295,1,0,0:0:0:0:
320,192,61471,1,0,0:0:0:0:
64,192,61471,1,0,0:0:0:0:
192,192,61648,1,0,0:0:0:0:
448,192,61824,1,0,0:0:0:0:
320,192,61824,1,0,0:0:0:0:
64,192,62001,1,0,0:0:0:0:
192,192,62001,1,0,0:0:0:0:
448,192,62177,128,0,62530:0:0:0:0:
320,192,62177,1,0,0:0:0:0:
64,192,62530,1,0,0:0:0:0:
192,192,62530,1,0,0:0:0:0:
192,192,62707,1,0,0:0:0:0:
320,192,62707,1,0,0:0:0:0:
448,192,62883,1,0,0:0:0:0:
192,192,62971,1,0,0:0:0:0:
64,192,62971,1,0,0:0:0:0:
320,192,63148,1,0,0:0:0:0:
448,192,63236,1,0,0:0:0:0:
64,192,63236,1,0,0:0:0:0:
192,192,63324,1,0,0:0:0:0:
448,192,63501,1,0,0:0:0:0:
192,192,63589,1,0,0:0:0:0:
64,192,63589,1,0,0:0:0:0:
320,192,63766,1,0,0:0:0:0:
64,192,63942,1,0,0:0:0:0:
448,192,63942,1,0,0:0:0:0:
192,192,64119,1,0,0:0:0:0:
64,192,64295,128,0,64648:0:0:0:0:
320,192,64295,1,0,0:0:0:0:
192,192,64471,1,0,0:0:0:0:
448,192,64648,1,0,0:0:0:0:
320,192,64648,1,0,0:0:0:0:
192,192,64824,1,0,0:0:0:0:
448,192,65001,128,0,65354:0:0:0:0:
64,192,65001,1,0,0:0:0:0:
320,192,65001,1,0,0:0:0:0:
64,192,65354,1,0,0:0:0:0:
192,192,65354,1,0,0:0:0:0:
448,192,65530,1,0,0:0:0:0:
320,192,65530,1,0,0:0:0:0:
64,192,65707,1,0,0:0:0:0:
192,192,65795,1,0,0:0:0:0:
320,192,65795,1,0,0:0:0:0:
448,192,65971,1,0,0:0:0:0:
64,192,66060,1,0,0:0:0:0:
192,192,66060,1,0,0:0:0:0:
320,192,66148,1,0,0:0:0:0:
64,192,66324,1,0,0:0:0:0:
448,192,66413,1,0,0:0:0:0:
192,192,66413,1,0,0:0:0:0:
64,192,66589,1,0,0:0:0:0:
448,192,66766,1,0,0:0:0:0:
192,192,66766,1,0,0:0:0:0:
320,192,66942,1,0,0:0:0:0:
192,192,67119,1,0,0:0:0:0:
64,192,67119,1,0,0:0:0:0:
320,192,67295,1,0,0:0:0:0:
448,192,67471,1,0,0:0:0:0:
192,192,67471,1,0,0:0:0:0:
64,192,67648,1,0,0:0:0:0:
320,192,67648,1,0,0:0:0:0:
448,192,67824,128,0,68177:0:0:0:0:
192,192,67824,1,0,0:0:0:0:
320,192,68177,1,0,0:0:0:0:
192,192,68177,1,0,0:0:0:0:
64,192,68354,1,0,0:0:0:0:
192,192,68354,1,0,0:0:0:0:
320,192,68530,1,0,0:0:0:0:
192,192,68619,1,0,0:0:0:0:
448,192,68619,1,0,0:0:0:0:
64,192,68795,1,0,0:0:0:0:
320,192,68883,1,0,0:0:0:0:
448,192,68883,1,0,0:0:0:0:
192,192,68971,1,0,0:0:0:0:
448,192,69148,1,0,0:0:0:0:
320,192,69236,1,0,0:0:0:0:
64,192,69236,1,0,0:0:0:0:
192,192,69413,1,0,0:0:0:0:
448,192,69589,1,0,0:0:0:0:
320,192,69589,1,0,0:0:0:0:
192,192,69766,1,0,0:0:0:0:
64,192,69942,128,0,70295:0:0:0:0:
448,192,69942,1,0,0:0:0:0:
320,192,70119,1,0,0:0:0:0:
448,192,70295,1,0,0:0:0:0:
192,192,70295,1,0,0:0:0:0:
320,192,70471,1,0,0:0:0:0:
64,192,70648,1,0,0:0:0:0:
192,192,70648,1,0,0:0:0:0:
320,192,70824,1,0,0:0:0:0:
64,192,70824,1,0,0:0:0:0:
192,192,71001,1,0,0:0:0:0:
320,192,71001,1,0,0:0:0:0:
448,192,71177,1,0,0:0:0:0:
192,192,71177,1,0,0:0:0:0:
320,192,71354,1,0,0:0:0:0:
192,192,71442,1,0,0:0:0:0:
64,192,71442,1,0,0:0:0:0:
320,192,71619,1,0,0:0:0:0:
192,192,71707,1,0,0:0:0:0:
64,192,71707,1,0,0:0:0:0:
448,192,71795,1,0,0:0:0:0:
64,192,71883,1,0,0:0:0:0:
192,192,71971,1,0,0:0:0:0:
448,192,72060,1,0,0:0:0:0:
320,192,72060,1,0,0:0:0:0:
64,192,72236,1,0,0:0:0:0:
448,192,72413,1,0,0:0:0:0:
192,192,72413,1,0,0:0:0:0:
320,192,72589,1,0,0:0:0:0:
192,192,72766,1,0,0:0:0:0:
64,192,72766,1,0,0:0:0:0:
320,192,72942,1,0,0:0:0:0:
448,192,73119,1,0,0:0:0:0:
192,192,73119,1,0,0:0:0:0:
64,192,73295,1,0,0:0:0:0:
320,192,73295,1,0,0:0:0:0:
192,192,73383,1,0,0:0:0:0:
320,192,73471,1,0,0:0:0:0:
448,192,73471,1,0,0:0:0:0:
64,192,73648,1,0,0:0:0:0:
320,192,73824,1,0,0:0:0:0:
448,192,73824,1,0,0:0:0:0:
192,192,74001,1,0,0:0:0:0:
448,192,74177,1,0,0:0:0:0:
320,192,74266,1,0,0:0:0:0:
192,192,74266,1,0,0:0:0:0:
64,192,74442,1,0,0:0:0:0:
448,192,74530,1,0,0:0:0:0:
320,192,74530,1,0,0:0:0:0:
192,192,74619,1,0,0:0:0:0:
64,192,74707,1,0,0:0:0:0:
320,192,74795,1,0,0:0:0:0:
448,192,74883,1,0,0:0:0:0:
192,192,74883,1,0,0:0:0:0:
64,192,75060,1,0,0:0:0:0:
192,192,75236,1,0,0:0:0:0:
320,192,75236,1,0,0:0:0:0:
448,192,75413,1,0,0:0:0:0:
64,192,75589,128,0,75942:0:0:0:0:
192,192,75589,1,0,0:0:0:0:
320,192,75589,1,0,0:0:0:0:
448,192,75766,1,0,0:0:0:0:
320,192,75766,1,0,0:0:0:0:
320,192,75942,1,0,0:0:0:0:
192,192,75942,1,0,0:0:0:0:
320,192,76119,1,0,0:0:0:0:
448,192,76119,1,0,0:0:0:0:
192,192,76207,1,0,0:0:0:0:
64,192,76295,1,0,0:0:0:0:
448,192,76295,1,0,0:0:0:0:
320,192,76471,1,0,0:0:0:0:
192,192,76648,1,0,0:0:0:0:
448,192,76648,1,0,0:0:0:0:
64,192,76824,1,0,0:0:0:0:
320,192,76824,1,0,0:0:0:0:
448,192,76913,1,0,0:0:0:0:
192,192,77001,1,0,0:0:0:0:
448,192,77089,1,0,0:0:0:0:
192,192,77177,1,0,0:0:0:0:
320,192,77266,1,0,0:0:0:0:
64,192,77354,1,0,0:0:0:0:
320,192,77442,1,0,0:0:0:0:
448,192,77530,1,0,0:0:0:0:
192,192,77619,1,0,0:0:0:0:
64,192,77707,1,0,0:0:0:0:
320,192,77707,1,0,0:0:0:0:
448,192,77883,1,0,0:0:0:0:
192,192,78060,1,0,0:0:0:0:
320,192,78060,1,0,0:0:0:0:
448,192,78236,1,0,0:0:0:0:
192,192,78413,1,0,0:0:0:0:
64,192,78413,1,0,0:0:0:0:
320,192,78589,1,0,0:0:0:0:
448,192,78766,1,0,0:0:0:0:
192,192,78766,1,0,0:0:0:0:
64,192,78942,1,0,0:0:0:0:
320,192,78942,1,0,0:0:0:0:
192,192,79030,1,0,0:0:0:0:
448,192,79119,128,0,79471:0:0:0:0:
64,192,79119,1,0,0:0:0:0:
320,192,79119,1,0,0:0:0:0:
192,192,79295,1,0,0:0:0:0:
64,192,79383,1,0,0:0:0:0:
192,192,79471,1,0,0:0:0:0:
320,192,79471,1,0,0:0:0:0:
320,192,79648,1,0,0:0:0:0:
192,192,79736,1,0,0:0:0:0:
448,192,79824,128,0,80177:0:0:0:0:
64,192,79824,1,0,0:0:0:0:
320,192,79824,1,0,0:0:0:0:
192,192,80001,1,0,0:0:0:0:
64,192,80089,1,0,0:0:0:0:
320,192,80177,1,0,0:0:0:0:
192,192,80177,1,0,0:0:0:0:
64,192,80354,1,0,0:0:0:0:
192,192,80442,1,0,0:0:0:0:
448,192,80530,1,0,0:0:0:0:
320,192,80530,1,0,0:0:0:0:
192,192,80707,1,0,0:0:0:0:
64,192,80795,1,0,0:0:0:0:
448,192,80883,1,0,0:0:0:0:
320,192,80883,1,0,0:0:0:0:
64,192,81060,1,0,0:0:0:0:
320,192,81060,1,0,0:0:0:0:
192,192,81148,1,0,0:0:0:0:
320,192,81236,1,0,0:0:0:0:
448,192,81236,1,0,0:0:0:0:
64,192,81413,1,0,0:0:0:0:
192,192,81413,1,0,0:0:0:0:
320,192,81501,1,0,0:0:0:0:
448,192,81589,1,0,0:0:0:0:
192,192,81589,1,0,0:0:0:0:
320,192,81677,1,0,0:0:0:0:
192,192,81766,1,0,0:0:0:0:
448,192,81766,1,0,0:0:0:0:
64,192,81854,1,0,0:0:0:0:
192,192,81942,1,0,0:0:0:0:
320,192,81942,1,0,0:0:0:0:
448,192,82030,1,0,0:0:0:0:
192,192,82119,1,0,0:0:0:0:
64,192,82119,1,0,0:0:0:0:
448,192,82207,1,0,0:0:0:0:
192,192,82295,1,0,0:0:0:0:
320,192,82295,1,0,0:0:0:0:
448,192,82471,1,0,0:0:0:0:
192,192,82471,1,0,0:0:0:0:
64,192,82560,1,0,0:0:0:0:
320,192,82648,1,0,0:0:0:0:
448,192,82648,1,0,0:0:0:0:
192,192,82736,1,0,0:0:0:0:
64,192,82824,1,0,0:0:0:0:
320,192,82824,1,0,0:0:0:0:
192,192,82913,1,0,0:0:0:0:
448,192,83001,1,0,0:0:0:0:
320,192,83001,1,0,0:0:0:0:
448,192,83177,1,0,0:0:0:0:
192,192,83177,1,0,0:0:0:0:
320,192,83266,1,0,0:0:0:0:
64,192,83354,1,0,0:0:0:0:
448,192,83354,1,0,0:0:0:0:
192,192,83530,1,0,0:0:0:0:
64,192,83530,1,0,0:0:0:0:
320,192,83619,1,0,0:0:0:0:
448,192,83707,1,0,0:0:0:0:
192,192,83707,1,0,0:0:0:0:
64,192,83883,1,0,0:0:0:0:
448,192,83883,1,0,0:0:0:0:
192,192,83971,1,0,0:0:0:0:
320,192,84060,1,0,0:0:0:0:
64,192,84060,1,0,0:0:0:0:
448,192,84236,1,0,0:0:0:0:
320,192,84236,1,0,0:0:0:0:
192,192,84324,1,0,0:0:0:0:
64,192,84413,1,0,0:0:0:0:
448,192,84413,1,0,0:0:0:0:
64,192,84589,1,0,0:0:0:0:
192,192,84589,1,0,0:0:0:0:
448,192,84677,1,0,0:0:0:0:
320,192,84766,1,0,0:0:0:0:
64,192,84810,1,0,0:0:0:0:
448,192,84854,1,0,0:0:0:0:
192,192,84942,1,0,0:0:0:0:
320,192,84942,1,0,0:0:0:0:
448,192,85030,1,0,0:0:0:0:
64,192,85119,1,0,0:0:0:0:
192,192,85119,1,0,0:0:0:0:
320,192,85207,1,0,0:0:0:0:
64,192,85295,1,0,0:0:0:0:
448,192,85295,1,0,0:0:0:0:
192,192,85383,1,0,0:0:0:0:
320,192,85471,1,0,0:0:0:0:
64,192,85471,1,0,0:0:0:0:
192,192,85560,1,0,0:0:0:0:
448,192,85648,1,0,0:0:0:0:
320,192,85648,1,0,0:0:0:0:
192,192,85736,1,0,0:0:0:0:
64,192,85824,1,0,0:0:0:0:
320,192,85824,1,0,0:0:0:0:
192,192,85913,1,0,0:0:0:0:
448,192,86001,1,0,0:0:0:0:
192,192,86089,1,0,0:0:0:0:
64,192,86089,1,0,0:0:0:0:
448,192,86177,1,0,0:0:0:0:
320,192,86177,1,0,0:0:0:0:
192,192,86221,1,0,0:0:0:0:
64,192,86266,1,0,0:0:0:0:
320,192,86354,1,0,0:0:0:0:
192,192,86354,1,0,0:0:0:0:
64,192,86442,1,0,0:0:0:0:
192,192,86486,1,0,0:0:0:0:
320,192,86530,1,0,0:0:0:0:
448,192,86530,1,0,0:0:0:0:
64,192,86619,1,0,0:0:0:0:
192,192,86619,1,0,0:0:0:0:
448,192,86707,1,0,0:0:0:0:
320,192,86707,1,0,0:0:0:0:
192,192,86751,1,0,0:0:0:0:
64,192,86795,1,0,0:0:0:0:
448,192,86883,1,0,0:0:0:0:
192,192,86883,1,0,0:0:0:0:
192,192,87236,1,0,0:0:0:0:
64,192,87236,1,0,0:0:0:0:
320,192,87413,1,0,0:0:0:0:
448,192,87501,1,0,0:0:0:0:
64,192,87589,1,0,0:0:0:0:
192,192,87589,1,0,0:0:0:0:
320,192,87766,1,0,0:0:0:0:
448,192,87942,1,0,0:0:0:0:
192,192,87942,1,0,0:0:0:0:
320,192,88119,1,0,0:0:0:0:
448,192,88207,1,0,0:0:0:0:
192,192,88295,1,0,0:0:0:0:
64,192,88295,1,0,0:0:0:0:
320,192,88471,1,0,0:0:0:0:
64,192,88560,1,0,0:0:0:0:
192,192,88648,1,0,0:0:0:0:
448,192,88648,1,0,0:0:0:0:
448,192,88824,1,0,0:0:0:0:
192,192,88913,1,0,0:0:0:0:
320,192,89001,1,0,0:0:0:0:
64,192,89001,1,0,0:0:0:0:
192,192,89177,1,0,0:0:0:0:
448,192,89266,1,0,0:0:0:0:
64,192,89354,1,0,0:0:0:0:
320,192,89354,1,0,0:0:0:0:
192,192,89530,1,0,0:0:0:0:
320,192,89619,1,0,0:0:0:0:
448,192,89707,1,0,0:0:0:0:
64,192,89707,1,0,0:0:0:0:
192,192,89883,1,0,0:0:0:0:
64,192,89971,1,0,0:0:0:0:
320,192,90060,1,0,0:0:0:0:
448,192,90060,1,0,0:0:0:0:
64,192,90236,1,0,0:0:0:0:
320,192,90324,1,0,0:0:0:0:
192,192,90413,1,0,0:0:0:0:
448,192,90413,1,0,0:0:0:0:
320,192,90589,1,0,0:0:0:0:
192,192,90677,1,0,0:0:0:0:
64,192,90766,1,0,0:0:0:0:
448,192,90766,1,0,0:0:0:0:
192,192,90942,1,0,0:0:0:0:
448,192,91030,1,0,0:0:0:0:
320,192,91119,1,0,0:0:0:0:
64,192,91119,1,0,0:0:0:0:
192,192,91295,1,0,0:0:0:0:
320,192,91383,1,0,0:0:0:0:
64,192,91471,1,0,0:0:0:0:
448,192,91471,1,0,0:0:0:0:
192,192,91648,1,0,0:0:0:0:
448,192,91736,1,0,0:0:0:0:
64,192,91824,1,0,0:0:0:0:
320,192,91824,1,0,0:0:0:0:
192,192,92001,1,0,0:0:0:0:
64,192,92089,1,0,0:0:0:0:
320,192,92177,1,0,0:0:0:0:
192,192,92177,1,0,0:0:0:0:
64,192,92354,1,0,0:0:0:0:
320,192,92442,1,0,0:0:0:0:
192,192,92530,1,0,0:0:0:0:
448,192,92530,1,0,0:0:0:0:
64,192,92707,1,0,0:0:0:0:
192,192,92795,1,0,0:0:0:0:
448,192,92883,1,0,0:0:0:0:
320,192,92883,1,0,0:0:0:0:
64,192,93060,1,0,0:0:0:0:
448,192,93148,1,0,0:0:0:0:
320,192,93236,1,0,0:0:0:0:
192,192,93236,1,0,0:0:0:0:
64,192,93413,1,0,0:0:0:0:
320,192,93501,1,0,0:0:0:0:
448,192,93589,1,0,0:0:0:0:
192,192,93589,1,0,0:0:0:0:
320,192,93766,1,0,0:0:0:0:
192,192,93854,1,0,0:0:0:0:
64,192,93942,1,0,0:0:0:0:
448,192,93942,1,0,0:0:0:0:
320,192,94119,1,0,0:0:0:0:
64,192,94207,1,0,0:0:0:0:
192,192,94295,1,0,0:0:0:0:
448,192,94295,1,0,0:0:0:0:
320,192,94471,1,0,0:0:0:0:
448,192,94560,1,0,0:0:0:0:
64,192,94648,1,0,0:0:0:0:
192,192,94648,1,0,0:0:0:0:
448,192,94824,1,0,0:0:0:0:
64,192,94913,1,0,0:0:0:0:
320,192,95001,1,0,0:0:0:0:
192,192,95001,1,0,0:0:0:0:
448,192,95089,1,0,0:0:0:0:
192,192,95177,1,0,0:0:0:0:
320,192,95266,1,0,0:0:0:0:
192,192,95354,1,0,0:0:0:0:
64,192,95354,1,0,0:0:0:0:
448,192,95530,1,0,0:0:0:0:
192,192,95619,1,0,0:0:0:0:
320,192,95707,1,0,0:0:0:0:
64,192,95707,1,0,0:0:0:0:
192,192,95883,1,0,0:0:0:0:
64,192,95971,1,0,0:0:0:0:
448,192,96060,1,0,0:0:0:0:
320,192,96060,1,0,0:0:0:0:
192,192,96236,1,0,0:0:0:0:
448,192,96324,1,0,0:0:0:0:
64,192,96413,1,0,0:0:0:0:
320,192,96413,1,0,0:0:0:0:
192,192,96589,1,0,0:0:0:0:
64,192,96677,1,0,0:0:0:0:
320,192,96766,1,0,0:0:0:0:
448,192,96766,1,0,0:0:0:0:
320,192,96942,1,0,0:0:0:0:
192,192,97030,1,0,0:0:0:0:
448,192,97119,1,0,0:0:0:0:
64,192,97119,1,0,0:0:0:0:
192,192,97295,1,0,0:0:0:0:
320,192,97383,1,0,0:0:0:0:
192,192,97471,1,0,0:0:0:0:
448,192,97471,1,0,0:0:0:0:
64,192,97648,1,0,0:0:0:0:
192,192,97736,1,0,0:0:0:0:
320,192,97824,1,0,0:0:0:0:
448,192,97824,1,0,0:0:0:0:
448,192,98001,1,0,0:0:0:0:
320,192,98089,1,0,0:0:0:0:
64,192,98177,1,0,0:0:0:0:
192,192,98177,1,0,0:0:0:0:
320,192,98354,1,0,0:0:0:0:
448,192,98442,1,0,0:0:0:0:
192,192,98530,1,0,0:0:0:0:
320,192,98707,1,0,0:0:0:0:
64,192,98795,1,0,0:0:0:0:
448,192,98883,1,0,0:0:0:0:
192,192,98883,1,0,0:0:0:0:
320,192,99060,1,0,0:0:0:0:
192,192,99148,1,0,0:0:0:0:
448,192,99236,1,0,0:0:0:0:
192,192,99324,1,0,0:0:0:0:
320,192,99413,1,0,0:0:0:0:
64,192,99413,1,0,0:0:0:0:
448,192,99501,1,0,0:0:0:0:
192,192,99589,1,0,0:0:0:0:
64,192,99766,1,0,0:0:0:0:
448,192,99766,1,0,0:0:0:0:
192,192,99854,1,0,0:0:0:0:
320,192,99854,1,0,0:0:0:0:
448,192,99942,1,0,0:0:0:0:
64,192,99942,1,0,0:0:0:0:
320,192,100119,1,0,0:0:0:0:
64,192,100295,1,0,0:0:0:0:
192,192,100295,1,0,0:0:0:0:
448,192,100383,1,0,0:0:0:0:
320,192,100471,1,0,0:0:0:0:
192,192,100471,1,0,0:0:0:0:
64,192,100560,1,0,0:0:0:0:
192,192,100648,1,0,0:0:0:0:
448,192,100648,1,0,0:0:0:0:
320,192,100736,1,0,0:0:0:0:
448,192,100824,1,0,0:0:0:0:
64,192,100824,1,0,0:0:0:0:
192,192,100913,1,0,0:0:0:0:
64,192,101001,1,0,0:0:0:0:
448,192,101001,1,0,0:0:0:0:
320,192,101089,1,0,0:0:0:0:
448,192,101177,1,0,0:0:0:0:
192,192,101177,1,0,0:0:0:0:
320,192,101266,1,0,0:0:0:0:
448,192,101354,128,0,101707:0:0:0:0:
192,192,101354,1,0,0:0:0:0:
64,192,101354,1,0,0:0:0:0:
320,192,101442,1,0,0:0:0:0:
192,192,101530,1,0,0:0:0:0:
64,192,101530,1,0,0:0:0:0:
320,192,101619,1,0,0:0:0:0:
192,192,101707,1,0,0:0:0:0:
64,192,101707,1,0,0:0:0:0:
320,192,101883,1,0,0:0:0:0:
192,192,101971,1,0,0:0:0:0:
64,192,102060,1,0,0:0:0:0:
448,192,102060,1,0,0:0:0:0:
320,192,102236,1,0,0:0:0:0:
64,192,102324,1,0,0:0:0:0:
192,192,102413,1,0,0:0:0:0:
448,192,102413,1,0,0:0:0:0:
320,192,102589,1,0,0:0:0:0:
64,192,102677,1,0,0:0:0:0:
448,192,102766,1,0,0:0:0:0:
192,192,102766,1,0,0:0:0:0:
64,192,102942,1,0,0:0:0:0:
192,192,103030,1,0,0:0:0:0:
320,192,103119,1,0,0:0:0:0:
448,192,103119,1,0,0:0:0:0:
64,192,103295,1,0,0:0:0:0:
448,192,103383,1,0,0:0:0:0:
192,192,103471,1,0,0:0:0:0:
320,192,103471,1,0,0:0:0:0:
64,192,103648,1,0,0:0:0:0:
448,192,103736,1,0,0:0:0:0:
320,192,103824,1,0,0:0:0:0:
192,192,103824,1,0,0:0:0:0:
448,192,104001,1,0,0:0:0:0:
192,192,104089,1,0,0:0:0:0:
448,192,104177,1,0,0:0:0:0:
64,192,104177,128,0,104530:0:0:0:0:
320,192,104177,1,0,0:0:0:0:
192,192,104354,1,0,0:0:0:0:
448,192,104442,1,0,0:0:0:0:
320,192,104530,1,0,0:0:0:0:
192,192,104530,1,0,0:0:0:0:
448,192,104707,1,0,0:0:0:0:
64,192,104795,1,0,0:0:0:0:
192,192,104883,1,0,0:0:0:0:
320,192,104883,1,0,0:0:0:0:
64,192,105060,1,0,0:0:0:0:
320,192,105148,1,0,0:0:0:0:
448,192,105236,1,0,0:0:0:0:
192,192,105236,1,0,0:0:0:0:
448,192,105413,1,0,0:0:0:0:
320,192,105501,1,0,0:0:0:0:
64,192,105589,1,0,0:0:0:0:
192,192,105589,1,0,0:0:0:0:
192,192,105766,1,0,0:0:0:0:
448,192,105854,1,0,0:0:0:0:
320,192,105942,1,0,0:0:0:0:
64,192,105942,1,0,0:0:0:0:
192,192,106119,1,0,0:0:0:0:
320,192,106207,1,0,0:0:0:0:
64,192,106295,1,0,0:0:0:0:
448,192,106295,1,0,0:0:0:0:
448,192,106471,1,0,0:0:0:0:
64,192,106560,1,0,0:0:0:0:
192,192,106648,1,0,0:0:0:0:
320,192,106648,1,0,0:0:0:0:
64,192,106824,1,0,0:0:0:0:
320,192,106913,1,0,0:0:0:0:
448,192,107001,1,0,0:0:0:0:
192,192,107001,1,0,0:0:0:0:
192,192,107177,1,0,0:0:0:0:
448,192,107266,1,0,0:0:0:0:
320,192,107354,1,0,0:0:0:0:
64,192,107354,1,0,0:0:0:0:
192,192,107530,1,0,0:0:0:0:
320,192,107530,1,0,0:0:0:0:
448,192,107707,1,0,0:0:0:0:
64,192,107707,1,0,0:0:0:0:
192,192,107883,1,0,0:0:0:0:
320,192,107883,1,0,0:0:0:0:
64,192,108060,1,0,0:0:0:0:
320,192,108060,1,0,0:0:0:0:
320,192,108236,1,0,0:0:0:0:
448,192,108236,1,0,0:0:0:0:
192,192,108324,1,0,0:0:0:0:
64,192,108413,1,0,0:0:0:0:
448,192,108413,1,0,0:0:0:0:
320,192,108501,1,0,0:0:0:0:
192,192,108589,1,0,0:0:0:0:
64,192,108589,1,0,0:0:0:0:
448,192,108677,1,0,0:0:0:0:
64,192,108766,1,0,0:0:0:0:
192,192,108766,1,0,0:0:0:0:
320,192,108854,1,0,0:0:0:0:
192,192,108942,1,0,0:0:0:0:
448,192,108942,1,0,0:0:0:0:
64,192,109030,1,0,0:0:0:0:
192,192,109119,1,0,0:0:0:0:
448,192,109119,1,0,0:0:0:0:
64,192,109207,1,0,0:0:0:0:
320,192,109295,1,0,0:0:0:0:
192,192,109295,1,0,0:0:0:0:
448,192,109383,1,0,0:0:0:0:
320,192,109471,1,0,0:0:0:0:
64,192,109471,1,0,0:0:0:0:
448,192,109560,1,0,0:0:0:0:
64,192,109648,1,0,0:0:0:0:
192,192,109648,1,0,0:0:0:0:
320,192,109736,1,0,0:0:0:0:
64,192,109824,128,0,110177:0:0:0:0:
448,192,109824,128,0,113001:0:0:0:0:
192,192,109824,1,0,0:0:0:0:
320,192,109913,1,0,0:0:0:0:
192,192,110001,1,0,0:0:0:0:
320,192,110089,1,0,0:0:0:0:
192,192,110177,1,0,0:0:0:0:
320,192,110177,1,0,0:0:0:0:
