osu file format v9

[General]
AudioFilename: 05 Rondo Alla Turca (RyuRemix).mp3
AudioLeadIn: 2000
PreviewTime: 28537
Countdown: 0
SampleSet: Normal
StackLeniency: 0.7
Mode: 1
LetterboxInBreaks: 1

[Editor]
Bookmarks: 228,15439,28960,42481,56002,69523,83044,96566,110087,116847,130368,143889,155720,165861
DistanceSpacing: 0.4
BeatDivisor: 4
GridSize: 4

[Metadata]
Title:Rondo Alla Turca (Ryu* Remix)
Artist:Ryu*
Creator:yeahyeahyeahhh
Version:lepidon! - Taiko Oni
Source:
Tags:Kischer Marsch AGEHA DeathStreams Streams Alla Turca Turkish March Mozart Sonata muya lepidopodus

[Difficulty]
HPDrainRate:5
CircleSize:5
OverallDifficulty:6
ApproachRate:5
SliderMultiplier:1.4
SliderTickRate:1

[Events]
//Background and Video events
0,0,"bg.jpg"
//Break Periods
//Storyboard Layer 0 (Background)
//Storyboard Layer 1 (Fail)
//Storyboard Layer 2 (Pass)
//Storyboard Layer 3 (Foreground)
//Storyboard Sound Samples
//Background Colour Transformations
3,100,163,162,255

[TimingPoints]
273,422.535211267606,4,1,0,80,1,0
29005,-100,4,1,0,90,0,0
56047,-100,4,1,0,90,0,1
69568,-100,4,1,0,90,0,0
130413,-100,4,1,0,90,0,1
143934,-100,4,1,0,80,0,0
154920,422.535211267606,4,1,0,80,1,0
169286,-100,4,1,0,70,0,0

[Colours]
Combo1 : 17,254,176
Combo2 : 173,255,95
Combo3 : 255,88,100
Combo4 : 255,94,55

[HitObjects]
364,160,273,1,4
328,96,1963,1,0
472,168,2174,1,8
496,184,2385,1,0
472,168,2596,1,8
472,168,2808,1,0
496,184,3019,1,8
496,184,3230,1,0
496,184,3442,1,8
236,172,3653,1,0
236,172,3758,1,0
392,176,3864,1,8
440,132,4075,1,0
472,168,4287,1,8
408,96,4498,1,0
408,96,4603,1,0
472,168,4709,1,8
424,168,4920,1,0
392,176,5132,1,8
236,172,5343,1,0
424,168,5554,1,8
464,200,5765,1,0
472,168,5977,1,8
488,188,6188,1,0
488,188,6399,1,8
488,188,6611,1,0
464,200,6822,1,8
468,112,7033,1,0
468,112,7139,1,0
472,168,7244,1,8
472,168,7456,1,0
464,200,7667,1,8
400,236,7878,1,0
400,236,7984,1,0
400,236,8089,1,0
400,236,8195,1,0
400,236,8301,1,0
100,128,8723,5,0
388,120,8934,1,8
460,156,9146,1,0
488,180,9357,1,8
488,180,9568,1,0
488,180,9780,1,8
408,200,9885,1,8
488,180,9991,1,0
448,204,10202,1,8
388,120,10413,1,0
388,120,10519,1,0
460,156,10625,1,8
432,176,10836,1,0
448,204,11047,1,8
448,204,11258,1,0
448,204,11364,1,0
448,204,11470,1,8
312,220,11681,1,0
384,248,11892,1,8
100,128,12103,1,0
388,120,12314,1,8
460,156,12526,1,0
488,180,12737,1,8
488,180,12948,1,0
488,180,13160,1,8
408,200,13265,1,8
488,180,13371,1,0
448,204,13582,1,8
200,184,13794,1,0
200,184,13899,1,0
200,184,14005,1,0
200,184,14216,1,0
200,184,14427,1,0
200,184,14639,1,0
200,184,14744,1,0
200,184,14850,1,0
200,184,14956,1,0
200,184,15061,1,0
100,128,15484,5,0
388,120,15695,1,8
460,156,15907,1,0
356,288,16012,1,0
488,180,16118,1,8
488,180,16329,1,0
488,180,16541,1,8
408,200,16646,1,8
488,180,16752,1,0
448,204,16963,1,8
388,120,17174,1,0
388,120,17280,1,0
460,156,17386,1,8
432,176,17597,1,0
448,204,17808,1,8
448,204,18019,1,0
448,204,18125,1,0
448,204,18231,1,8
312,220,18442,1,0
384,248,18653,1,8
100,128,18864,1,0
388,120,19075,1,8
460,156,19287,1,0
344,328,19392,1,0
488,180,19498,1,8
488,180,19709,1,0
488,180,19921,1,8
408,200,20026,1,8
488,180,20132,1,0
448,204,20343,1,8
184,160,20554,1,0
184,160,20660,1,0
296,152,20765,1,8
420,136,20977,1,0
420,136,21082,1,0
452,168,21188,1,8
304,296,21399,1,0
304,296,21505,1,0
304,296,21611,1,0
304,296,21716,1,0
304,296,21822,1,0
100,128,22244,5,0
388,120,22455,1,8
460,156,22667,1,0
356,288,22772,1,0
488,180,22878,1,8
488,180,23089,1,0
488,180,23301,1,8
408,200,23406,1,8
488,180,23512,1,0
448,204,23723,1,8
388,120,23934,1,0
388,120,24040,1,0
460,156,24146,1,8
432,176,24357,1,0
448,204,24568,1,8
448,204,24779,1,0
448,204,24885,1,0
448,204,24991,1,8
312,220,25202,1,0
384,248,25413,1,8
100,128,25624,1,0
388,120,25835,1,8
460,156,26047,1,0
344,328,26152,1,0
488,180,26258,1,8
488,180,26469,1,0
216,196,26575,1,0
488,180,26681,1,8
408,200,26786,1,8
488,180,26892,1,0
256,96,26998,1,0
448,204,27103,1,8
352,132,27315,1,4
460,176,28582,1,8
436,232,28688,1,0
436,232,28794,1,0
436,232,28899,1,0
400,168,29005,5,8
392,92,29427,1,8
392,92,29533,1,8
428,152,29639,1,0
428,152,29744,1,0
428,152,29850,1,8
468,160,30273,1,8
468,160,30378,1,8
468,160,30484,1,0
468,160,30589,1,8
456,196,30695,1,8
456,196,30801,1,0
456,196,30906,1,0
484,188,31012,1,8
484,188,31118,1,8
456,196,31223,1,0
484,188,31329,1,0
456,196,31434,1,8
456,196,31540,1,8
192,160,31963,1,0
328,156,32174,1,8
272,136,32385,1,0
272,136,32491,1,0
396,116,32596,1,8
472,160,32808,1,0
456,196,33019,1,8
456,196,33230,1,0
456,196,33336,1,0
456,196,33442,1,8
456,196,33653,1,0
416,212,33864,1,8
348,144,34075,1,0
348,144,34181,1,0
428,152,34287,1,8
428,152,34392,1,8
428,152,34498,1,0
464,160,34709,1,8
416,212,34920,1,0
472,236,35343,1,8
444,228,35449,1,0
444,228,35554,1,0
416,212,35660,1,0
400,168,35765,5,8
392,92,36187,1,8
392,92,36293,1,8
428,152,36399,1,0
428,152,36504,1,0
428,152,36610,1,8
468,160,37033,1,8
468,160,37138,1,8
468,160,37244,1,0
468,160,37349,1,8
456,196,37455,1,8
456,196,37561,1,0
456,196,37666,1,0
484,188,37772,1,8
484,188,37878,1,8
456,196,37983,1,0
484,188,38089,1,0
456,196,38194,1,8
456,196,38300,1,8
192,160,38723,1,0
328,156,38934,1,8
240,212,39146,1,0
240,212,39216,1,0
240,212,39287,1,0
364,232,39357,1,8
472,160,39568,1,0
456,196,39779,1,8
444,240,39991,1,0
444,240,40061,1,0
444,240,40132,1,0
444,240,40202,1,8
456,196,40413,1,0
416,212,40624,1,8
372,128,40836,1,4
416,132,41047,1,8
416,132,41258,1,4
460,160,41470,1,8
424,160,41681,1,4
274,240,42103,1,0
398,230,42315,1,8
280,116,42526,5,4
280,116,42737,1,4
432,128,42949,1,8
432,128,43054,1,8
424,160,43160,1,0
424,160,43265,1,0
424,160,43371,1,0
426,237,43794,1,0
490,188,44005,1,8
424,160,44216,1,4
424,160,44427,1,4
456,167,44639,1,8
456,167,44744,1,8
426,237,44850,1,0
426,237,44956,1,0
426,237,45061,1,0
234,164,45484,1,0
347,170,45695,1,8
347,143,45906,1,4
347,143,46118,1,4
448,141,46329,1,8
448,141,46434,1,8
472,160,46540,1,0
472,160,46646,1,8
499,177,46751,1,0
363,232,46963,1,8
363,232,47068,1,8
444,210,47174,1,0
444,210,47385,1,8
385,143,47596,1,4
320,145,47808,1,4
412,109,48019,1,8
412,109,48125,1,8
472,160,48230,1,0
499,177,48336,1,8
472,160,48442,1,0
490,242,48864,1,8
490,242,48970,1,0
490,242,49075,1,0
463,235,49181,1,0
415,236,49287,5,8
408,138,49709,1,8
408,138,49815,1,8
431,164,49920,1,0
431,164,50026,1,0
457,171,50132,1,8
454,145,50554,1,8
454,145,50660,1,8
482,164,50765,1,0
482,164,50871,1,8
482,164,50977,1,8
482,164,51082,1,0
482,164,51188,1,0
482,164,51294,1,8
482,164,51399,1,8
482,164,51505,1,0
482,164,51611,1,0
482,164,51716,1,8
485,191,51822,1,8
440,189,52244,1,0
380,215,52456,1,8
380,143,52667,1,12
340,151,52878,1,0
328,176,53089,1,0
454,136,53301,1,8
454,136,53512,1,12
454,136,53723,1,0
447,188,53934,1,8
460,213,54146,1,0
372,166,54357,2,0,B|171:224,1,210
284,92,55202,1,4
424,124,55625,1,4
424,124,55836,1,4
409,259,56047,5,12
407,190,56470,1,4
407,190,56681,1,4
458,196,56892,1,12
388,158,57103,1,8
388,158,57209,1,8
433,164,57315,1,0
407,190,57526,1,8
388,158,57737,1,0
388,158,57843,1,0
433,164,57949,1,8
177,203,58160,1,0
407,190,58371,1,8
266,178,58582,1,0
266,178,58688,1,0
266,178,58794,1,8
400,133,59005,1,4
414,108,59216,1,4
433,164,59427,1,12
407,190,59850,1,4
407,190,60061,1,4
433,164,60273,1,12
435,136,60484,1,8
435,136,60589,1,8
433,164,60695,1,0
424,216,60906,1,8
163,148,61118,1,0
163,148,61223,1,0
356,160,61329,1,8
340,204,61434,1,8
340,204,61540,1,0
340,204,61646,1,0
340,204,61751,1,0
340,204,61857,1,0
424,216,61963,1,8
392,123,62385,1,4
392,123,62596,1,4
457,145,62808,5,12
463,194,63230,1,4
463,194,63442,1,4
428,192,63653,1,12
457,145,63864,1,8
457,145,63970,1,8
422,164,64075,1,0
422,164,64287,1,8
240,177,64498,1,0
240,177,64603,1,0
422,164,64709,1,8
463,194,64815,1,8
463,194,64920,1,0
428,192,65132,1,8
463,194,65343,1,0
463,194,65449,1,0
463,194,65554,1,8
440,144,65765,1,4
440,144,65977,1,4
423,223,66188,1,12
398,172,66611,1,4
398,172,66822,1,4
463,194,67033,1,12
463,194,67244,1,12
463,194,67456,1,4
463,194,67667,1,12
397,212,67878,1,4
398,172,68089,1,12
380,126,68301,1,4
411,127,68512,1,4
336,184,68723,1,12
411,127,69146,1,8
411,127,69251,1,8
432,160,69357,1,0
492,168,69463,1,8
204,180,69568,5,0
416,212,69674,1,8
368,304,69780,1,0
368,304,69885,1,0
392,172,69991,1,0
432,160,70096,1,8
492,168,70202,1,0
352,192,70413,1,0
352,192,70519,1,0
448,200,70625,1,8
448,200,70730,1,8
496,208,70836,1,0
496,208,70942,1,0
416,212,71047,1,8
408,120,71258,1,8
456,132,71364,1,0
456,132,71470,1,0
432,160,71575,1,8
456,132,71681,1,8
492,168,71787,1,0
492,168,71892,1,0
448,200,71998,1,8
416,212,72103,1,8
448,200,72209,1,0
448,200,72315,1,8
496,208,72420,1,0
352,236,72526,1,8
204,180,72949,1,0
416,212,73055,1,8
368,304,73161,1,0
368,304,73266,1,0
392,172,73372,1,0
432,160,73477,1,8
492,168,73583,1,0
352,192,73794,1,0
352,192,73900,1,0
448,200,74006,1,8
448,200,74111,1,8
496,208,74217,1,0
496,208,74323,1,0
416,212,74428,1,8
224,128,74639,1,0
224,128,74744,1,0
384,128,74850,1,8
384,128,74956,1,8
424,128,75061,1,0
424,128,75167,1,0
484,144,75273,1,8
504,164,75378,1,0
504,164,75484,1,8
360,232,75906,1,8
360,232,76012,1,8
436,248,76118,1,0
480,232,76223,1,8
316,168,76329,5,0
380,188,76540,1,8
380,188,76751,1,8
380,188,76963,1,8
444,160,77174,1,0
444,160,77280,1,8
444,160,77385,1,8
444,160,77491,1,8
476,168,77596,1,0
476,168,77702,1,8
476,168,77808,1,8
476,168,77913,1,8
396,160,78019,1,0
488,200,78230,1,8
488,200,78442,1,8
476,168,78653,1,8
476,168,78864,1,0
476,168,78970,1,8
476,168,79075,1,8
476,168,79181,1,8
476,168,79287,1,0
476,168,79392,1,8
476,168,79498,1,8
476,168,79603,1,8
388,184,79709,1,0
432,192,79920,1,8
432,192,80132,1,8
432,192,80237,1,8
432,192,80343,1,8
432,192,80449,1,8
468,240,80554,1,0
352,268,80765,1,8
368,152,80977,1,8
368,152,81082,1,8
368,152,81188,1,8
432,192,81294,1,8
316,100,81399,1,0
296,116,81716,1,0
200,52,81927,1,0
296,116,82033,1,0
388,204,82244,1,4
416,152,82667,1,12
260,292,83089,5,0
260,292,83195,1,0
456,196,83301,1,8
456,196,83406,1,8
476,180,83512,1,0
476,180,83618,1,0
476,180,83723,1,8
384,168,83934,1,8
384,168,84040,1,8
492,148,84146,1,0
492,148,84251,1,0
492,148,84357,1,8
492,148,84463,1,8
456,196,84568,1,0
232,152,84780,1,0
232,152,84885,1,0
384,168,84991,1,8
384,168,85096,1,8
408,184,85202,1,0
408,184,85308,1,0
384,232,85413,1,8
485,203,85625,1,0
410,214,85836,1,8
416,152,86047,1,8
416,152,86153,1,8
441,219,86258,1,0
410,214,86364,1,0
252,129,86470,1,0
279,135,86575,1,0
472,149,86681,1,8
472,149,86787,1,8
472,149,86892,1,0
472,149,86998,1,0
443,168,87103,1,8
443,168,87315,1,8
443,168,87420,1,8
472,149,87526,1,0
472,149,87632,1,0
472,149,87737,1,8
472,149,87843,1,8
465,198,87949,1,0
380,208,88160,1,0
441,212,88265,1,8
465,198,88371,1,0
465,198,88477,1,0
465,198,88582,1,0
465,198,88688,1,8
465,198,88794,1,0
465,198,88899,1,0
441,212,89005,1,0
411,127,89427,1,8
411,127,89532,1,8
432,160,89638,1,0
492,168,89744,1,8
204,180,89849,5,0
416,212,89955,1,8
368,304,90061,1,0
368,304,90166,1,0
392,172,90272,1,0
432,160,90377,1,8
492,168,90483,1,0
352,192,90694,1,0
352,192,90800,1,0
448,200,90906,1,8
448,200,91011,1,8
496,208,91117,1,0
496,208,91223,1,0
416,212,91328,1,8
408,120,91539,1,8
456,132,91645,1,0
456,132,91751,1,0
432,160,91856,1,8
456,132,91962,1,8
492,168,92068,1,0
492,168,92173,1,0
448,200,92279,1,8
416,212,92384,1,8
235,169,92491,1,0
235,169,92596,1,0
375,215,92702,1,8
375,215,92808,1,8
384,95,93230,1,8
411,116,93336,1,0
456,132,93442,1,8
457,163,93547,1,0
457,163,93653,1,8
492,168,93758,1,0
457,163,93864,1,8
457,163,93970,1,0
364,198,94075,1,8
364,198,94181,1,8
426,238,94287,1,0
426,238,94392,1,0
464,212,94498,1,8
464,212,94603,1,8
496,200,94709,1,0
213,132,94920,1,0
213,132,95026,1,0
335,99,95132,1,8
423,130,95237,1,0
423,130,95343,1,0
423,130,95449,1,0
485,152,95554,1,8
462,164,95660,1,0
485,152,95765,1,8
425,212,96188,1,8
425,212,96294,1,8
400,268,96399,1,0
400,268,96505,1,0
260,292,96611,5,0
260,292,96717,1,0
456,196,96823,1,8
456,196,96928,1,8
476,180,97034,1,0
476,180,97140,1,0
476,180,97245,1,8
384,168,97456,1,8
384,168,97562,1,8
492,148,97668,1,0
492,148,97773,1,0
492,148,97879,1,8
492,148,97985,1,8
456,196,98090,1,0
232,152,98302,1,0
232,152,98407,1,0
384,168,98513,1,8
384,168,98618,1,8
408,184,98724,1,0
408,184,98830,1,0
384,232,98935,1,8
485,203,99147,1,0
410,214,99358,1,8
416,152,99569,1,8
416,152,99675,1,8
441,219,99780,1,0
410,214,99886,1,0
252,129,99992,1,0
279,135,100097,1,0
472,149,100203,1,8
472,149,100309,1,8
472,149,100414,1,0
472,149,100520,1,0
443,168,100625,1,8
333,240,100730,1,8
443,168,100837,1,8
443,168,100942,1,8
472,149,101048,1,0
472,149,101154,1,0
472,149,101259,1,8
472,149,101365,1,8
465,198,101471,1,0
380,208,101682,1,0
441,212,101787,1,8
465,198,101893,1,0
465,198,101999,1,0
465,198,102104,1,0
465,198,102210,1,8
465,198,102316,1,0
465,198,102421,1,0
441,212,102527,1,0
411,127,102949,1,8
411,127,103054,1,8
432,160,103160,1,0
492,168,103266,1,8
204,180,103371,5,0
416,212,103477,1,8
368,304,103583,1,0
368,304,103688,1,0
392,172,103794,1,0
432,160,103899,1,8
492,168,104005,1,0
352,192,104216,1,0
352,192,104322,1,0
448,200,104428,1,8
448,200,104533,1,8
496,208,104639,1,0
496,208,104745,1,0
416,212,104850,1,8
408,120,105061,1,8
456,132,105167,1,0
456,132,105273,1,0
432,160,105378,1,8
456,132,105484,1,8
492,168,105590,1,0
492,168,105695,1,0
448,200,105801,1,8
416,212,105906,1,8
235,169,106013,1,0
235,169,106118,1,0
375,215,106224,1,8
375,215,106330,1,8
371,133,106751,1,4
466,160,106963,1,8
393,196,107385,1,8
393,196,107808,1,8
393,196,108230,1,8
426,155,108442,1,0
426,155,108547,1,0
426,155,108653,1,8
445,176,108758,1,0
445,176,108864,1,0
445,176,108970,1,0
445,176,109075,1,8
445,176,109181,1,0
393,196,109287,1,8
347,124,109709,1,4
393,123,109920,1,4
236,66,110132,5,12
417,256,111822,1,4
310,301,113089,1,4
310,301,113512,1,4
347,320,115202,1,4
320,172,115625,1,4
320,172,116047,1,4
425,169,116892,5,4
422,231,117315,1,8
367,290,117737,1,8
367,290,118160,1,8
343,236,118582,1,8
343,236,119005,1,8
343,236,119427,1,8
448,140,119850,1,4
382,204,120273,1,4
348,186,120695,1,8
382,204,121118,1,8
382,204,121540,1,8
360,137,121963,1,4
331,164,122385,1,4
331,164,122808,1,4
176,114,123653,5,0
436,194,123864,1,8
436,194,124075,1,8
408,195,124287,1,8
436,194,124498,1,0
438,166,124603,1,8
438,166,124709,1,8
438,166,124815,1,8
482,189,124920,1,0
482,189,125026,1,8
482,189,125132,1,8
482,189,125237,1,8
436,194,125343,1,0
436,194,125554,1,8
436,194,125765,1,8
436,194,125977,1,8
482,189,126188,1,0
436,194,126294,1,8
436,194,126399,1,8
436,194,126505,1,8
436,194,126611,1,0
436,194,126716,1,8
436,194,126822,1,8
436,194,126927,1,8
389,174,127033,1,0
436,194,127244,1,8
454,141,127456,1,8
454,141,127561,1,8
454,141,127667,1,8
454,141,127773,1,8
436,194,127878,1,0
405,197,128089,1,8
389,174,128301,1,8
389,174,128406,1,8
389,174,128512,1,8
389,174,128618,1,8
421,251,128723,1,0
421,251,129040,1,0
265,203,129251,1,0
265,203,129357,1,0
420,164,129568,1,4
376,104,129991,1,4
376,104,130202,1,4
219,36,130413,5,12
386,253,130836,1,4
386,253,131047,1,4
447,216,131258,1,12
451,172,131470,1,8
451,172,131575,1,8
447,216,131681,1,0
392,228,131892,1,8
456,137,132103,1,0
456,137,132209,1,0
451,172,132315,1,8
424,192,132526,1,0
366,222,132737,1,8
447,216,132843,1,8
476,161,132949,1,0
451,172,133054,1,8
447,216,133160,1,0
292,140,133371,1,4
324,156,133582,1,4
380,168,133794,1,12
408,184,134216,1,4
408,184,134427,1,4
408,184,134639,1,12
452,128,134850,1,8
452,128,134956,1,8
468,168,135061,1,0
408,184,135273,1,8
376,176,135484,1,0
376,176,135589,1,0
468,168,135695,1,8
468,168,135801,1,8
468,168,135906,1,0
468,168,136012,1,0
468,168,136118,1,0
468,168,136223,1,0
396,224,136329,1,8
440,140,136751,1,4
440,140,136963,1,4
336,96,137174,5,12
412,172,137596,1,4
456,196,137808,1,4
408,232,138019,1,12
440,140,138230,1,8
440,140,138336,1,8
456,196,138442,1,0
408,232,138653,1,8
322,179,138864,1,0
322,179,138970,1,0
456,136,139075,1,8
456,136,139181,1,8
416,201,139287,1,0
456,196,139498,1,8
456,196,139603,1,8
456,196,139709,1,0
483,180,139815,1,8
456,196,139920,1,0
456,136,140132,1,4
456,136,140343,1,4
324,224,140554,1,12
383,125,140977,1,4
383,125,141188,1,4
383,248,141399,1,12
420,172,141611,1,12
447,203,141822,1,4
348,193,142033,1,12
420,172,142244,1,4
420,172,142456,1,4
319,245,143089,1,4
319,245,143301,1,4
356,169,143934,5,12
422,151,144780,1,12
368,153,145625,1,8
368,153,145730,1,8
444,168,145836,1,0
444,168,145942,1,8
444,168,146047,1,8
444,168,146153,1,8
476,190,146258,1,0
442,199,146364,1,8
442,199,146470,1,8
332,180,147315,1,8
384,168,147420,1,8
366,290,147526,1,8
366,290,147737,1,8
310,233,147843,1,8
366,290,147949,1,8
445,176,148160,1,0
380,216,148794,1,0
323,120,149005,5,12
452,170,149850,1,12
484,132,150695,1,8
484,132,150801,1,8
491,169,150906,1,0
491,169,151012,1,8
491,169,151118,1,8
491,169,151223,1,8
481,198,151329,1,0
481,198,151434,1,8
460,216,151540,1,8
316,133,152385,1,12
393,164,153230,1,0
393,164,153336,1,0
393,164,153442,1,0
392,202,153653,1,0
392,202,153758,1,0
392,202,153864,1,0
355,156,154075,5,4
318,181,154287,1,4
393,164,154498,1,12
369,309,154919,1,4
428,144,155130,1,4
363,267,155764,1,12
454,158,156610,1,8
454,158,156715,1,8
454,158,156821,1,0
473,176,156926,1,8
473,176,157032,1,8
473,176,157138,1,8
473,176,157243,1,0
473,176,157349,1,8
473,176,157455,1,8
312,193,158300,1,8
312,193,158405,1,8
312,193,158511,1,8
392,220,158616,1,8
312,193,158722,1,8
312,193,158828,1,8
312,193,158933,1,8
434,175,159145,1,0
195,128,159779,1,0
339,140,159990,5,12
368,212,160834,1,12
464,168,161679,1,8
464,168,161785,1,8
464,168,161890,1,0
464,168,161996,1,8
464,168,162102,1,8
464,168,162207,1,8
416,176,162313,1,0
416,216,162419,1,8
416,216,162524,1,8
372,200,163369,1,12
248,224,164214,1,8
248,224,164320,1,8
248,224,164426,1,0
248,224,164531,1,0
248,224,164637,1,8
248,224,164742,1,8
248,224,164848,1,0
156,100,165059,5,4
360,180,165271,1,4
392,196,165693,1,12
388,340,165904,1,4
412,180,166538,1,12
408,240,166749,1,4
320,276,166961,1,4
448,176,167383,1,12
408,240,167595,1,4
428,220,167806,1,12
428,220,168017,1,4
428,220,168228,1,12
408,240,168440,1,4
356,228,168862,1,12
256,192,169285,12,0,170764
276,144,170975,5,4
