osu file format v9

[General]
AudioFilename: 05 Rondo Alla Turca (RyuRemix).mp3
AudioLeadIn: 1500
PreviewTime: 28537
Countdown: 0
SampleSet: Soft
StackLeniency: 0.7
Mode: 0
LetterboxInBreaks: 1

[Editor]
Bookmarks: 228,15439,28960,42481,56002,69523,83044,96566,110087,116847,130368,143889,155720,165861
DistanceSpacing: 1
BeatDivisor: 4
GridSize: 4

[Metadata]
Title:Rondo Alla Turca (Ryu* Remix)
Artist:Ryu*
Creator:yeahyeahyeahhh
Version:Relaxing
Source:
Tags:Kischer Marsch AGEHA DeathStreams Streams Alla Turca Turkish March Mozart Sonata muya lepidopodus

[Difficulty]
HPDrainRate:3
CircleSize:4
OverallDifficulty:5
ApproachRate:5
SliderMultiplier:1.44
SliderTickRate:1

[Events]
//Background and Video events
0,0,"bg.jpg"
//Break Periods
2,110332,115647
//Storyboard Layer 0 (Background)
//Storyboard Layer 1 (Fail)
//Storyboard Layer 2 (Pass)
//Storyboard Layer 3 (Foreground)
//Storyboard Sound Samples
//Background Colour Transformations
3,100,163,162,255

[TimingPoints]
273,422.535211267606,4,1,0,50,1,0
378,-100,4,1,0,75,0,0
40730,-100,4,1,1,75,0,0
41047,-100,4,2,0,75,0,0
41892,-100,4,1,1,75,0,0
42315,-100,4,1,0,75,0,0
83089,-100,4,1,0,75,0,1
83195,-100,4,1,0,75,0,0
118371,-100,4,1,1,75,0,0
118794,-100,4,1,0,75,0,0
130413,-100,4,1,0,75,0,1
130519,-100,4,1,0,75,0,0
143512,-100,4,2,0,85,0,0
148054,-100,4,1,0,55,0,0
148899,-100,4,2,0,85,0,0
154920,422.535211267606,4,2,0,85,1,0
169392,-100,4,2,0,45,0,0

[Colours]
Combo1 : 17,254,176
Combo2 : 173,255,95
Combo3 : 255,88,100
Combo4 : 255,94,55

[HitObjects]
256,192,273,1,8
80,200,1963,5,4
132,336,2385,1,0
256,260,2808,1,0
380,336,3230,1,0
432,200,3653,6,0,B|476:128|432:48,2,144
432,200,4920,1,0
300,136,5343,6,0,B|224:92|148:136,1,144,0|0
68,236,6188,2,0,B|144:280|220:236,1,144,0|0
348,212,7033,5,0
448,316,7456,1,0
308,348,7878,1,0
200,80,8723,5,4
56,64,9146,1,8
128,344,9991,5,8
256,280,10413,1,0
384,344,10836,1,8
456,64,11681,5,8
312,80,12103,1,0
404,192,12526,1,8
124,260,13371,5,8
256,192,13794,1,0
164,80,14216,1,0
36,144,14639,1,0
36,144,15484,5,4
44,288,15906,2,8,B|168:388|316:320,3,288
460,332,18864,5,0
404,200,19287,2,8,B|276:96|128:172,3,288
32,68,22244,6,0,B|120:88|176:32,1,144,4|8
312,32,23089,2,0,B|456:88,1,144,0|8
468,228,23934,5,0
420,364,24357,1,8
304,280,24779,1,0
280,140,25201,1,8
168,232,25625,6,0,B|20:272,3,144,0|8|0|8
64,132,27315,1,4
440,344,28582,6,0,B|492:288|476:208,1,144,0|4
380,104,29427,2,0,B|328:160|344:240,1,144,0|0
224,320,30273,2,0,B|144:332|84:288,1,144
60,148,31118,1,0
172,72,31540,2,0,B|196:140|168:220,1,144
304,264,32385,5,0
352,316,32596,1,0
424,320,32808,1,0
472,184,33230,5,0
424,132,33441,1,0
352,128,33653,1,0
208,144,34075,2,0,B|141:93|135:8,2,144
352,128,35343,6,0,B|367:205|315:261,1,144,0|4
212,364,36188,2,0,B|268:324|368:344,1,144,8|0
224,272,37034,2,0,B|144:284|84:240,1,144,8|0
32,108,37879,1,8
164,56,38301,2,0,B|232:32|312:60,1,144,0|8
424,140,39146,6,0,B|444:232,2,72,0|0|8
292,200,39991,2,0,B|312:292,2,72,0|0|8
160,252,40836,5,4
84,128,41258,1,4
212,64,41681,1,4
344,120,42103,6,0,B|444:108,1,72,4|0
444,180,42526,2,0,B|352:192,1,72,4|0
300,204,42949,2,0,B|232:244|228:332,1,144,8|0
84,316,43794,6,0,B|-4:292,1,72,8|0
28,224,44217,2,0,B|104:244,1,72,0|0
160,204,44640,2,0,B|228:164|232:76,1,144,8|0
368,48,45484,6,0,B|380:148,1,72,8|0
384,192,45907,2,0,B|296:204,1,72,4|0
244,228,46330,2,0,B|232:300|272:380,1,144,8|4
408,336,47174,6,0,B|508:324,1,72,8|0
484,248,47597,2,0,B|492:84,2,144,4|4|4
344,272,48864,6,0,B|267:287|211:235,1,144,0|4
84,168,49709,2,0,B|139:128|221:145,1,144,8|0
364,180,50555,2,0,B|376:100|332:40,1,144,8|0
188,44,51400,1,8
60,108,51822,2,0,B|36:176|64:256,1,144,0|8
200,296,52667,6,0,B|160:380,2,72,4|0|8
316,208,53512,2,0,B|356:292,2,72,4|0|8
180,156,54357,5,4
252,32,54779,1,0
380,100,55202,1,4
92,88,56047,6,0,B|69:170|95:259,1,144,4|0
160,356,56892,1,0
240,236,57315,1,0
384,216,57737,6,0,B|457:247,1,72
416,308,58160,2,0,B|344:280,1,72
312,220,58582,2,0,B|276:80,1,144
152,156,59427,6,0,B|159:232|103:287,1,144
16,172,60273,1,0
84,44,60695,1,0
216,104,61118,6,0,B|256:120|296:104,1,72
260,40,61540,2,0,B|290:27|330:43,1,72
380,92,61963,1,0
476,304,62808,6,0,B|409:343|322:330,2,144,0|8|0
488,232,63864,1,0
420,208,64075,2,0,B|344:189,1,72,8|0
280,212,64498,5,0
180,316,64920,1,8
60,236,65343,2,0,B|43:197|55:140,1,72
76,96,65765,1,8
212,44,66188,5,4
276,324,67032,1,4
492,132,67878,5,4
364,68,68301,1,0
316,204,68723,2,0,B|156:228|80:76,1,288,4|4
36,216,69991,5,0
108,340,70413,1,0
180,216,70836,1,0
256,340,71258,1,0
332,216,71681,1,0
404,340,72104,1,0
476,168,72949,5,4
404,44,73371,1,0
332,168,73794,1,0
256,44,74216,1,0
180,168,74639,1,0
108,44,75062,1,0
36,168,75484,1,0
256,352,76329,5,4
256,32,78019,1,4
120,320,79709,5,4
396,236,80554,1,4
144,100,81399,5,4
256,192,81822,1,0
304,56,82244,1,4
52,192,83089,6,0,B|96:256|80:340,2,144,4|0|0
144,84,84357,1,0
224,204,84780,6,0,B|308:224|368:172,1,144
428,52,85625,1,0
488,184,86047,1,0
452,324,86470,6,0,B|304:312,1,144
168,340,87315,1,0
112,208,87737,1,0
252,168,88160,6,0,B|272:96|216:24,2,144
72,72,89850,5,4
44,212,90273,1,8
260,340,91118,5,8
184,220,91540,1,0
328,220,91963,1,8
440,72,92808,5,8
468,212,93230,2,0,B|416:272|432:356,1,144,0|8
288,360,94075,2,0,B|256:208,1,144,0|8
232,76,94920,2,0,B|384:56,3,144,0|8|0|8
500,132,96611,5,4
372,200,97033,1,8
228,216,97456,1,0
112,132,97878,1,8
32,252,98301,6,0,B|108:264|164:348,1,144,0|8
296,352,99146,2,0,B|444:328,1,144,0|8
484,180,99991,5,0
416,52,100413,1,8
304,140,100836,1,0
372,268,101258,1,8
228,256,101681,6,0,B|168:208|176:124,2,144,0|8|0
284,124,102949,1,8
172,36,103371,6,8,B|92:24|24:48,1,144,4|8
44,188,104216,2,0,B|72:252|80:352,1,144,0|8
220,332,105061,6,0,B|272:300|360:308,2,144,4|8|0
152,204,106329,1,8
248,96,106751,5,4
436,312,107596,1,0
148,288,108442,5,0
52,180,108864,1,0
192,148,109287,1,0
472,212,110132,5,4
188,88,116892,5,4
60,152,117315,1,0
76,296,117737,1,0
216,332,118160,1,0
292,212,118582,5,4
428,264,119005,1,0
508,156,119427,1,0
436,32,119850,1,0
296,60,120273,5,4
192,160,120695,1,0
320,224,121118,1,0
216,324,121540,1,0
84,264,121963,6,0,B|52:120,2,144,4|4|4
360,340,123653,5,4
484,272,124075,1,0
416,144,124498,2,0,B|270:201|138:125,1,288,0|4
36,24,125765,5,0
24,168,126188,2,0,B|176:216|248:352,1,288,0|4
488,216,127878,1,4
232,80,128723,5,4
240,224,129146,1,0
372,164,129568,1,0
144,344,130413,6,0,B|121:262|147:173,1,144,4|8
172,60,131258,1,0
284,152,131681,1,8
432,172,132103,6,0,B|505:141,1,72
472,76,132526,2,0,B|400:104,1,72,8|0
360,160,132948,2,0,B|324:300,1,144,0|8
192,352,133793,6,0,B|199:276|143:221,1,144,0|8
24,144,134639,1,0
144,64,135061,1,8
280,108,135484,6,0,B|264:148|280:188,1,72
336,220,135906,2,0,B|349:250|333:290,1,72,8|0
288,344,136329,1,0
336,64,137174,6,0,B|407:52|474:91,2,144,4|8|0
280,108,138230,1,0
316,172,138441,2,0,B|392:191,1,72,8|0
428,248,138864,5,0
312,336,139286,1,8
168,320,139709,2,0,B|151:281|163:224,1,72
176,180,140131,1,8
88,64,140554,5,4
256,296,141398,1,4
424,64,142244,5,4
280,44,142667,1,0
152,112,143089,2,0,B|168:284|24:364,1,288,4|6
28,68,144780,5,2
216,284,145625,2,0,B|360:304,1,144,2|2
492,248,146470,1,2
256,84,147315,5,2
20,248,148160,1,0
300,320,149005,6,0,B|304:144|504:108,1,288,6|2
188,56,150695,2,0,B|164:200,1,144,2|2
100,328,151540,2,0,B|108:172|8:48,1,288,2|6
296,124,153230,5,2
372,244,153653,1,2
488,160,154075,1,6
256,332,154920,1,6
24,160,155765,5,6
296,60,156611,1,6
208,172,157033,1,6
108,68,157456,1,6
164,352,158301,6,0,B|320:336,1,144,6|2
452,348,159146,1,2
484,60,159991,6,0,B|380:168|196:96,2,288,6|2|2
476,204,162103,1,2
340,248,162526,1,2
68,340,163371,5,2
256,120,164216,1,2
444,340,165061,1,6
400,56,165906,5,4
112,56,166751,1,4
176,336,167596,5,4
144,200,168019,1,0
256,108,168442,1,4
368,200,168864,1,0
336,336,169287,1,4
256,192,169392,12,4,170977
