osu file format v9

[General]
AudioFilename: 05 Rondo Alla Turca (RyuRemix).mp3
AudioLeadIn: 1500
PreviewTime: 28537
Countdown: 0
SampleSet: Normal
StackLeniency: 0.7
Mode: 0
LetterboxInBreaks: 1

[Editor]
Bookmarks: 228,15439,28960,42481,56002,69523,83044,96566,110087,116847,130368,143889,155720,165861
DistanceSpacing: 1
BeatDivisor: 4
GridSize: 4

[Metadata]
Title:Rondo Alla Turca (Ryu* Remix)
Artist:Ryu*
Creator:yeahyeahyeahhh
Version:Challenging
Source:
Tags:Kischer Marsch AGEHA DeathStreams Streams Alla Turca Turkish March Mozart Sonata muya lepidopodus

[Difficulty]
HPDrainRate:8
CircleSize:4
OverallDifficulty:8
ApproachRate:8
SliderMultiplier:1.84
SliderTickRate:1

[Events]
//Background and Video events
0,0,"bg.jpg"
//Break Periods
2,110332,116135
//Storyboard Layer 0 (Background)
//Storyboard Layer 1 (Fail)
//Storyboard Layer 2 (Pass)
//Storyboard Layer 3 (Foreground)
//Storyboard Sound Samples
//Background Colour Transformations
3,100,163,162,255

[TimingPoints]
273,422.535211267606,4,1,0,50,1,0
378,-100,4,1,0,75,0,0
40730,-100,4,1,1,75,0,0
41047,-100,4,2,0,75,0,0
41892,-100,4,1,1,75,0,0
42315,-100,4,1,0,75,0,0
83089,-100,4,1,0,75,0,1
83195,-100,4,1,0,75,0,0
118371,-100,4,1,1,75,0,0
118794,-100,4,1,0,75,0,0
130413,-100,4,1,0,75,0,1
130519,-100,4,1,0,75,0,0
143512,-100,4,2,0,85,0,0
148054,-100,4,1,0,55,0,0
148899,-100,4,2,0,85,0,0
154920,422.535211267606,4,2,0,85,1,0
169392,-100,4,2,0,45,0,0

[Colours]
Combo1 : 17,254,176
Combo2 : 173,255,95
Combo3 : 255,88,100
Combo4 : 255,94,55

[HitObjects]
256,192,273,1,8
256,192,378,12,4,1963
436,112,2385,5,0
360,280,2808,1,0
256,128,3230,1,0
152,280,3653,1,0
76,112,4075,1,0
40,292,4498,1,0
256,328,4920,1,0
472,292,5343,6,0,B|480:96,1,184
268,72,6188,2,0,B|260:268,1,184
40,292,7033,2,0,B|32:96,2,184
40,292,8089,1,0
108,152,8512,5,0
108,152,8723,2,0,B|140:240|112:332,2,184,4|8|0
256,56,9991,1,8
404,152,10413,2,0,B|372:240|400:332,2,184,0|8|0
256,248,11681,1,8
44,308,12103,6,0,B|72:208|208:200,1,184,0|8
460,88,12949,2,0,B|432:188|296:196,1,184,0|8
236,32,13794,5,0
236,32,14005,1,0
60,84,14427,1,0
212,188,14850,1,0
108,340,15273,1,0
88,256,15484,6,0,B|72:160,1,92,4|0
144,108,15906,2,0,B|160:204,1,92,8|0
184,288,16329,2,0,B|232:312|272:276,1,92
332,192,16751,2,0,B|284:168|244:204,1,92,8|0
408,152,17174,6,0,B|436:336,2,184,0|8|0
384,64,18230,1,0
292,60,18442,1,8
268,148,18653,1,0
232,232,18864,6,0,B|128:240,1,92
64,188,19287,2,0,B|52:76,1,92,8|0
116,32,19709,2,0,B|208:24,1,92
292,60,20132,2,0,B|304:172,1,92,8|0
312,244,20554,5,4
476,348,20977,1,8
292,356,21399,1,0
292,356,21611,1,0
40,236,22033,1,0
116,288,22244,6,0,B|216:276,1,92,4|0
320,208,22667,2,0,B|204:196,1,92,8|0
144,160,23089,1,0
144,160,23301,1,0
212,100,23512,2,0,B|308:88,1,92,8|0
392,112,23934,6,0,B|388:200|416:300,2,184,0|8|0
392,112,24991,1,0
468,60,25202,2,0,B|484:112|472:160,1,92,8|0
316,168,25625,6,0,B|312:211|327:258,1,92,0|0
360,344,26047,1,8
360,344,26258,1,0
268,332,26470,2,0,B|221:316|177:320,1,92,0|0
88,336,26892,1,8
88,336,27103,1,0
36,208,27315,5,4
280,284,28582,5,0
276,300,28688,1,0
272,316,28794,1,0
268,332,28899,1,0
264,348,29005,1,0
360,232,29427,5,0
368,252,29533,1,0
376,272,29639,1,0
384,292,29744,1,0
392,312,29850,1,0
500,182,30273,5,0
473,177,30378,1,0
444,172,30484,1,0
416,167,30589,1,0
388,160,30695,2,0,B|376:104,3,46
352,116,31118,2,0,B|336:64,3,46
316,56,31540,2,0,B|256:128|140:124,1,184
100,48,32174,1,0
24,100,32385,6,0,B|52:192,1,92
124,244,32808,1,0
112,336,33019,1,0
304,356,33230,6,0,B|276:264,1,92
204,212,33653,1,0
216,120,33864,1,0
384,40,34075,6,0,B|356:132,1,92
284,184,34498,1,0
369,219,34709,1,0
461,215,34920,1,0
216,120,35343,5,0
200,112,35449,1,0
184,100,35555,1,0
172,88,35660,1,0
164,72,35766,1,4
56,168,36188,5,8
80,168,36294,1,0
104,176,36400,1,0
124,184,36505,1,0
140,200,36611,1,0
132,348,37034,5,8
136,320,37139,1,0
148,296,37245,1,0
168,276,37350,1,0
192,264,37456,2,0,B|216:252|224:216,3,46
228,204,37879,2,0,B|244:172|236:132,3,46,8|0|0|0
248,132,38301,2,8,B|272:40|392:16,1,184,0|8
472,32,38935,1,0
512,116,39146,6,0,B|500:164|462:216,1,92
404,260,39569,1,8
312,264,39780,1,0
232,96,39991,6,0,B|184:80|136:96,1,92
60,136,40413,1,8
46,228,40624,1,0
98,304,40836,5,4
232,96,41259,1,4
98,304,41681,1,4
352,184,42103,6,0,B|328:136|352:88,1,92,4|0
428,200,42526,2,0,B|451:247|431:287,1,92,4|0
359,347,42949,1,8
339,327,43054,1,0
315,315,43160,1,0
287,307,43265,1,0
259,311,43371,1,0
168,320,43582,1,0
80,292,43794,6,0,B|55:247|83:203,1,92,8|0
163,99,44217,2,0,B|183:143|163:187,1,92,0|0
248,224,44640,1,8
276,220,44745,1,0
300,208,44851,1,0
316,188,44956,1,0
328,164,45062,1,0
332,72,45273,1,0
408,124,45484,6,0,B|504:124,1,92,8|0
332,72,45906,2,0,B|240:72,1,92,4|0
152,100,46330,1,8
128,112,46435,1,0
104,124,46541,1,0
80,136,46646,1,0
56,148,46752,1,4
24,236,46963,1,0
108,324,47174,6,0,B|116:228,1,92,8|0
232,72,47596,1,4
239,163,47808,1,0
333,323,48019,1,4
340,232,48231,1,0
444,72,48442,5,4
444,72,48653,1,4
440,164,48864,5,0
424,188,48970,1,0
416,216,49076,1,0
416,244,49181,1,0
424,272,49287,1,4
476,348,49498,1,0
384,348,49709,5,8
364,332,49815,1,0
348,308,49921,1,0
336,284,50026,1,0
332,256,50132,1,0
292,172,50343,1,0
200,188,50555,5,8
216,208,50660,1,0
228,236,50766,1,0
236,264,50871,1,0
236,292,50977,2,0,B|216:344,3,46
192,316,51400,2,0,B|152:340,3,46,8|0|0|0
156,304,51822,2,8,B|116:220|0:204,1,184,0|8
16,112,52456,1,0
84,32,52667,6,0,B|112:84|96:132,1,92,4|0
160,188,53089,2,0,B|200:216|247:205,1,92,8|0
312,140,53512,2,0,B|268:116|212:132,1,92,4|0
200,40,53934,1,8
292,32,54146,1,0
380,56,54357,2,0,B|420:144|360:232,1,184,4|0
344,252,54885,1,0
332,276,54991,1,0
328,304,55096,2,0,B|324:324|328:344,2,23
492,232,55625,5,8
256,192,55836,1,0
20,152,56047,2,0,B|36:60|36:60|124:20,1,184,4|0
212,32,56681,1,0
304,48,56892,2,0,B|396:48,1,92
248,116,57315,2,0,B|152:116,1,92
104,192,57737,5,0
156,268,57949,1,0
104,344,58160,1,0
52,268,58371,5,0
208,192,58582,1,0
208,344,58794,1,0
260,268,59005,5,0
372,56,59216,1,0
504,256,59427,2,0,B|412:256|412:256|348:192,1,184
280,128,60061,1,0
252,216,60273,2,0,B|324:288,1,92
444,168,60695,2,0,B|372:96,1,92
308,44,61117,5,0
216,52,61329,1,0
64,112,61540,1,0
156,120,61752,1,0
180,208,61962,1,0
20,232,62385,5,0
256,192,62596,1,0
492,152,62807,2,0,B|444:224|444:224|456:320,1,184,4|8
368,348,63441,1,0
356,256,63653,2,0,B|344:152,1,92
156,128,64075,2,0,B|168:232,1,92,8|0
176,311,64497,5,0
84,300,64709,1,0
32,224,64920,1,8
36,132,65131,1,0
88,56,65342,1,0
176,28,65554,1,0
264,48,65765,5,8
260,288,65976,1,0
492,228,66187,2,0,B|316:172,1,184,4|8
228,148,66821,1,0
140,176,67033,2,0,B|76:240,1,92,4|0
160,92,67456,2,0,B|128:0,1,92,8|0
244,64,67877,5,4
328,104,68089,1,0
420,96,68300,1,0
480,24,68511,1,0
512,112,68722,1,4
12,276,69568,5,4
52,96,69991,1,0
92,276,70413,1,0
128,96,70836,1,0
168,276,71258,1,0
204,96,71681,1,0
240,276,72103,1,0
504,96,72949,5,4
464,276,73372,1,0
424,96,73794,1,0
388,276,74217,1,0
348,96,74639,1,0
312,276,75062,1,0
276,96,75484,1,0
104,160,75906,6,0,B|88:80|88:80|196:44,1,184,0|4
256,24,76540,1,0
276,96,76751,1,0
296,168,76963,1,0
320,240,77174,5,0
336,252,77280,1,0
352,264,77385,1,0
368,276,77491,1,0
384,288,77596,1,0
400,300,77702,1,0
412,312,77808,1,0
428,324,77913,1,0
444,336,78019,1,4
468,264,78230,5,0
488,192,78442,1,0
508,120,78653,1,0
488,48,78864,5,0
468,52,78970,1,0
448,56,79075,1,0
428,60,79181,1,0
408,64,79287,1,0
388,68,79392,1,0
368,72,79498,1,0
348,76,79603,1,0
328,80,79709,1,4
256,104,79920,5,0
296,168,80132,1,0
288,184,80237,1,0
280,200,80343,1,0
272,216,80449,1,0
264,232,80554,1,4
256,308,80765,5,0
192,268,80977,1,0
172,264,81082,1,0
152,260,81188,1,0
132,256,81294,1,0
112,252,81399,1,4
44,56,81716,5,4
180,32,81927,1,0
180,32,82033,1,4
272,136,82244,1,4
456,132,82667,5,0
444,164,82773,1,0
440,196,82878,1,0
444,228,82984,1,0
456,256,83089,2,0,B|484:280|496:304,3,46,4|0|0|0
491,323,83512,2,0,B|480:344|454:352,3,46,0|0|0|0
424,360,83934,5,0
392,363,84040,1,0
359,361,84146,1,0
332,344,84251,1,0
310,320,84357,1,0
297,290,84463,1,0
284,260,84568,1,0
266,233,84674,1,0
244,209,84780,5,0
215,194,84885,1,0
184,185,84991,1,0
151,182,85096,1,0
120,189,85202,1,0
91,203,85308,1,0
68,225,85413,1,0
53,253,85519,1,0
47,286,85625,1,0
95,364,85836,1,0
184,340,86047,5,0
196,308,86153,1,0
200,276,86258,1,0
196,244,86364,1,0
180,216,86469,2,0,B|140:168,3,46
180,164,86892,2,0,B|176:108,3,46
224,140,87314,5,0
256,136,87420,1,0
284,120,87526,1,0
304,96,87631,1,0
312,64,87737,1,0
324,36,87843,1,0
348,16,87948,1,0
380,8,88054,1,0
412,12,88160,5,0
440,28,88265,1,0
464,52,88371,1,0
472,84,88476,1,0
460,116,88582,1,0
444,144,88688,1,0
436,176,88793,1,0
440,208,88899,1,0
452,240,89005,1,0
400,352,89427,5,0
392,320,89532,1,0
376,292,89638,1,0
352,268,89744,1,0
324,252,89849,2,0,B|260:284,3,46,4|0|0|0
284,240,90272,2,0,B|228:228,3,46,8|0|0|0
244,200,90694,2,0,B|224:140,3,46
260,152,91117,2,0,B|263:85,3,46,8|0|0|0
304,148,91539,5,0
336,140,91645,1,0
360,116,91751,1,0
372,88,91856,1,0
368,56,91962,1,8
348,32,92068,1,0
320,20,92173,1,0
288,16,92279,1,0
256,24,92384,6,0,B|200:8,3,46
212,44,92808,2,0,B|156:60,3,46,8|0|0|0
180,88,93230,5,0
180,120,93335,1,0
172,152,93441,1,0
152,176,93546,1,0
124,192,93652,1,8
92,200,93758,1,0
68,220,93863,1,0
56,248,93969,1,0
56,280,94075,5,0
68,308,94180,1,0
92,328,94286,1,0
124,332,94392,1,0
156,324,94497,1,8
176,300,94603,1,0
200,280,94708,1,0
232,268,94814,1,0
264,264,94920,6,0,B|292:248|324:208,3,46
300,284,95342,2,0,B|308:312|332:332,3,46,8|0|0|0
356,328,95765,1,0
460,252,96188,5,8
432,236,96294,1,0
412,212,96399,1,0
396,184,96505,1,0
388,152,96611,2,0,B|436:120,3,46,4|0|0|0
388,112,97033,2,0,B|416:56,3,46,8|0|0|0
360,88,97456,5,0
332,76,97561,1,0
300,72,97667,1,0
268,76,97773,1,0
240,88,97878,1,8
212,104,97984,1,0
184,116,98089,1,0
152,112,98195,1,0
124,96,98301,5,0
104,72,98406,1,0
72,60,98512,1,0
40,68,98618,1,0
20,92,98723,1,8
16,124,98829,1,0
24,156,98934,1,0
48,176,99040,1,0
60,208,99146,1,0
60,300,99357,1,0
148,332,99568,5,8
160,304,99674,1,0
164,272,99780,1,0
156,240,99885,1,0
144,208,99991,1,0
136,176,100096,1,0
132,144,100202,1,0
140,112,100308,1,0
156,84,100413,1,8
184,68,100519,1,0
216,60,100625,1,0
248,72,100730,1,0
272,92,100836,5,0
300,104,100942,1,0
332,108,101047,1,0
364,100,101153,1,0
388,80,101258,1,8
404,52,101364,1,0
432,36,101470,1,0
464,40,101575,1,0
488,60,101681,6,0,B|524:128,3,46
484,124,102103,2,0,B|496:192,3,46,8|0|0|0
464,188,102526,1,0
412,340,102949,5,8
404,308,103054,1,0
388,280,103160,1,0
364,260,103266,1,0
336,244,103371,2,0,B|340:180,3,46,4|0|0|0
296,236,103794,2,0,B|296:308,3,46,8|0|0|0
256,236,104216,2,0,B|248:172,3,46
220,248,104639,2,0,B|224:316,3,46,8|0|0|0
184,252,105061,5,4
152,252,105167,1,0
120,244,105273,1,0
96,220,105378,1,0
80,192,105484,1,8
76,160,105590,1,0
80,128,105695,1,0
92,100,105801,1,0
112,76,105906,6,0,B|96:12,3,46
148,64,106330,2,0,B|164:20,3,46,8|0|0|0
188,72,106752,5,4
216,84,106857,1,0
240,104,106963,1,0
252,136,107068,1,0
268,164,107174,1,0
296,180,107280,1,0
328,184,107385,1,0
360,176,107491,1,0
384,156,107597,5,0
400,128,107702,1,0
408,96,107808,1,0
428,72,107914,1,0
460,64,108019,1,0
492,76,108125,1,0
508,104,108230,1,0
508,136,108336,1,0
508,168,108442,6,0,B|520:248,3,46
476,204,108864,2,0,B|472:272,3,46
448,272,109287,1,0
236,324,109709,5,0
68,152,109920,1,0
280,36,110132,1,4
416,232,116892,5,4
256,324,117315,1,0
96,232,117737,1,0
160,64,118160,1,0
352,64,118582,1,4
256,192,119005,1,0
256,324,119427,1,0
368,284,119850,5,0
144,284,120273,1,4
56,116,120695,1,0
256,112,121118,1,0
456,116,121540,1,0
256,272,121963,5,4
220,156,122174,1,0
312,224,122385,1,4
200,224,122596,1,0
292,156,122808,1,4
132,248,123653,5,4
88,188,123864,1,0
132,128,124075,1,0
112,56,124287,1,0
188,72,124498,5,0
204,76,124603,1,0
220,80,124709,1,0
236,84,124815,1,0
252,88,124920,1,0
268,92,125026,1,0
284,96,125132,1,0
300,100,125237,1,0
316,104,125343,1,4
384,80,125554,5,0
437,132,125765,1,0
393,192,125977,1,0
412,264,126188,5,0
396,272,126294,1,0
380,280,126399,1,0
364,288,126505,1,0
348,296,126611,1,0
332,304,126716,1,0
316,312,126822,1,0
300,320,126927,1,0
284,328,127033,1,4
212,308,127244,5,0
232,236,127456,1,0
228,220,127561,1,0
224,204,127667,1,0
220,188,127773,1,0
216,172,127878,1,4
156,128,128089,5,0
96,172,128301,1,0
92,188,128406,1,0
88,204,128512,1,0
84,220,128618,1,0
80,236,128723,1,4
156,352,129040,5,0
256,260,129251,1,0
256,260,129357,1,0
392,280,129568,1,0
492,124,129991,5,0
256,76,130202,1,0
20,32,130413,2,0,B|64:124|8:224,1,184,4|8
48,296,131047,1,0
136,268,131258,2,0,B|236:264,1,92
368,328,131681,2,0,B|268:324,1,92,8|0
260,180,132103,5,0
336,128,132315,1,0
428,124,132526,1,8
504,176,132737,1,0
500,268,132949,2,0,B|395:243,1,92
320,260,133371,5,8
224,40,133582,1,0
36,188,133793,2,0,B|24:288|24:288|76:352,1,184,0|8
168,340,134427,1,0
220,264,134639,2,0,B|116:264,1,92
224,188,135061,2,0,B|320:188,1,92,8|0
408,192,135483,5,0
460,268,135695,1,0
404,348,135906,1,8
352,272,136118,1,0
280,328,136328,1,0
100,324,136751,5,8
160,92,136962,1,0
424,124,137173,2,0,B|348:184|368:304,1,184,4|8
312,364,137807,1,0
284,276,138019,2,0,B|264:164,1,92
265,93,138442,2,0,B|372:60,1,92,8|0
424,124,138863,5,0
348,172,139075,1,0
256,176,139286,1,8
172,140,139497,1,0
132,56,139708,1,0
44,84,139920,1,0
80,168,140131,5,8
224,360,140342,1,0
464,264,140553,2,0,B|496:172|452:84,1,184,0|8
392,16,141187,1,0
336,88,141399,2,0,B|240:96,1,92
152,168,141822,2,0,B|248:176,1,92,8|0
296,252,142243,5,4
240,324,142455,1,0
164,272,142666,1,0
76,300,142877,1,0
52,212,143088,1,4
464,184,143934,6,0,B|360:192|300:68,1,184,6|8
284,8,144568,1,0
208,60,144780,2,0,B|98:49|58:145,1,184,2|8
40,232,145413,1,0
128,260,145625,5,2
148,260,145731,1,0
168,260,145837,1,0
188,256,145942,1,0
204,252,146048,1,10
220,244,146153,1,0
236,232,146259,1,0
248,220,146365,1,0
260,208,146470,1,2
396,84,146892,1,8
476,256,147315,5,2
424,180,147526,1,0
336,152,147737,1,10
284,76,147949,1,0
192,80,148160,5,0
192,80,148371,1,0
40,184,148794,5,0
28,276,149005,2,0,B|128:308|208:236,1,184,6|8
220,152,149639,1,0
284,220,149850,2,0,B|376:200|468:260,1,184,2|8
504,336,150484,1,0
416,364,150696,5,2
404,348,150801,1,0
396,332,150907,1,0
392,316,151013,1,0
392,296,151118,1,10
396,276,151224,1,0
400,260,151329,1,0
408,244,151435,1,0
420,228,151541,1,2
456,48,151963,1,8
272,48,152386,5,6
240,336,153231,5,2
216,247,153442,1,0
151,182,153653,1,10
60,164,153865,1,0
124,100,154075,2,0,B|228:120|292:44,1,184,6|8
428,64,154815,1,0
428,64,154920,2,0,B|460:256,1,184,6|8
312,356,155765,5,6
128,340,156188,1,8
60,164,156611,5,6
68,148,156716,1,0
80,132,156822,1,0
92,120,156927,1,0
108,112,157033,1,6
124,104,157139,1,0
144,100,157244,1,0
164,100,157350,1,0
180,104,157456,1,6
488,172,158301,5,6
408,128,158512,1,0
352,200,158723,1,10
432,244,158934,1,0
432,336,159146,1,2
248,324,159568,5,8
172,272,159780,1,0
80,268,159991,2,0,B|12:188|40:96,1,184,6|8
104,32,160625,1,0
192,52,160836,2,0,B|259:131|236:224,1,184,2|8
292,296,161470,1,0
380,340,161681,5,2
388,324,161787,1,0
396,308,161892,1,0
400,292,161998,1,0
404,276,162103,1,10
404,256,162209,1,0
400,236,162315,1,0
396,220,162420,1,0
396,200,162526,1,2
476,28,162949,6,0,B|504:132|488:220,1,184,8|2
328,120,163794,1,8
176,224,164216,5,2
180,316,164427,1,0
92,344,164639,1,10
40,268,164850,1,0
92,192,165061,1,6
208,48,165695,5,0
272,112,165906,1,4
472,192,166540,5,0
432,276,166751,1,4
256,340,167385,5,0
176,292,167596,1,4
208,200,167807,1,0
304,200,168019,1,0
336,292,168230,1,0
432,276,168442,5,4
256,120,168864,1,0
80,276,169287,1,4
256,192,169392,12,4,170977
