osu file format v12

[General]
AudioFilename: Ryu - Plan 8.mp3
AudioLeadIn: 1445
PreviewTime: 29486
Countdown: 0
SampleSet: Normal
StackLeniency: 0.7
Mode: 0
LetterboxInBreaks: 0

[Editor]
Bookmarks: 72420,74684,92798,102986
DistanceSpacing: 1
BeatDivisor: 4
GridSize: 4

[Metadata]
Title:Plan 8
TitleUnicode:Plan 8
Artist:Ryu*
ArtistUnicode:Ryu☆
Creator:wantuole
Version:Normal
Source:beatmania IIDX 20 TRICORO
Tags:Lan wings fanzhen0019 mintong89 Firce777 HAPPY GABBA LEGEND CROSS
BeatmapID:218245
BeatmapSetID:76825

[Difficulty]
HPDrainRate:2
CircleSize:3
OverallDifficulty:3
ApproachRate:4
SliderMultiplier:1
SliderTickRate:2

[Events]
//Background and Video events
0,0,"bg.jpg",0,0
//Break Periods
2,47800,55336
//Storyboard Layer 0 (Background)
//Storyboard Layer 1 (Fail)
//Storyboard Layer 2 (Pass)
//Storyboard Layer 3 (Foreground)
//Storyboard Sound Samples
//Background Colour Transformations
3,100,163,162,255

[TimingPoints]
1185,283.018867924528,4,1,0,40,1,0
7977,-100,4,1,0,50,0,0
11373,-100,4,1,0,40,0,0
19864,-100,4,1,0,30,0,0
20430,-100,4,1,0,30,0,0
27222,-100,4,1,0,50,0,0
29486,-90.9090909090909,4,1,0,50,0,1
29557,-90.9090909090909,4,1,0,50,0,0
38543,-83.3333333333333,4,1,0,50,0,1
38614,-83.3333333333333,4,1,0,50,0,0
47600,-100,4,1,0,30,0,0
56656,-100,4,1,0,40,0,0
72505,-100,4,1,0,5,0,0
72788,-100,4,1,0,10,0,0
73071,-100,4,1,0,15,0,0
73354,-100,4,1,0,20,0,0
73637,-100,4,1,0,25,0,0
73920,-100,4,1,0,30,0,0
74203,-100,4,1,0,35,0,0
74486,-100,4,1,0,40,0,0

[Colours]
Combo1 : 255,128,0
Combo2 : 23,168,255
Combo3 : 255,128,192
Combo4 : 0,244,159

[HitObjects]
96,104,1185,2,0,P|176:72|272:124,1,200,0|0,0:0|0:0,0:0:0:0:
416,260,2317,2,0,L|217:272,1,200,0|0,0:0|0:0,0:0:0:0:
32,192,3449,6,0,P|44:144|188:112,1,200,0|8,0:0|0:0,0:0:0:0:
364,88,4581,2,0,B|380:116|380:200,1,100
348,280,5147,2,0,L|412:280,2,50,0|0|8,0:0|0:0|0:0,0:0:0:0:
256,328,5713,6,0,P|144:344|104:276,1,200,4|0,0:0|0:0,0:0:0:0:
84,84,6845,2,0,P|196:68|236:136,1,200,4|0,0:0|0:0,0:0:0:0:
424,196,7977,5,0,0:0:0:0:
324,208,8260,1,8,0:0:0:0:
228,180,8543,1,0,0:0:0:0:
136,216,8826,1,8,0:0:0:0:
256,192,9109,12,0,10241,0:0:0:0:
324,265,11373,6,0,P|304:216|303:169,1,100,0|8,0:0|0:0,0:0:0:0:
208,168,11939,2,0,P|208:224|187:261,1,100,0|8,0:0|0:0,0:0:0:0:
96,312,12505,2,0,P|48:288|16:232,2,100,0|8|0,0:0|0:0|0:0,0:0:0:0:
192,144,13637,6,0,P|192:96|212:46,1,100,0|8,0:0|0:0,0:0:0:0:
308,46,14203,2,0,P|320:96|320:160,1,100,0|8,0:0|0:0,0:0:0:0:
404,206,14769,2,0,B|456:216|456:216|516:206,2,100
252,336,15901,6,0,P|196:360|156:352,1,100,0|8,0:0|0:0,0:0:0:0:
184,256,16468,2,0,P|132:233|80:240,1,100,0|8,0:0|0:0,0:0:0:0:
36,152,17034,2,0,P|28:95|36:40,1,100,0|8,0:0|0:0,0:0:0:0:
132,48,17600,1,2,0:0:0:0:
332,40,18166,6,0,P|352:92|352:144,1,100,0|8,0:0|0:0,0:0:0:0:
320,228,18732,2,0,P|326:284|358:326,1,100,0|8,0:0|0:0,0:0:0:0:
452,316,19298,1,0,0:0:0:0:
488,224,19581,2,0,P|504:168|488:112,2,100,8|0|8,0:0|0:0|0:0,0:0:0:0:
412,160,20430,6,0,L|304:144,2,100,2|0|0,0:0|0:0|0:0,0:0:0:0:
208,136,21562,2,0,P|200:183|216:231,1,100,2|0,0:0|0:0,0:0:0:0:
128,280,22128,1,0,0:0:0:0:
112,88,22694,6,0,P|152:48|216:40,2,100,2|0|0,0:0|0:0|0:0,0:0:0:0:
24,268,23826,2,0,P|56:300|120:296,1,100,2|0,0:0|0:0,0:0:0:0:
200,340,24392,1,0,0:0:0:0:
400,336,24958,6,0,B|400:264|368:232,1,100,2|8,0:0|0:0,0:0:0:0:
280,212,25524,1,0,0:0:0:0:
316,120,25807,1,0,0:0:0:0:
408,156,26090,2,0,B|432:140|432:140|432:68,1,100,2|8,0:0|0:0,0:0:0:0:
340,32,26656,2,0,B|316:48|316:48|316:120,1,100,0|8,0:0|0:0,0:0:0:0:
220,140,27222,6,0,L|196:200,2,50
136,88,27788,2,0,L|128:36,2,50
40,60,28354,2,0,P|24:112|32:172,2,100
148,252,29486,6,0,B|212:244|264:198,1,110.000003356934,2|8,0:0|0:0,0:0:0:0:
348,160,30052,2,0,B|364:224|404:268,1,110.000003356934,0|8,0:0|0:0,0:0:0:0:
320,336,30618,2,0,B|232:344|232:344|200:328,2,110.000003356934,2|8|0,0:0|0:0|0:0,0:0:0:0:
292,288,31326,2,0,L|288:196,1,55.0000016784668
180,248,31751,6,0,B|128:220|68:240,1,110.000003356934,2|8,0:0|0:0,0:0:0:0:
52,132,32317,2,0,P|24:84|32:20,1,110.000003356934,0|8,0:0|0:0,0:0:0:0:
136,48,32883,1,0,0:0:0:0:
228,104,33166,1,8,0:0:0:0:
232,208,33449,2,0,L|224:276,2,55.0000016784668,2|0|8,0:0|0:0|0:0,0:0:0:0:
328,156,34015,6,0,P|381:147|432:172,1,110.000003356934,2|0,0:0|0:0,0:0:0:0:
492,260,34581,2,0,L|436:252,2,55.0000016784668,8|0|8,0:0|0:0|0:0,0:0:0:0:
396,316,35147,2,0,P|332:320|292:292,1,110.000003356934,2|8,0:0|0:0,0:0:0:0:
200,240,35713,2,0,P|204:303|176:344,1,110.000003356934,0|8,0:0|0:0,0:0:0:0:
88,284,36279,6,0,P|76:227|108:176,1,110.000003356934,2|8,0:0|0:0,0:0:0:0:
124,76,36845,2,0,L|172:128,2,55.0000016784668,0|0|8,0:0|0:0|0:0,0:0:0:0:
232,48,37411,1,2,0:0:0:0:
320,112,37694,1,8,0:0:0:0:
280,216,37977,2,0,B|224:216|224:216|176:232,2,82.5000025177003,0|0|0,0:0|0:0|0:0,0:0:0:0:
340,228,38543,6,0,P|400:240|504:220,1,119.999996337891,2|0,0:0|0:0,0:0:0:0:
436,352,39109,2,0,L|317:359,1,119.999996337891
216,296,39675,6,0,L|96:303,1,119.999996337891,2|0,0:0|0:0,0:0:0:0:
28,204,40241,2,0,P|46:176|126:152,1,119.999996337891
244,180,40807,6,0,P|226:114|251:55,1,119.999996337891,2|0,0:0|0:0,0:0:0:0:
360,44,41373,2,0,L|480:28,1,119.999996337891
420,132,41939,6,0,L|404:260,1,119.999996337891,2|0,0:0|0:0,0:0:0:0:
312,328,42505,2,0,P|248:316|176:332,1,119.999996337891
160,204,43071,6,0,P|224:204|280:172,1,119.999996337891,2|0,0:0|0:0,0:0:0:0:
260,60,43637,2,0,L|116:76,1,119.999996337891
40,128,44203,6,0,P|64:184|56:248,1,119.999996337891,2|0,0:0|0:0,0:0:0:0:
132,336,44769,2,0,P|204:340|252:376,1,119.999996337891
360,336,45335,6,0,L|344:216,1,119.999996337891,2|0,0:0|0:0,0:0:0:0:
396,108,45901,2,0,P|342:99|278:111,1,119.999996337891
256,192,46468,12,4,47600,0:0:0:0:
188,119,56656,6,0,P|208:168|208:216,1,100,0|8,0:0|0:0,0:0:0:0:
304,216,57222,2,0,P|304:160|328:104,1,100,0|8,0:0|0:0,0:0:0:0:
400,64,57788,2,0,P|452:56|512:56,2,100,0|8|0,0:0|0:0|0:0,0:0:0:0:
320,232,58920,6,0,P|320:280|300:330,1,100,0|8,0:0|0:0,0:0:0:0:
200,336,59486,2,0,P|184:288|176:216,1,100,0|8,0:0|0:0,0:0:0:0:
100,172,60052,2,0,P|40:186|-8:162,2,100,0|0|8,0:0|0:0|0:0,0:0:0:0:
260,52,61184,6,0,P|316:28|356:36,1,100,0|8,0:0|0:0,0:0:0:0:
332,132,61751,2,0,P|384:155|436:148,1,100,0|8,0:0|0:0,0:0:0:0:
408,248,62317,2,0,P|464:240|520:248,1,100,0|8,0:0|0:0,0:0:0:0:
476,340,62883,1,2,0:0:0:0:
280,312,63449,6,0,P|224:336|184:328,1,100,0|8,0:0|0:0,0:0:0:0:
192,228,64016,2,0,P|140:205|88:212,1,100,0|8,0:0|0:0,0:0:0:0:
12,260,64581,1,0,0:0:0:0:
4,160,64864,2,0,P|-4:104|4:48,1,100,8|8,0:0|0:0,0:0:0:0:
200,72,65713,5,4,0:0:0:0:
296,56,65996,2,0,P|352:48|394:52,1,100,8|8,0:0|0:0,0:0:0:0:
412,252,66845,1,4,0:0:0:0:
312,236,67128,2,0,P|269:231|213:239,2,100,8|8|0,0:0|0:0|0:0,0:0:0:0:
332,332,67977,5,6,0:0:0:0:
256,160,68543,1,2,0:0:0:0:
88,272,69109,1,2,0:0:0:0:
176,88,69675,1,2,0:0:0:0:
256,28,69958,1,0,0:0:0:0:
336,88,70241,6,0,P|396:80|452:88,1,100,0|8,0:0|0:0,0:0:0:0:
440,184,70807,2,0,P|380:192|324:184,1,100,0|8,0:0|0:0,0:0:0:0:
256,136,71373,2,0,B|256:236|256:236|224:288,2,150,0|0|8,0:0|0:0|0:0,0:0:0:0:
256,192,72505,12,0,74486,0:0:0:0:
