osu file format v12

[General]
AudioFilename: Ryu - Plan 8.mp3
AudioLeadIn: 1445
PreviewTime: 29486
Countdown: 0
SampleSet: Normal
StackLeniency: 0.7
Mode: 0
LetterboxInBreaks: 0

[Editor]
Bookmarks: 72420,74684,92798,102986
DistanceSpacing: 1.4
BeatDivisor: 4
GridSize: 4

[Metadata]
Title:Plan 8
TitleUnicode:Plan 8
Artist:Ryu*
ArtistUnicode:Ryu☆
Creator:wantuole
Version:Hyper
Source:beatmania IIDX 20 TRICORO
Tags:Lan wings fanzhen0019 mintong89 Firce777 HAPPY GABBA LEGEND CROSS
BeatmapID:216130
BeatmapSetID:76825

[Difficulty]
HPDrainRate:5
CircleSize:4
OverallDifficulty:6
ApproachRate:8
SliderMultiplier:1.4
SliderTickRate:2

[Events]
//Background and Video events
0,0,"bg.jpg",0,0
//Break Periods
//Storyboard Layer 0 (Background)
//Storyboard Layer 1 (Fail)
//Storyboard Layer 2 (Pass)
//Storyboard Layer 3 (Foreground)
//Storyboard Sound Samples
//Background Colour Transformations
3,100,163,162,255

[TimingPoints]
1185,283.018867924528,4,1,0,40,1,0
7977,-100,4,1,0,50,0,0
11373,-100,4,1,0,40,0,0
19864,-100,4,1,0,30,0,0
20430,-100,4,2,0,50,0,0
27222,-100,4,1,0,50,0,0
29486,-90.9090909090909,4,1,0,50,0,1
29557,-90.9090909090909,4,1,0,50,0,0
38543,-83.3333333333333,4,1,0,50,0,1
38614,-83.3333333333333,4,1,0,50,0,0
47600,-100,4,1,0,40,0,0
56656,-100,4,1,0,40,0,0
72505,-100,4,1,0,5,0,0
72788,-100,4,1,0,10,0,0
73071,-100,4,1,0,15,0,0
73354,-100,4,1,0,20,0,0
73637,-100,4,1,0,25,0,0
73920,-100,4,1,0,30,0,0
74203,-100,4,1,0,35,0,0
74486,-100,4,1,0,40,0,0

[Colours]
Combo1 : 255,128,0
Combo2 : 23,168,255
Combo3 : 255,128,192
Combo4 : 0,244,159

[HitObjects]
60,160,1185,2,0,P|136:172|212:152,1,140,0|8,0:0|0:0,0:0:0:0:
284,52,1751,2,0,P|272:128|292:204,1,140,0|8,0:0|0:0,0:0:0:0:
352,240,2175,1,0,0:0:0:0:
328,320,2317,6,0,L|256:348,1,70,0|0,0:0|0:0,0:0:0:0:
180,360,2600,1,8,0:0:0:0:
132,200,2883,2,0,L|60:228,2,70
68,224,3449,6,0,P|156:236|224:212,1,140,0|8,0:0|0:0,0:0:0:0:
200,56,4015,2,0,L|292:40,1,70
240,124,4298,2,0,L|148:140,1,70,8|0,0:0|0:0,0:0:0:0:
216,208,4581,6,0,L|376:180,1,140,0|8,0:0|0:0,0:0:0:0:
420,28,5147,2,0,L|440:104,2,70,0|0|2,0:0|0:0|0:0,0:0:0:0:
460,164,5713,6,0,P|452:240|500:308,1,140,4|8,0:0|0:0,0:0:0:0:
356,356,6279,2,0,P|356:276|308:216,1,140,0|8,0:0|0:0,0:0:0:0:
260,172,6703,1,0,0:0:0:0:
116,272,6845,6,0,P|186:282|260:234,1,140,0|8,0:0|0:0,0:0:0:0:
52,152,7411,2,0,L|24:80,3,70,0|0|8|0,0:0|0:0|0:0|0:0,0:0:0:0:
120,72,7977,5,0,0:0:0:0:
260,172,8260,1,8,0:0:0:0:
48,220,8543,2,0,L|52:151,1,70,8|0,0:0|0:0,0:0:0:0:
190,175,8826,2,0,L|260:172,1,70,8|0,0:0|0:0,0:0:0:0:
300,80,9109,6,0,P|351:110|430:118,1,140,0|8,0:0|0:0,0:0:0:0:
400,248,9675,2,0,L|404:328,1,70
400,248,9958,1,0,0:0:0:0:
256,192,10241,12,0,11090,0:0:0:0:
136,352,11373,6,0,P|220:348|300:316,1,140,0|8,0:0|0:0,0:0:0:0:
340,264,11798,1,0,0:0:0:0:
336,168,11939,2,0,L|424:176,1,70
380,84,12222,2,0,L|300:76,1,70
228,64,12505,5,0,0:0:0:0:
292,160,12647,1,0,0:0:0:0:
212,100,12788,1,8,0:0:0:0:
184,208,12930,1,0,0:0:0:0:
124,112,13071,2,0,P|86:143|94:240,1,140,0|0,0:0|0:0,0:0:0:0:
164,332,13637,6,0,P|228:296|312:300,1,140,0|8,0:0|0:0,0:0:0:0:
396,308,14062,1,0,0:0:0:0:
464,228,14203,2,0,P|410:224|330:185,1,140,0|8,0:0|0:0,0:0:0:0:
268,112,14628,1,0,0:0:0:0:
120,52,14769,6,0,P|146:63|172:95,1,70,8|0,0:0|0:0,0:0:0:0:
152,184,15052,2,0,L|96:236,1,70,8|0,0:0|0:0,0:0:0:0:
324,232,15335,2,0,P|324:276|288:312,1,70
252,252,15618,2,0,L|232:168,1,70,8|0,0:0|0:0,0:0:0:0:
272,72,15901,6,0,P|324:64|388:80,1,105
408,100,16184,2,0,P|404:136|412:184,1,70,8|0,0:0|0:0,0:0:0:0:
396,252,16468,2,0,P|332:260|264:244,1,105
252,252,16751,2,0,P|260:212|252:180,1,70,8|0,0:0|0:0,0:0:0:0:
180,128,17034,5,0,0:0:0:0:
72,144,17175,1,0,0:0:0:0:
48,248,17317,1,8,0:0:0:0:
144,312,17458,1,0,0:0:0:0:
228,236,17600,2,0,P|296:232|388:248,1,140,0|2,0:0|0:0,0:0:0:0:
276,48,18166,6,0,L|288:136,1,70
360,156,18449,1,8,0:0:0:0:
360,156,18590,1,8,0:0:0:0:
236,336,18732,6,0,L|224:248,1,70
152,228,19015,1,8,0:0:0:0:
152,228,19156,1,8,0:0:0:0:
152,144,19298,6,0,P|208:140|244:116,1,70,8|0,0:0|0:0,0:0:0:0:
304,88,19581,2,0,P|308:144|332:180,1,70,8|0,0:0|0:0,0:0:0:0:
360,240,19864,2,0,P|304:244|268:268,1,70,0|0,0:0|0:0,0:0:0:0:
208,296,20147,2,0,P|204:240|180:204,1,70,8|0,0:0|0:0,0:0:0:0:
56,244,20430,6,0,P|100:232|128:204,1,70,2|0,0:0|0:0,0:0:0:0:
152,144,20713,1,0,0:0:0:0:
152,144,20854,1,0,0:0:0:0:
176,60,20996,2,0,P|224:48|256:16,1,70
248,200,21279,2,0,P|230:167|232:132,1,70,8|0,0:0|0:0,0:0:0:0:
388,56,21562,6,0,P|405:88|404:124,1,70,2|0,0:0|0:0,0:0:0:0:
380,200,21845,1,0,0:0:0:0:
380,200,21986,1,0,0:0:0:0:
372,284,22128,2,0,L|444:328,1,70
280,312,22411,2,0,L|268:236,1,70,8|0,0:0|0:0,0:0:0:0:
192,304,22694,6,0,P|168:328|120:340,1,70,2|0,0:0|0:0,0:0:0:0:
124,256,22977,1,0,0:0:0:0:
124,256,23118,1,0,0:0:0:0:
120,172,23260,2,0,P|84:172|48:208,1,70
176,108,23543,2,0,P|149:88|113:88,1,70,8|0,0:0|0:0,0:0:0:0:
232,49,23826,6,0,L|264:112,1,70,2|0,0:0|0:0,0:0:0:0:
308,184,24109,1,0,0:0:0:0:
308,184,24251,1,0,0:0:0:0:
392,184,24392,2,0,P|384:152|356:112,1,70
224,192,24675,2,0,P|232:224|260:264,1,70,8|0,0:0|0:0,0:0:0:0:
332,280,24958,6,0,P|372:279|408:264,1,70,6|0,0:0|0:0,0:0:0:0:
452,204,25241,1,8,0:0:0:0:
484,284,25383,1,0,0:0:0:0:
256,304,25524,2,0,L|256:234,1,70
256,80,25807,2,0,L|256:150,1,70,8|0,0:0|0:0,0:0:0:0:
180,280,26090,6,0,P|139:279|104:264,1,70
32,220,26373,1,8,0:0:0:0:
16,300,26515,1,0,0:0:0:0:
160,348,26656,2,0,L|177:281,1,70
164,128,26939,2,0,L|147:195,1,70,8|0,0:0|0:0,0:0:0:0:
92,276,27222,5,8,0:0:0:0:
160,348,27364,1,0,0:0:0:0:
256,328,27505,1,0,0:0:0:0:
284,240,27647,1,0,0:0:0:0:
332,156,27788,5,0,0:0:0:0:
232,160,27930,1,0,0:0:0:0:
192,252,28071,1,8,0:0:0:0:
256,328,28213,1,0,0:0:0:0:
356,320,28354,6,0,L|408:308,3,35
376,232,28637,2,0,L|440:216,3,35,8|0|0|0,0:0|0:0|0:0|0:0,0:0:0:0:
400,136,28920,2,0,L|452:124,4,35,0|0|0|0|8,0:0|0:0|0:0|0:0|0:0,0:0:0:0:
276,296,29486,6,0,L|364:288,1,77.0000023498536
288,196,29769,2,0,L|264:112,1,77.0000023498536,8|0,0:0|0:0,0:0:0:0:
200,204,30052,1,0,0:0:0:0:
200,220,30123,1,0,0:0:0:0:
196,236,30194,2,0,P|172:268|132:284,2,77.0000023498536,0|8|0,0:0|0:0|0:0,0:0:0:0:
152,56,30618,6,0,L|64:64,1,77.0000023498536,0|0,0:0|0:0,0:0:0:0:
48,156,30901,2,0,L|156:144,1,77.0000023498536,8|0,0:0|0:0,0:0:0:0:
224,152,31184,1,0,0:0:0:0:
224,140,31255,1,0,0:0:0:0:
228,128,31326,2,0,P|252:96|292:80,2,77.0000023498536,0|8|0,0:0|0:0|0:0,0:0:0:0:
312,168,31751,6,0,P|360:168|412:148,1,77.0000023498536
360,248,32034,2,0,P|368:288|400:324,1,77.0000023498536,8|0,0:0|0:0,0:0:0:0:
284,272,32317,1,8,0:0:0:0:
280,280,32387,1,0,0:0:0:0:
276,292,32458,2,0,L|280:380,2,77.0000023498536,0|8|0,0:0|0:0|0:0,0:0:0:0:
184,252,32883,6,0,P|192:296|176:344,1,77.0000023498536,0|0,0:0|0:0,0:0:0:0:
104,196,33166,2,0,P|92:232|108:284,1,77.0000023498536,8|0,0:0|0:0,0:0:0:0:
176,136,33449,1,0,0:0:0:0:
168,128,33519,1,0,0:0:0:0:
160,120,33590,2,0,L|56:108,2,77.0000023498536,0|8|0,0:0|0:0|0:0,0:0:0:0:
244,64,34015,6,0,L|256:152,1,77.0000023498536,0|0,0:0|0:0,0:0:0:0:
344,168,34298,2,0,L|340:80,1,77.0000023498536,8|0,0:0|0:0,0:0:0:0:
432,64,34581,1,0,0:0:0:0:
432,92,34652,1,0,0:0:0:0:
432,116,34722,1,0,0:0:0:0:
424,220,34864,2,0,P|456:244|508:252,1,77.0000023498536,8|0,0:0|0:0,0:0:0:0:
388,352,35147,6,0,P|348:356|292:336,1,77.0000023498536
344,276,35430,2,0,L|276:220,1,77.0000023498536,8|0,0:0|0:0,0:0:0:0:
156,312,35713,2,0,L|76:324,2,77.0000023498536,0|0|8,0:0|0:0|0:0,0:0:0:0:
176,312,36066,1,0,0:0:0:0:
196,308,36137,1,8,0:0:0:0:
256,140,36279,6,0,L|368:160,1,77.0000023498536
240,220,36562,2,0,L|164:206,1,77.0000023498536,8|0,0:0|0:0,0:0:0:0:
108,104,36845,1,0,0:0:0:0:
92,96,36916,1,0,0:0:0:0:
76,88,36986,2,0,L|-36:92,2,77.0000023498536,0|8|0,0:0|0:0|0:0,0:0:0:0:
148,212,37411,5,2,0:0:0:0:
156,124,37552,1,0,0:0:0:0:
244,180,37694,1,10,0:0:0:0:
252,92,37835,1,0,0:0:0:0:
324,220,37977,1,0,0:0:0:0:
332,308,38118,1,0,0:0:0:0:
412,256,38260,1,2,0:0:0:0:
400,156,38401,1,0,0:0:0:0:
504,144,38543,6,0,P|476:180|436:192,1,83.9999974365235
356,196,38826,1,8,0:0:0:0:
336,276,38968,1,0,0:0:0:0:
260,308,39109,2,0,L|218:311,2,41.9999987182618
144,300,39392,2,0,L|92:304,2,41.9999987182618,8|0|0,0:0|0:0|0:0,0:0:0:0:
44,272,39675,5,0,0:0:0:0:
28,188,39817,2,0,P|48:160|90:131,1,83.9999974365235,0|8,0:0|0:0,0:0:0:0:
136,48,40100,1,0,0:0:0:0:
212,120,40241,2,0,L|164:148,2,41.9999987182618
284,160,40524,2,0,L|280:212,2,41.9999987182618,8|0|0,0:0|0:0|0:0,0:0:0:0:
376,48,40807,5,0,0:0:0:0:
296,80,40949,1,0,0:0:0:0:
352,224,41091,2,0,P|366:171|354:123,1,83.9999974365235,8|0,0:0|0:0,0:0:0:0:
320,300,41373,2,0,L|268:304,2,41.9999987182618
388,356,41656,2,0,L|429:352,2,41.9999987182618,8|0|0,0:0|0:0|0:0,0:0:0:0:
216,304,41939,6,0,P|184:324|128:332,1,83.9999974365235
148,248,42222,2,0,P|143:219|157:166,1,83.9999974365235,8|0,0:0|0:0,0:0:0:0:
152,68,42505,2,0,L|180:32,2,41.9999987182618
220,108,42788,2,0,L|272:104,2,41.9999987182618,8|0|0,0:0|0:0|0:0,0:0:0:0:
308,52,43071,6,0,P|348:80|368:116,1,83.9999974365235
380,200,43354,1,8,0:0:0:0:
304,168,43496,1,0,0:0:0:0:
300,256,43637,2,0,L|280:304,2,41.9999987182618
380,288,43920,2,0,L|384:340,2,41.9999987182618,8|0|0,0:0|0:0|0:0,0:0:0:0:
456,256,44203,5,0,0:0:0:0:
456,172,44345,2,0,P|455:129|440:91,1,83.9999974365235,0|8,0:0|0:0,0:0:0:0:
364,128,44628,1,0,0:0:0:0:
292,84,44769,2,0,L|240:88,2,41.9999987182618
198,163,45052,2,0,L|240:160,2,41.9999987182618,8|0|0,0:0|0:0|0:0,0:0:0:0:
88,104,45335,5,0,0:0:0:0:
48,180,45477,1,0,0:0:0:0:
100,244,45618,2,0,P|119:282|118:326,1,83.9999974365235,8|0,0:0|0:0,0:0:0:0:
192,364,45901,2,0,L|233:360,2,41.9999987182618
268,272,46184,2,0,L|216:276,2,41.9999987182618,8|0|0,0:0|0:0|0:0,0:0:0:0:
376,280,46468,6,0,P|356:312|312:340,1,83.9999974365235
320,216,46751,2,0,P|312:172|336:128,1,83.9999974365235
360,64,47034,2,0,L|324:44,2,41.9999987182618
408,136,47317,2,0,L|449:132,2,41.9999987182618,8|0|0,0:0|0:0|0:0,0:0:0:0:
412,304,47600,6,0,P|336:328|260:312,1,140
208,276,48024,1,0,0:0:0:0:
121,207,48166,2,0,P|197:183|256:192,1,140,0|8,0:0|0:0,0:0:0:0:
348,220,48590,1,0,0:0:0:0:
392,132,48732,6,0,L|316:96,1,70
256,72,49015,1,0,0:0:0:0:
256,72,49156,1,0,0:0:0:0:
184,104,49298,2,0,L|118:129,1,70
56,232,49581,2,0,L|121:206,1,70,8|0,0:0|0:0,0:0:0:0:
184,272,49864,6,0,P|236:312|332:328,1,140
392,336,50288,1,0,0:0:0:0:
360,256,50430,2,0,L|452:240,1,70
404,164,50713,2,0,L|464:92,1,70,8|0,0:0|0:0,0:0:0:0:
372,76,50996,6,0,P|308:68|236:16,1,140
112,176,51562,2,0,P|84:192|40:204,2,70
256,52,52128,6,0,P|278:119|243:218,1,140,4|0,0:0|0:0,0:0:0:0:
188,232,52552,1,0,0:0:0:0:
172,320,52694,2,0,P|244:340|328:304,1,140,0|8,0:0|0:0,0:0:0:0:
352,260,53118,1,0,0:0:0:0:
276,220,53260,6,0,P|312:160|313:85,1,140
476,144,53826,2,0,P|436:156|392:148,1,70
432,304,54109,2,0,L|424:208,1,70
328,124,54392,5,0,0:0:0:0:
160,148,54675,1,8,0:0:0:0:
264,280,54958,2,0,L|356:264,1,70
248,104,55241,2,0,L|228:28,1,70,0|0,0:0|0:0,0:0:0:0:
256,192,55524,12,0,56373,0:0:0:0:
364,112,56656,6,0,P|280:116|200:148,1,140,0|8,0:0|0:0,0:0:0:0:
192,212,57081,1,0,0:0:0:0:
160,296,57222,2,0,L|90:296,1,70
258,276,57505,2,0,L|328:276,1,70
392,224,57788,5,0,0:0:0:0:
400,92,57930,1,0,0:0:0:0:
280,148,58071,1,8,0:0:0:0:
317,213,58213,1,0,0:0:0:0:
468,96,58354,2,0,P|400:92|336:56,1,140,0|0,0:0|0:0,0:0:0:0:
172,52,58920,6,0,P|108:88|24:84,1,140,0|8,0:0|0:0,0:0:0:0:
12,168,59345,1,0,0:0:0:0:
96,168,59486,2,0,P|149:171|229:210,1,140,0|8,0:0|0:0,0:0:0:0:
200,292,59911,1,0,0:0:0:0:
272,337,60052,6,0,L|356:325,1,70
425,295,60335,2,0,P|453:267|464:233,1,70,8|0,0:0|0:0,0:0:0:0:
404,177,60618,2,0,P|432:149|443:115,1,70,8|0,0:0|0:0,0:0:0:0:
484,24,60901,2,0,P|444:24|416:40,1,70,0|0,0:0|0:0,0:0:0:0:
364,104,61184,6,0,P|312:112|248:96,1,105
220,108,61467,2,0,P|224:72|216:24,1,70,8|0,0:0|0:0,0:0:0:0:
0,96,61751,2,0,P|60:100|132:84,1,105
144,88,62034,2,0,P|136:128|144:160,1,70,8|0,0:0|0:0,0:0:0:0:
69,217,62317,5,0,0:0:0:0:
155,262,62458,1,0,0:0:0:0:
236,206,62600,1,8,0:0:0:0:
220,108,62741,1,0,0:0:0:0:
300,20,62883,2,0,P|304:88|335:153,1,140,0|2,0:0|0:0,0:0:0:0:
276,336,63449,6,0,L|288:248,1,70
360,228,63732,1,8,0:0:0:0:
360,228,63873,1,0,0:0:0:0:
236,48,64015,2,0,L|224:136,1,70
152,156,64298,1,8,0:0:0:0:
152,156,64439,1,0,0:0:0:0:
152,240,64581,6,0,P|208:244|244:268,1,70,0|0,0:0|0:0,0:0:0:0:
304,296,64864,2,0,P|308:240|332:204,1,70,0|0,0:0|0:0,0:0:0:0:
360,144,65147,6,0,P|304:140|268:116,1,70,0|0,0:0|0:0,0:0:0:0:
208,88,65430,2,0,P|204:144|180:180,1,70,0|0,0:0|0:0,0:0:0:0:
332,248,65713,6,0,L|408:248,1,70,4|0,0:0|0:0,0:0:0:0:
420,164,65996,1,8,0:0:0:0:
428,80,66137,1,0,0:0:0:0:
344,72,66279,5,8,0:0:0:0:
344,72,66420,1,0,0:0:0:0:
220,144,66562,1,8,0:0:0:0:
220,144,66703,1,0,0:0:0:0:
180,248,66845,6,0,L|104:248,1,70,4|0,0:0|0:0,0:0:0:0:
92,164,67128,1,8,0:0:0:0:
84,80,67269,1,0,0:0:0:0:
168,72,67411,5,8,0:0:0:0:
168,72,67552,1,0,0:0:0:0:
292,144,67694,1,8,0:0:0:0:
292,144,67835,1,0,0:0:0:0:
272,292,67977,6,4,P|308:296|348:292,1,70
424,276,68260,1,8,0:0:0:0:
424,276,68401,1,0,0:0:0:0:
416,144,68543,6,0,P|416:110|408:68,1,70,0|0,0:0|0:0,0:0:0:0:
324,52,68826,1,8,0:0:0:0:
324,52,68967,1,0,0:0:0:0:
168,72,69109,6,0,P|164:108|168:148,1,70,4|0,0:0|0:0,0:0:0:0:
200,220,69392,1,8,0:0:0:0:
200,220,69533,1,0,0:0:0:0:
88,272,69675,6,0,L|4:236,1,70,4|0,0:0|0:0,0:0:0:0:
24,160,69958,2,0,L|100:116,1,70,4|0,0:0|0:0,0:0:0:0:
72,32,70241,5,0,0:0:0:0:
156,28,70383,1,0,0:0:0:0:
232,60,70524,1,0,0:0:0:0:
284,128,70666,1,0,0:0:0:0:
352,76,70807,5,0,0:0:0:0:
284,128,70949,1,0,0:0:0:0:
272,212,71090,1,0,0:0:0:0:
300,292,71232,1,0,0:0:0:0:
420,224,71373,6,0,L|468:208,2,35
300,292,71656,2,0,L|260:304,2,35,8|0|0,0:0|0:0|0:0,0:0:0:0:
284,128,71939,2,0,L|332:116,2,35
152,200,72222,2,0,L|108:212,2,35,8|0|0,0:0|0:0|0:0,0:0:0:0:
256,192,72505,12,0,74486,0:0:0:0:
