osu file format v12

[General]
AudioFilename: Ryu - Plan 8.mp3
AudioLeadIn: 1445
PreviewTime: 29486
Countdown: 0
SampleSet: Normal
StackLeniency: 0.7
Mode: 0
LetterboxInBreaks: 0

[Editor]
Bookmarks: 7912,9044,9610,15270,19799,29421,38478,46403,56591,72420,74684,92798,102986
DistanceSpacing: 1.2
BeatDivisor: 4
GridSize: 4

[Metadata]
Title:Plan 8
TitleUnicode:Plan 8
Artist:Ryu*
ArtistUnicode:Ryu☆
Creator:wantuole
Version:Another
Source:beatmania IIDX 20 TRICORO
Tags:Lan wings fanzhen0019 mintong89 Firce777 HAPPY GABBA LEGEND CROSS
BeatmapID:216129
BeatmapSetID:76825

[Difficulty]
HPDrainRate:6
CircleSize:4
OverallDifficulty:7
ApproachRate:9
SliderMultiplier:1.6
SliderTickRate:2

[Events]
//Background and Video events
0,0,"bg.jpg",0,0
//Break Periods
//Storyboard Layer 0 (Background)
//Storyboard Layer 1 (Fail)
//Storyboard Layer 2 (Pass)
//Storyboard Layer 3 (Foreground)
//Storyboard Sound Samples
//Background Colour Transformations
3,100,163,162,255

[TimingPoints]
1185,283.018867924528,4,2,0,55,1,0
7977,-100,4,1,0,55,0,0
11373,-100,4,1,0,45,0,0
19864,-100,4,1,0,35,0,0
20430,-100,4,2,0,55,0,0
24958,-100,4,1,0,45,0,0
27222,-100,4,1,0,55,0,0
29486,-90.9090909090909,4,1,0,55,0,1
29557,-90.9090909090909,4,1,0,55,0,0
38543,-83.3333333333333,4,1,0,55,0,1
38614,-83.3333333333333,4,1,0,55,0,0
47600,-100,4,1,0,50,0,0
56656,-100,4,1,0,50,0,0
72505,-100,4,1,0,10,0,0
72788,-100,4,1,0,15,0,0
73071,-100,4,1,0,20,0,0
73354,-100,4,1,0,25,0,0
73637,-100,4,1,0,30,0,0
73920,-100,4,1,0,35,0,0
74203,-100,4,1,0,40,0,0
74486,-100,4,1,0,45,0,0

[Colours]
Combo1 : 255,128,0
Combo2 : 23,168,255
Combo3 : 255,128,192
Combo4 : 0,244,159

[HitObjects]
76,296,1185,2,0,P|64:236|76:164,1,120
56,156,1468,2,0,P|104:152|148:132,1,80,8|0,0:0|0:0,0:0:0:0:
232,124,1751,2,0,P|232:168|196:212,1,80
329,169,2034,2,0,P|312:200|312:244,1,80,8|0,0:0|0:0,0:0:0:0:
264,320,2317,5,0,0:0:0:0:
264,320,2458,1,0,0:0:0:0:
160,264,2600,1,8,0:0:0:0:
160,264,2741,1,0,0:0:0:0:
116,156,2883,2,2,P|150:135|189:112,1,80,2|0,0:0|0:0,0:0:0:0:
297,120,3166,2,2,L|364:76,1,80,2|0,0:0|0:0,0:0:0:0:
232,216,3449,6,0,B|251:241|251:241|299:232|336:275,1,120
348,292,3732,2,0,P|388:237|428:202,1,120,8|0,0:0|0:0,0:0:0:0:
408,84,4015,2,0,L|486:92,2,40
296,120,4298,2,0,L|307:51,2,40,8|0|0,0:0|0:0|0:0,0:0:0:0:
168,60,4581,5,0,0:0:0:0:
168,60,4722,1,0,0:0:0:0:
144,180,4864,1,8,0:0:0:0:
263,207,5005,1,0,0:0:0:0:
143,179,5147,2,2,L|64:176,1,80,2|0,0:0|0:0,0:0:0:0:
244,284,5430,2,2,P|247:251|263:207,1,80,2|0,0:0|0:0,0:0:0:0:
376,84,5713,6,0,P|308:44|248:44,1,120
248,52,5996,2,0,L|164:60,1,80,8|0,0:0|0:0,0:0:0:0:
52,136,6279,2,0,L|4:128,2,40
144,180,6562,2,0,L|212:164,2,40,8|0|0,0:0|0:0|0:0,0:0:0:0:
124,288,6845,6,0,P|184:280|284:328,1,160,0|8,0:0|0:0,0:0:0:0:
152,372,7269,1,0,0:0:0:0:
180,104,7411,2,2,L|262:93,1,80,2|0,0:0|0:0,0:0:0:0:
216,200,7694,2,2,L|295:191,1,80,2|0,0:0|0:0,0:0:0:0:
96,96,7977,5,0,0:0:0:0:
96,96,8118,1,0,0:0:0:0:
48,192,8260,1,0,0:0:0:0:
48,192,8401,1,0,0:0:0:0:
32,57,8543,1,0,0:0:0:0:
32,57,8684,1,0,0:0:0:0:
144,231,8826,1,0,0:0:0:0:
144,231,8967,1,0,0:0:0:0:
200,64,9109,5,0,0:0:0:0:
200,64,9180,2,0,L|288:56,1,80
328,96,9392,1,0,0:0:0:0:
328,96,9463,2,0,L|400:100,1,40
270,202,9675,1,0,0:0:0:0:
286,205,9746,1,0,0:0:0:0:
301,208,9817,1,0,0:0:0:0:
317,210,9887,1,0,0:0:0:0:
333,213,9958,1,0,0:0:0:0:
256,192,10100,12,2,11090,0:0:0:0:
412,260,11373,6,0,P|324:272|248:316,1,160,0|8,0:0|0:0,0:0:0:0:
172,304,11798,1,0,0:0:0:0:
120,208,11939,2,0,P|204:216|296:192,1,160,0|8,0:0|0:0,0:0:0:0:
280,100,12364,1,0,0:0:0:0:
188,92,12505,6,0,P|200:43|220:-8,1,80
356,116,12788,2,0,P|304:99|280:99,1,80,8|0,0:0|0:0,0:0:0:0:
224,176,13071,1,0,0:0:0:0:
224,176,13354,1,2,0:0:0:0:
324,248,13637,6,0,B|276:272|188:260|188:260|184:284|160:296,1,160,0|8,0:0|0:0,0:0:0:0:
148,360,14062,1,0,0:0:0:0:
80,172,14203,2,0,B|84:160|76:136|76:136|140:144|208:120,1,160,0|8,0:0|0:0,0:0:0:0:
284,84,14628,1,0,0:0:0:0:
392,72,14769,6,0,P|372:120|384:164,1,80,0|0,0:0|0:0,0:0:0:0:
440,216,15052,2,0,P|460:168|448:124,1,80,8|0,0:0|0:0,0:0:0:0:
392,72,15335,1,2,0:0:0:0:
284,52,15477,1,0,0:0:0:0:
236,148,15618,1,8,0:0:0:0:
324,216,15760,1,0,0:0:0:0:
284,52,15901,6,0,P|216:44|168:61,1,120,0|0,0:0|0:0,0:0:0:0:
88,40,16184,2,0,P|92:88|72:128,1,80,8|0,0:0|0:0,0:0:0:0:
160,204,16468,2,0,P|176:264|152:328,1,120
232,348,16751,2,0,L|332:340,1,80,8|0,0:0|0:0,0:0:0:0:
352,272,17034,5,0,0:0:0:0:
429,195,17175,1,0,0:0:0:0:
400,88,17317,1,8,0:0:0:0:
292,60,17458,1,0,0:0:0:0:
336,160,17600,1,0,0:0:0:0:
336,160,17883,1,2,0:0:0:0:
220,136,18166,6,0,L|124:88,1,80
148,100,18378,1,0,0:0:0:0:
148,100,18449,1,8,0:0:0:0:
48,116,18590,1,0,0:0:0:0:
43,232,18732,2,0,L|120:208,1,80
120,208,18944,1,0,0:0:0:0:
120,208,19015,1,8,0:0:0:0:
156,300,19156,1,0,0:0:0:0:
256,296,19298,5,0,0:0:0:0:
244,284,19368,1,0,0:0:0:0:
256,272,19439,1,0,0:0:0:0:
244,260,19509,1,0,0:0:0:0:
256,248,19581,1,0,0:0:0:0:
244,236,19651,1,0,0:0:0:0:
256,224,19722,1,0,0:0:0:0:
244,212,19792,1,0,0:0:0:0:
256,196,19864,1,0,0:2:0:0:
256,192,19934,1,0,0:0:0:0:
256,188,20005,1,0,0:0:0:0:
256,184,20076,1,0,0:0:0:0:
256,180,20147,1,0,0:0:0:0:
188,120,20288,1,0,0:0:0:0:
256,68,20430,6,0,P|288:92|352:104,2,80,2|0|2,0:0|0:0|0:0,0:0:0:0:
408,124,20854,1,0,0:0:0:0:
420,224,20996,2,0,P|388:200|316:200,1,80,2|0,0:0|0:0,0:0:0:0:
256,164,21279,1,2,0:0:0:0:
184,300,21420,1,0,0:0:0:0:
108,332,21562,6,0,P|68:300|48:248,1,80,0|0,0:0|0:0,0:0:0:0:
68,196,21845,2,0,P|115:177|170:186,1,80,2|0,0:0|0:0,0:0:0:0:
208,224,22128,2,0,P|200:274|165:317,1,80,0|0,0:0|0:0,0:0:0:0:
304,160,22411,2,0,P|311:109|346:66,1,80,2|0,0:0|0:0,0:0:0:0:
332,56,22623,1,0,0:0:0:0:
296,48,22694,6,0,P|254:39|198:-9,2,80,2|0|2,0:0|0:0|0:0,0:0:0:0:
384,140,23118,1,0,0:0:0:0:
332,260,23260,2,0,P|361:291|430:316,2,80,2|0|2,0:0|0:0|0:0,0:0:0:0:
256,240,23684,1,0,0:0:0:0:
136,300,23826,6,0,P|92:288|56:260,1,80
124,216,24109,2,0,P|112:171|118:126,1,80,2|0,0:0|0:0,0:0:0:0:
332,168,24392,2,0,P|296:136|232:128,1,80,0|0,0:0|0:0,0:0:0:0:
192,168,24675,1,4,0:0:0:0:
404,216,24817,1,0,0:0:0:0:
205,246,24958,5,0,0:0:0:0:
205,246,25029,1,0,0:0:0:0:
205,246,25100,2,0,L|192:168,1,80,0|0,0:0|0:0,0:0:0:0:
332,168,25383,1,0,0:0:0:0:
468,296,25524,2,0,P|424:300|376:276,1,80
312,324,25807,2,0,P|308:280|332:232,1,80
308,72,26090,5,0,0:0:0:0:
308,72,26161,1,0,0:0:0:0:
308,72,26232,2,0,L|196:84,1,80
192,168,26515,1,0,0:0:0:0:
112,320,26656,2,0,L|224:308,1,80
228,80,26939,1,4,0:2:0:0:
284,304,27081,1,0,0:0:0:0:
344,236,27222,6,0,L|428:252,1,80,0|0,0:0|0:0,0:0:0:0:
422,121,27505,2,0,L|344:136,1,80
168,236,27788,2,0,L|84:252,1,80
89,121,28071,2,0,L|168:136,1,80
256,64,28354,6,0,L|268:136,3,40,0|0|0|0,0:0|0:0|0:0|0:0,0:0:0:0:
256,136,28637,2,0,L|244:196,3,40
256,208,28920,2,0,L|272:264,3,40
256,288,29203,1,0,0:0:0:0:
284,376,29345,1,0,0:2:0:0:
383,359,29486,6,0,P|449:346|493:315,1,88.000002685547,4|0,0:0|0:0,0:0:0:0:
489,310,29699,1,0,0:0:0:0:
502,284,29769,2,0,P|484:236|476:165,1,88.000002685547,8|0,0:0|0:0,0:0:0:0:
264,90,30052,1,0,0:0:0:0:
357,68,30194,1,0,0:0:0:0:
357,68,30265,1,0,0:0:0:0:
357,68,30336,2,0,L|400:62,2,44.0000013427735,8|0|0,0:0|0:0|0:0,0:0:0:0:
315,223,30618,6,0,P|300:258|260:288,1,88.000002685547
164,255,30901,2,0,P|181:222|220:192,1,88.000002685547,8|0,0:0|0:0,0:0:0:0:
194,95,31184,2,0,P|177:61|138:30,1,88.000002685547
138,30,31397,1,0,0:0:0:0:
138,30,31468,1,8,0:0:0:0:
49,29,31609,1,0,0:0:0:0:
44,218,31751,6,0,L|80:332,1,88.000002685547
70,302,31963,1,0,0:0:0:0:
71,302,32034,1,8,0:0:0:0:
229,346,32175,1,0,0:0:0:0:
288,252,32317,2,0,L|262:167,1,88.000002685547
262,167,32529,1,0,0:0:0:0:
264,168,32600,1,8,0:0:0:0:
432,73,32741,1,0,0:0:0:0:
495,153,32883,5,0,0:0:0:0:
495,153,32953,1,0,0:0:0:0:
495,153,33024,2,0,P|451:175|414:174,2,88.000002685547,0|8|0,0:0|0:0|0:0,0:0:0:0:
369,273,33449,2,0,P|325:251|288:252,1,88.000002685547
383,333,33733,1,8,0:0:0:0:
414,174,33874,1,0,0:0:0:0:
291,200,34015,6,0,P|229:222|176:205,1,88.000002685547
172,192,34227,1,0,0:0:0:0:
194,156,34298,2,0,P|207:112|194:59,1,88.000002685547,8|0,0:0|0:0,0:0:0:0:
317,15,34581,1,0,0:0:0:0:
414,82,34722,1,0,0:0:0:0:
423,99,34793,1,0,0:0:0:0:
432,117,34864,2,0,P|423:152|357:200,1,88.000002685547,8|0,0:0|0:0,0:0:0:0:
295,350,35147,6,0,P|304:315|370:266,2,88.000002685547,0|0|8,0:0|0:0|0:0,0:0:0:0:
383,359,35571,1,0,0:0:0:0:
212,262,35713,2,0,P|203:297|137:346,1,88.000002685547
115,262,35996,1,8,0:0:0:0:
106,249,36067,1,0,0:0:0:0:
97,236,36137,1,0,0:0:0:0:
88,222,36208,1,0,0:0:0:0:
80,209,36279,5,0,0:0:0:0:
72,100,36420,1,0,0:0:0:0:
168,48,36562,2,0,P|190:92|187:151,1,88.000002685547,8|0,0:0|0:0,0:0:0:0:
269,208,36845,1,0,0:0:0:0:
256,236,36916,1,0,0:0:0:0:
240,264,36986,1,0,0:0:0:0:
370,262,37128,2,0,P|388:214|445:174,1,88.000002685547,8|0,0:0|0:0,0:0:0:0:
480,108,37411,5,2,0:0:0:0:
410,29,37552,1,0,0:0:0:0:
344,160,37694,1,2,0:0:0:0:
268,32,37835,1,0,0:0:0:0:
40,56,37977,5,0,0:0:0:0:
191,70,38118,1,0,0:0:0:0:
96,160,38260,1,2,0:0:0:0:
168,228,38401,1,0,0:0:0:0:
90,303,38543,6,0,P|126:334|175:348,2,95.9999970703126,0|0|8,0:0|0:0|0:0,0:0:0:0:
256,343,38968,1,0,0:0:0:0:
291,254,39109,1,8,0:0:0:0:
305,258,39180,1,0,0:0:0:0:
318,263,39251,1,0,0:0:0:0:
331,267,39321,1,0,0:0:0:0:
345,272,39392,1,0,0:0:0:0:
358,276,39463,1,0,0:0:0:0:
372,281,39534,1,8,0:0:0:0:
211,200,39675,6,0,P|247:169|296:156,2,95.9999970703126,0|0|8,0:0|0:0|0:0,0:0:0:0:
376,187,40100,1,0,0:0:0:0:
412,276,40241,1,8,0:0:0:0:
425,272,40312,1,0,0:0:0:0:
439,267,40383,1,0,0:0:0:0:
452,263,40453,1,0,0:0:0:0:
465,258,40524,1,0,0:0:0:0:
479,254,40595,1,0,0:0:0:0:
492,250,40666,1,8,0:0:0:0:
470,111,40807,6,0,P|439:84|416:35,2,95.9999970703126,0|0|8,0:0|0:0|0:0,0:0:0:0:
505,26,41232,1,0,0:0:0:0:
331,22,41373,1,8,0:0:0:0:
318,26,41444,1,0,0:0:0:0:
305,31,41515,1,0,0:0:0:0:
291,35,41585,1,0,0:0:0:0:
278,40,41656,1,0,0:0:0:0:
264,44,41727,1,0,0:0:0:0:
251,49,41798,1,8,0:0:0:0:
148,124,41939,6,0,P|175:156|224:178,2,95.9999970703126,0|0|8,0:0|0:0|0:0,0:0:0:0:
104,37,42364,1,0,0:0:0:0:
48,113,42505,1,8,0:0:0:0:
53,126,42576,1,0,0:0:0:0:
57,139,42647,1,0,0:0:0:0:
62,153,42717,1,0,0:0:0:0:
66,166,42788,1,0,0:0:0:0:
71,179,42859,1,0,0:0:0:0:
76,192,42930,1,8,0:0:0:0:
212,236,43071,6,0,P|230:196|226:134,2,95.9999970703126,0|0|8,0:0|0:0|0:0,0:0:0:0:
150,303,43496,1,0,0:0:0:0:
287,294,43637,1,8,0:0:0:0:
300,299,43708,1,0,0:0:0:0:
314,303,43779,1,0,0:0:0:0:
327,308,43850,1,0,0:0:0:0:
340,312,43920,1,0,0:0:0:0:
354,316,43991,1,0,0:0:0:0:
367,321,44062,1,8,0:0:0:0:
456,165,44203,6,0,P|439:205|443:267,2,95.9999970703126,0|0|8,0:0|0:0|0:0,0:0:0:0:
501,84,44628,1,0,0:0:0:0:
392,36,44769,1,8,0:0:0:0:
387,49,44840,1,0,0:0:0:0:
383,62,44911,1,0,0:0:0:0:
378,76,44982,1,0,0:0:0:0:
374,89,45052,1,0,0:0:0:0:
369,102,45123,1,0,0:0:0:0:
365,116,45194,1,8,0:0:0:0:
233,210,45335,6,0,P|278:200|327:209,2,95.9999970703126,0|0|8,0:0|0:0|0:0,0:0:0:0:
407,258,45760,1,0,0:0:0:0:
376,348,45901,1,8,0:0:0:0:
363,343,45972,1,0,0:0:0:0:
349,339,46043,1,0,0:0:0:0:
336,334,46114,1,0,0:0:0:0:
322,330,46184,1,0,0:0:0:0:
309,325,46255,1,0,0:0:0:0:
296,321,46326,1,8,0:0:0:0:
184,174,46468,6,0,P|233:183|296:165,2,95.9999970703126,0|0|8,0:0|0:0|0:0,0:0:0:0:
104,125,46893,1,0,0:0:0:0:
104,223,47034,1,0,0:0:0:0:
104,223,47104,1,0,0:0:0:0:
104,223,47175,2,0,P|55:232|-7:214,2,95.9999970703126,0|8|0,0:0|0:0|0:0,0:0:0:0:
256,260,47600,6,0,P|300:268|356:252,2,80,4|0|8,0:2|0:0|0:0,0:0:0:0:
172,300,48024,1,0,0:0:0:0:
120,220,48166,1,0,0:0:0:0:
208,172,48307,1,0,0:0:0:0:
208,172,48378,1,0,0:0:0:0:
208,172,48449,1,8,0:0:0:0:
256,76,48590,1,0,0:0:0:0:
294,155,48732,6,0,P|330:127|344:96,1,80
408,160,49015,2,0,P|410:193|392:235,1,80,8|0,0:0|0:0,0:0:0:0:
300,248,49298,1,0,0:0:0:0:
300,248,49369,1,0,0:0:0:0:
300,248,49439,2,0,P|336:276|351:307,1,80,0|8,0:0|0:0,0:0:0:0:
260,328,49723,1,0,0:0:0:0:
208,252,49865,5,0,0:0:0:0:
208,252,49934,1,0,0:0:0:0:
208,252,50005,2,0,L|116:272,1,80,0|8,0:0|0:0,0:0:0:0:
44,248,50289,1,0,0:0:0:0:
60,160,50431,2,0,L|148:140,1,80
188,60,50714,1,8,0:0:0:0:
188,60,50855,1,0,0:0:0:0:
276,108,50997,5,0,0:0:0:0:
276,108,51067,1,0,0:0:0:0:
276,108,51138,2,0,P|324:112|360:140,2,80,0|8|0,0:0|0:0|0:0,0:0:0:0:
244,280,51562,2,0,P|196:276|160:248,1,80,0|0,0:0|0:0,0:0:0:0:
116,192,51845,1,8,0:0:0:0:
168,124,51986,1,0,0:0:0:0:
248,156,52128,6,0,P|274:139|322:135,1,80,4|0,0:2|0:0,0:0:0:0:
322,135,52340,1,0,0:0:0:0:
322,135,52411,2,0,P|356:108|368:60,1,80,8|0,0:0|0:0,0:0:0:0:
452,120,52695,1,0,0:0:0:0:
444,204,52835,1,0,0:0:0:0:
444,204,52906,1,0,0:0:0:0:
444,204,52977,2,0,P|455:237|489:264,1,80,8|0,0:0|0:0,0:0:0:0:
368,240,53261,6,0,P|336:273|328:305,2,80,0|0|8,0:0|0:0|0:0,0:0:0:0:
408,312,53685,1,0,0:0:0:0:
256,240,53827,2,0,P|248:208|188:164,1,80
132,172,54110,1,8,0:0:0:0:
120,180,54181,1,0,0:0:0:0:
108,188,54251,1,0,0:0:0:0:
68,276,54393,5,0,0:0:0:0:
92,296,54463,1,0,0:0:0:0:
112,320,54534,1,0,0:0:0:0:
144,312,54604,1,0,0:0:0:0:
176,308,54676,2,0,P|220:300|272:316,1,80,8|0,0:0|0:0,0:0:0:0:
332,180,54958,5,0,0:0:0:0:
304,194,55028,1,0,0:0:0:0:
278,212,55099,1,0,0:0:0:0:
249,195,55169,1,0,0:0:0:0:
219,183,55241,2,0,P|178:163|124:165,1,80,8|0,0:0|0:0,0:0:0:0:
256,192,55524,12,2,56373,0:0:0:0:
100,124,56656,6,0,P|188:112|264:68,1,160,0|8,0:0|0:0,0:0:0:0:
340,80,57081,1,0,0:0:0:0:
392,176,57222,2,0,P|308:168|216:192,1,160,0|8,0:0|0:0,0:0:0:0:
160,232,57647,1,0,0:0:0:0:
228,288,57788,2,0,L|332:276,1,80
407,351,58071,2,0,L|328:360,1,80,8|0,0:0|0:0,0:0:0:0:
240,364,58354,1,0,0:0:0:0:
240,360,58637,1,2,0:0:0:0:
484,220,58920,6,0,P|504:164|436:56,1,160,0|8,0:0|0:0,0:0:0:0:
392,28,59345,1,0,0:0:0:0:
376,148,59486,2,0,P|365:206|288:265,1,160,0|8,0:0|0:0,0:0:0:0:
200,296,59911,1,0,0:0:0:0:
140,208,60052,2,0,P|152:160|144:120,1,80,0|0,0:0|0:0,0:0:0:0:
28,212,60335,2,0,P|31:238|11:286,1,80,8|0,0:0|0:0,0:0:0:0:
120,316,60618,1,2,0:0:0:0:
264,304,60760,1,0,0:0:0:0:
116,224,60901,1,8,0:0:0:0:
256,208,61043,1,0,0:0:0:0:
374,338,61184,6,0,P|332:312|264:304,1,120
256,208,61467,2,0,P|252:160|272:120,1,80,8|0,0:0|0:0,0:0:0:0:
392,12,61751,2,0,P|376:72|400:136,1,120
427,206,62034,2,0,P|388:212|352:196,1,80,8|0,0:0|0:0,0:0:0:0:
208,124,62317,5,0,0:0:0:0:
140,192,62458,1,0,0:0:0:0:
168,284,62600,1,8,0:0:0:0:
264,304,62741,1,0,0:0:0:0:
304,148,62883,1,0,0:0:0:0:
304,148,63166,1,2,0:0:0:0:
488,296,63449,6,0,P|470:267|384:232,1,120
384,240,63732,1,8,0:0:0:0:
292,268,63873,1,0,0:0:0:0:
128,352,64015,6,0,P|156:334|196:244,1,120
192,244,64298,1,8,0:0:0:0:
208,152,64439,1,0,0:0:0:0:
184,60,64581,6,0,L|88:80,1,80,4|0,0:2|0:0,0:0:0:0:
89,168,64864,2,0,L|168:152,1,80,0|0,0:0|0:0,0:0:0:0:
192,244,65147,2,0,L|113:260,1,80,2|0,0:0|0:0,0:0:0:0:
97,348,65430,2,0,L|176:332,1,80,0|0,0:0|0:0,0:0:0:0:
320,60,65713,6,0,L|428:80,1,80,4|0,0:0|0:0,0:0:0:0:
344,152,65996,2,0,L|422:168,1,80,0|0,0:0|0:0,0:0:0:0:
316,244,66279,2,0,L|394:260,1,80,2|0,0:0|0:0,0:0:0:0:
336,332,66562,2,0,L|414:348,1,80
192,60,66845,6,0,L|96:80,1,80,4|0,0:2|0:0,0:0:0:0:
176,152,67128,2,0,L|254:168,1,80,0|0,0:0|0:0,0:0:0:0:
196,244,67411,2,0,L|117:260,1,80,2|0,0:0|0:0,0:0:0:0:
172,336,67694,2,0,L|284:360,1,80
336,332,67977,5,4,0:2:0:0:
344,284,68118,1,0,0:0:0:0:
364,240,68260,1,0,0:0:0:0:
396,204,68401,1,0,0:0:0:0:
396,112,68543,5,4,0:2:0:0:
348,124,68684,1,0,0:0:0:0:
300,124,68826,1,0,0:0:0:0:
252,116,68968,1,0,0:0:0:0:
176,52,69109,5,4,0:2:0:0:
176,52,69251,1,0,0:0:0:0:
176,52,69392,1,0,0:0:0:0:
176,52,69534,1,0,0:0:0:0:
80,60,69675,5,4,0:2:0:0:
80,60,69817,1,0,0:0:0:0:
64,156,69958,5,4,0:2:0:0:
64,156,70100,1,0,0:0:0:0:
156,180,70241,5,0,0:0:0:0:
220,252,70383,1,0,0:0:0:0:
184,340,70524,1,0,0:0:0:0:
120,268,70666,1,0,0:0:0:0:
256,164,70807,5,0,0:0:0:0:
320,236,70949,1,0,0:0:0:0:
284,324,71090,1,0,0:0:0:0:
220,252,71232,1,0,0:0:0:0:
320,84,71373,6,0,L|368:72,3,40
440,140,71656,2,0,L|401:149,3,40
320,236,71939,2,0,L|368:224,3,40
460,284,72222,2,0,L|422:294,3,40
256,192,72505,12,0,74486,0:0:0:0:
