osu file format v14

[General]
AudioFilename: Ryu - Plan 8.mp3
AudioLeadIn: 0
PreviewTime: 72314
Countdown: 1
SampleSet: None
StackLeniency: 0.7
Mode: 3
LetterboxInBreaks: 1
SpecialStyle: 0
WidescreenStoryboard: 0

[Editor]
DistanceSpacing: 1
BeatDivisor: 4
GridSize: 4
TimelineZoom: 1.3

[Metadata]
Title:Plan 8
TitleUnicode:Plan 8
Artist:Ryu*
ArtistUnicode:Ryu☆
Creator:tangjinxi
Version:7K Black Another
Source:beatmania IIDX
Tags:20th Tricoro Original Soundtrack Vol.1 KONAMI BEMANI jubeat saucer plus DanceDanceRevolution HAPPY GABBA Scratch 皿 盤 Café de Tran 赤のリピカ Simple_Star Collab QuanTUM Kuo Kyoka
BeatmapID:755138
BeatmapSetID:341527

[Difficulty]
HPDrainRate:8
CircleSize:7
OverallDifficulty:8
ApproachRate:5
SliderMultiplier:1.4
SliderTickRate:1

[Events]
//Background and Video events
0,0,"BG.jpg",0,0
//Break Periods
//Storyboard Layer 0 (Background)
//Storyboard Layer 1 (Fail)
//Storyboard Layer 2 (Pass)
//Storyboard Layer 3 (Foreground)
//Storyboard Sound Samples

[TimingPoints]
145,283.018867924528,4,3,0,30,1,0

[HitObjects]
36,192,145,5,0,0:0:0:0:
109,192,145,1,0,0:0:0:0:
475,192,145,1,0,0:0:0:0:
402,192,145,1,0,0:0:0:0:
182,192,286,1,0,0:0:0:0:
329,192,286,1,0,0:0:0:0:
109,192,428,1,0,0:0:0:0:
36,192,428,1,0,0:0:0:0:
475,192,428,1,0,0:0:0:0:
402,192,428,1,0,0:0:0:0:
182,192,569,1,0,0:0:0:0:
256,192,640,1,0,0:0:0:0:
329,192,711,1,0,0:0:0:0:
475,192,711,1,0,0:0:0:0:
182,192,852,1,0,0:0:0:0:
36,192,852,1,0,0:0:0:0:
329,192,994,1,0,0:0:0:0:
475,192,994,1,0,0:0:0:0:
256,192,1135,1,0,0:0:0:0:
182,192,1135,1,0,0:0:0:0:
109,192,1277,1,0,0:0:0:0:
36,192,1277,1,0,0:0:0:0:
402,192,1277,1,0,0:0:0:0:
475,192,1277,1,0,0:0:0:0:
36,192,1560,1,0,0:0:0:0:
109,192,1560,1,0,0:0:0:0:
402,192,1560,1,0,0:0:0:0:
475,192,1560,1,0,0:0:0:0:
182,192,1630,1,0,0:0:0:0:
256,192,1701,1,0,0:0:0:0:
329,192,1772,1,0,0:0:0:0:
475,192,1843,128,0,1984:0:0:0:0:
402,192,1843,1,0,0:0:0:0:
256,192,1984,1,0,0:0:0:0:
475,192,2126,128,0,2267:0:0:0:0:
402,192,2126,1,0,0:0:0:0:
256,192,2267,1,0,0:0:0:0:
36,192,2409,1,0,0:0:0:0:
109,192,2409,1,0,0:0:0:0:
402,192,2409,1,0,0:0:0:0:
475,192,2409,1,0,0:0:0:0:
182,192,2550,1,0,0:0:0:0:
329,192,2550,1,0,0:0:0:0:
109,192,2692,1,0,0:0:0:0:
402,192,2692,1,0,0:0:0:0:
475,192,2692,1,0,0:0:0:0:
36,192,2692,1,0,0:0:0:0:
329,192,2833,1,0,0:0:0:0:
256,192,2904,1,0,0:0:0:0:
182,192,2975,1,0,0:0:0:0:
36,192,2975,1,0,0:0:0:0:
329,192,3116,1,0,0:0:0:0:
475,192,3116,1,0,0:0:0:0:
36,192,3258,1,0,0:0:0:0:
182,192,3258,1,0,0:0:0:0:
256,192,3399,1,0,0:0:0:0:
329,192,3399,1,0,0:0:0:0:
402,192,3541,1,0,0:0:0:0:
475,192,3541,1,0,0:0:0:0:
36,192,3541,1,0,0:0:0:0:
109,192,3541,1,0,0:0:0:0:
109,192,3824,1,0,0:0:0:0:
36,192,3824,1,0,0:0:0:0:
402,192,3824,1,0,0:0:0:0:
475,192,3824,1,0,0:0:0:0:
329,192,3894,1,0,0:0:0:0:
256,192,3965,1,0,0:0:0:0:
182,192,4036,1,0,0:0:0:0:
109,192,4107,1,0,0:0:0:0:
36,192,4107,128,0,4248:0:0:0:0:
256,192,4248,1,0,0:0:0:0:
109,192,4390,1,0,0:0:0:0:
36,192,4390,128,0,4531:0:0:0:0:
256,192,4531,1,0,0:0:0:0:
475,192,4673,1,0,0:0:0:0:
36,192,4673,1,0,0:0:0:0:
109,192,4673,1,0,0:0:0:0:
402,192,4673,1,0,0:0:0:0:
182,192,4814,1,0,0:0:0:0:
329,192,4814,1,0,0:0:0:0:
256,192,4814,1,0,0:0:0:0:
36,192,4956,1,0,0:0:0:0:
109,192,4956,1,0,0:0:0:0:
402,192,4956,1,0,0:0:0:0:
475,192,4956,1,0,0:0:0:0:
182,192,5097,1,0,0:0:0:0:
329,192,5097,1,0,0:0:0:0:
256,192,5168,1,0,0:0:0:0:
109,192,5168,1,0,0:0:0:0:
182,192,5239,1,0,0:0:0:0:
36,192,5239,1,0,0:0:0:0:
475,192,5239,1,0,0:0:0:0:
402,192,5239,1,0,0:0:0:0:
256,192,5380,1,0,0:0:0:0:
109,192,5522,1,0,0:0:0:0:
36,192,5522,1,0,0:0:0:0:
329,192,5522,1,0,0:0:0:0:
475,192,5522,1,0,0:0:0:0:
182,192,5663,1,0,0:0:0:0:
256,192,5663,1,0,0:0:0:0:
36,192,5805,1,0,0:0:0:0:
109,192,5805,1,0,0:0:0:0:
402,192,5805,1,0,0:0:0:0:
475,192,5805,1,0,0:0:0:0:
182,192,5946,1,0,0:0:0:0:
256,192,5946,1,0,0:0:0:0:
329,192,5946,1,0,0:0:0:0:
109,192,6088,1,0,0:0:0:0:
36,192,6088,1,0,0:0:0:0:
402,192,6088,1,0,0:0:0:0:
475,192,6088,1,0,0:0:0:0:
182,192,6229,1,0,0:0:0:0:
475,192,6229,1,0,0:0:0:0:
109,192,6300,1,0,0:0:0:0:
402,192,6300,1,0,0:0:0:0:
36,192,6371,128,0,6512:0:0:0:0:
329,192,6371,1,0,0:0:0:0:
256,192,6371,1,0,0:0:0:0:
109,192,6512,1,0,0:0:0:0:
182,192,6512,1,0,0:0:0:0:
36,192,6654,128,0,6795:0:0:0:0:
329,192,6654,1,0,0:0:0:0:
256,192,6654,1,0,0:0:0:0:
109,192,6795,1,0,0:0:0:0:
182,192,6795,1,0,0:0:0:0:
329,192,6937,1,0,0:0:0:0:
402,192,6937,1,0,0:0:0:0:
475,192,6937,1,0,0:0:0:0:
36,192,6937,1,0,0:0:0:0:
256,192,6937,1,0,0:0:0:0:
36,192,7078,1,0,0:0:0:0:
109,192,7078,1,0,0:0:0:0:
402,192,7078,1,0,0:0:0:0:
475,192,7078,1,0,0:0:0:0:
329,192,7078,1,0,0:0:0:0:
36,192,7220,1,0,0:0:0:0:
109,192,7220,1,0,0:0:0:0:
182,192,7220,1,0,0:0:0:0:
402,192,7220,1,0,0:0:0:0:
475,192,7220,1,0,0:0:0:0:
36,192,7361,1,0,0:0:0:0:
109,192,7361,1,0,0:0:0:0:
182,192,7361,1,0,0:0:0:0:
256,192,7361,1,0,0:0:0:0:
475,192,7361,1,0,0:0:0:0:
475,192,7503,1,0,0:0:0:0:
182,192,7503,1,0,0:0:0:0:
256,192,7503,1,0,0:0:0:0:
109,192,7503,1,0,0:0:0:0:
36,192,7503,1,0,0:0:0:0:
182,192,7644,1,0,0:0:0:0:
402,192,7644,1,0,0:0:0:0:
475,192,7644,1,0,0:0:0:0:
109,192,7644,1,0,0:0:0:0:
36,192,7644,1,0,0:0:0:0:
329,192,7786,1,0,0:0:0:0:
402,192,7786,1,0,0:0:0:0:
475,192,7786,1,0,0:0:0:0:
109,192,7786,1,0,0:0:0:0:
36,192,7786,1,0,0:0:0:0:
36,192,7928,1,0,0:0:0:0:
256,192,7928,1,0,0:0:0:0:
329,192,7928,1,0,0:0:0:0:
402,192,7928,1,0,0:0:0:0:
475,192,7928,1,0,0:0:0:0:
36,192,8069,1,0,0:0:0:0:
182,192,8069,1,0,0:0:0:0:
256,192,8069,1,0,0:0:0:0:
329,192,8069,1,0,0:0:0:0:
402,192,8069,1,0,0:0:0:0:
475,192,8069,1,0,0:0:0:0:
36,192,8211,1,0,0:0:0:0:
109,192,8211,1,0,0:0:0:0:
256,192,8211,1,0,0:0:0:0:
329,192,8211,1,0,0:0:0:0:
402,192,8211,1,0,0:0:0:0:
475,192,8211,1,0,0:0:0:0:
36,192,8352,1,0,0:0:0:0:
109,192,8352,1,0,0:0:0:0:
182,192,8352,1,0,0:0:0:0:
329,192,8352,1,0,0:0:0:0:
402,192,8352,1,0,0:0:0:0:
475,192,8352,1,0,0:0:0:0:
36,192,8494,1,0,0:0:0:0:
109,192,8494,1,0,0:0:0:0:
182,192,8494,1,0,0:0:0:0:
256,192,8494,1,0,0:0:0:0:
402,192,8494,1,0,0:0:0:0:
475,192,8494,1,0,0:0:0:0:
36,192,8635,1,0,0:0:0:0:
109,192,8635,1,0,0:0:0:0:
182,192,8635,1,0,0:0:0:0:
256,192,8635,1,0,0:0:0:0:
329,192,8635,1,0,0:0:0:0:
475,192,8635,1,0,0:0:0:0:
36,192,8777,1,0,0:0:0:0:
109,192,8777,1,0,0:0:0:0:
182,192,8777,1,0,0:0:0:0:
256,192,8777,1,0,0:0:0:0:
329,192,8777,1,0,0:0:0:0:
402,192,8777,1,0,0:0:0:0:
475,192,8918,1,0,0:0:0:0:
182,192,8918,1,0,0:0:0:0:
109,192,8918,1,0,0:0:0:0:
36,192,8918,1,0,0:0:0:0:
256,192,8918,1,0,0:0:0:0:
402,192,8989,1,0,0:0:0:0:
329,192,9060,1,0,0:0:0:0:
256,192,9130,1,0,0:0:0:0:
182,192,9201,1,0,0:0:0:0:
109,192,9201,1,0,0:0:0:0:
36,192,9201,1,0,0:0:0:0:
402,192,9201,1,0,0:0:0:0:
475,192,9201,1,0,0:0:0:0:
329,192,9272,1,0,0:0:0:0:
256,192,9343,1,0,0:0:0:0:
182,192,9413,1,0,0:0:0:0:
109,192,9484,1,0,0:0:0:0:
36,192,9484,1,0,0:0:0:0:
329,192,9484,1,0,0:0:0:0:
402,192,9484,1,0,0:0:0:0:
475,192,9484,1,0,0:0:0:0:
256,192,9555,1,0,0:0:0:0:
182,192,9626,1,0,0:0:0:0:
109,192,9696,1,0,0:0:0:0:
36,192,9767,1,0,0:0:0:0:
329,192,9767,1,0,0:0:0:0:
402,192,9767,1,0,0:0:0:0:
475,192,9767,1,0,0:0:0:0:
256,192,9767,1,0,0:0:0:0:
109,192,9838,1,0,0:0:0:0:
182,192,9909,1,0,0:0:0:0:
256,192,9979,1,0,0:0:0:0:
329,192,10050,1,0,0:0:0:0:
402,192,10050,1,0,0:0:0:0:
475,192,10050,1,0,0:0:0:0:
36,192,10050,1,0,0:0:0:0:
109,192,10050,1,0,0:0:0:0:
182,192,10050,1,0,0:0:0:0:
256,192,10333,1,0,0:0:0:0:
475,192,10333,1,0,0:0:0:0:
402,192,10333,1,0,0:0:0:0:
182,192,10333,1,0,0:0:0:0:
329,192,10475,1,0,0:0:0:0:
109,192,10475,1,0,0:0:0:0:
109,192,10616,1,0,0:0:0:0:
36,192,10616,1,0,0:0:0:0:
256,192,10616,1,0,0:0:0:0:
402,192,10758,1,0,0:0:0:0:
182,192,10758,1,0,0:0:0:0:
182,192,10899,1,0,0:0:0:0:
256,192,10899,1,0,0:0:0:0:
402,192,10899,1,0,0:0:0:0:
475,192,10899,1,0,0:0:0:0:
182,192,11041,1,0,0:0:0:0:
256,192,11041,1,0,0:0:0:0:
402,192,11041,1,0,0:0:0:0:
475,192,11041,1,0,0:0:0:0:
256,192,11182,1,0,0:0:0:0:
109,192,11182,1,0,0:0:0:0:
36,192,11182,1,0,0:0:0:0:
475,192,11324,1,0,0:0:0:0:
402,192,11324,1,0,0:0:0:0:
329,192,11394,1,0,0:0:0:0:
256,192,11394,1,0,0:0:0:0:
36,192,11465,1,0,0:0:0:0:
109,192,11465,1,0,0:0:0:0:
182,192,11465,1,0,0:0:0:0:
256,192,11607,1,0,0:0:0:0:
109,192,11607,1,0,0:0:0:0:
182,192,11607,1,0,0:0:0:0:
182,192,11748,1,0,0:0:0:0:
256,192,11748,1,0,0:0:0:0:
329,192,11748,1,0,0:0:0:0:
256,192,11890,1,0,0:0:0:0:
329,192,11890,1,0,0:0:0:0:
402,192,11890,1,0,0:0:0:0:
329,192,12031,1,0,0:0:0:0:
402,192,12031,1,0,0:0:0:0:
475,192,12031,1,0,0:0:0:0:
256,192,12173,1,0,0:0:0:0:
182,192,12173,1,0,0:0:0:0:
109,192,12314,1,0,0:0:0:0:
36,192,12314,1,0,0:0:0:0:
402,192,12314,1,0,0:0:0:0:
475,192,12314,1,0,0:0:0:0:
182,192,12314,1,0,0:0:0:0:
256,192,12597,1,0,0:0:0:0:
475,192,12597,1,0,0:0:0:0:
402,192,12597,1,0,0:0:0:0:
182,192,12597,1,0,0:0:0:0:
329,192,12739,1,0,0:0:0:0:
109,192,12739,1,0,0:0:0:0:
256,192,12880,1,0,0:0:0:0:
36,192,12880,1,0,0:0:0:0:
109,192,12880,1,0,0:0:0:0:
402,192,13022,1,0,0:0:0:0:
182,192,13022,1,0,0:0:0:0:
182,192,13163,1,0,0:0:0:0:
256,192,13163,1,0,0:0:0:0:
402,192,13163,1,0,0:0:0:0:
475,192,13163,1,0,0:0:0:0:
182,192,13305,1,0,0:0:0:0:
402,192,13305,1,0,0:0:0:0:
475,192,13305,1,0,0:0:0:0:
256,192,13305,1,0,0:0:0:0:
109,192,13446,1,0,0:0:0:0:
256,192,13446,1,0,0:0:0:0:
36,192,13446,1,0,0:0:0:0:
402,192,13588,1,0,0:0:0:0:
475,192,13588,1,0,0:0:0:0:
256,192,13659,1,0,0:0:0:0:
329,192,13659,1,0,0:0:0:0:
182,192,13729,1,0,0:0:0:0:
109,192,13729,1,0,0:0:0:0:
36,192,13729,1,0,0:0:0:0:
256,192,13871,1,0,0:0:0:0:
182,192,13871,1,0,0:0:0:0:
109,192,13871,1,0,0:0:0:0:
329,192,14012,1,0,0:0:0:0:
256,192,14012,1,0,0:0:0:0:
182,192,14012,1,0,0:0:0:0:
329,192,14154,1,0,0:0:0:0:
402,192,14154,1,0,0:0:0:0:
256,192,14154,1,0,0:0:0:0:
329,192,14295,1,0,0:0:0:0:
402,192,14295,1,0,0:0:0:0:
475,192,14295,1,0,0:0:0:0:
36,192,14295,128,0,14437:0:0:0:0:
109,192,14295,1,0,0:0:0:0:
402,192,14437,1,0,0:0:0:0:
329,192,14437,1,0,0:0:0:0:
256,192,14437,1,0,0:0:0:0:
329,192,14578,1,0,0:0:0:0:
256,192,14578,1,0,0:0:0:0:
182,192,14578,1,0,0:0:0:0:
36,192,14578,128,0,14720:0:0:0:0:
402,192,14861,1,0,0:0:0:0:
475,192,14861,1,0,0:0:0:0:
109,192,14861,1,0,0:0:0:0:
256,192,14861,1,0,0:0:0:0:
182,192,15003,1,0,0:0:0:0:
329,192,15003,1,0,0:0:0:0:
36,192,15144,1,0,0:0:0:0:
256,192,15144,1,0,0:0:0:0:
182,192,15144,1,0,0:0:0:0:
402,192,15286,1,0,0:0:0:0:
256,192,15286,1,0,0:0:0:0:
402,192,15428,1,0,0:0:0:0:
475,192,15428,1,0,0:0:0:0:
182,192,15428,1,0,0:0:0:0:
109,192,15428,1,0,0:0:0:0:
475,192,15569,1,0,0:0:0:0:
182,192,15569,1,0,0:0:0:0:
402,192,15569,1,0,0:0:0:0:
109,192,15569,1,0,0:0:0:0:
36,192,15711,1,0,0:0:0:0:
256,192,15711,1,0,0:0:0:0:
182,192,15711,1,0,0:0:0:0:
475,192,15852,1,0,0:0:0:0:
402,192,15852,1,0,0:0:0:0:
329,192,15923,1,0,0:0:0:0:
256,192,15923,1,0,0:0:0:0:
109,192,15994,1,0,0:0:0:0:
182,192,15994,1,0,0:0:0:0:
36,192,15994,1,0,0:0:0:0:
182,192,16135,1,0,0:0:0:0:
109,192,16135,1,0,0:0:0:0:
256,192,16135,1,0,0:0:0:0:
182,192,16277,1,0,0:0:0:0:
256,192,16277,1,0,0:0:0:0:
329,192,16277,1,0,0:0:0:0:
256,192,16418,1,0,0:0:0:0:
402,192,16418,1,0,0:0:0:0:
329,192,16418,1,0,0:0:0:0:
475,192,16560,1,0,0:0:0:0:
402,192,16560,1,0,0:0:0:0:
329,192,16560,1,0,0:0:0:0:
36,192,16701,1,0,0:0:0:0:
182,192,16701,1,0,0:0:0:0:
329,192,16701,1,0,0:0:0:0:
36,192,16843,1,0,0:0:0:0:
109,192,16843,1,0,0:0:0:0:
402,192,16843,1,0,0:0:0:0:
475,192,16843,1,0,0:0:0:0:
256,192,16843,1,0,0:0:0:0:
402,192,17126,1,0,0:0:0:0:
475,192,17126,1,0,0:0:0:0:
109,192,17126,1,0,0:0:0:0:
256,192,17126,1,0,0:0:0:0:
182,192,17267,1,0,0:0:0:0:
329,192,17267,1,0,0:0:0:0:
182,192,17409,1,0,0:0:0:0:
256,192,17409,1,0,0:0:0:0:
36,192,17409,1,0,0:0:0:0:
402,192,17550,1,0,0:0:0:0:
256,192,17550,1,0,0:0:0:0:
402,192,17692,1,0,0:0:0:0:
475,192,17692,1,0,0:0:0:0:
182,192,17692,1,0,0:0:0:0:
109,192,17692,1,0,0:0:0:0:
475,192,17833,1,0,0:0:0:0:
402,192,17833,1,0,0:0:0:0:
109,192,17833,1,0,0:0:0:0:
182,192,17833,1,0,0:0:0:0:
256,192,17975,1,0,0:0:0:0:
36,192,17975,1,0,0:0:0:0:
182,192,17975,1,0,0:0:0:0:
402,192,18116,1,0,0:0:0:0:
475,192,18116,1,0,0:0:0:0:
256,192,18187,1,0,0:0:0:0:
329,192,18187,1,0,0:0:0:0:
109,192,18258,1,0,0:0:0:0:
36,192,18258,1,0,0:0:0:0:
182,192,18258,1,0,0:0:0:0:
182,192,18399,1,0,0:0:0:0:
109,192,18399,1,0,0:0:0:0:
256,192,18399,1,0,0:0:0:0:
329,192,18541,1,0,0:0:0:0:
256,192,18541,1,0,0:0:0:0:
182,192,18541,1,0,0:0:0:0:
402,192,18682,1,0,0:0:0:0:
329,192,18682,1,0,0:0:0:0:
256,192,18682,1,0,0:0:0:0:
475,192,18824,1,0,0:0:0:0:
402,192,18824,1,0,0:0:0:0:
329,192,18824,1,0,0:0:0:0:
36,192,18824,1,0,0:0:0:0:
109,192,18824,1,0,0:0:0:0:
402,192,18965,1,0,0:0:0:0:
329,192,18965,1,0,0:0:0:0:
256,192,18965,1,0,0:0:0:0:
329,192,19107,1,0,0:0:0:0:
256,192,19107,1,0,0:0:0:0:
182,192,19107,1,0,0:0:0:0:
36,192,19390,1,0,0:0:0:0:
182,192,19390,1,0,0:0:0:0:
402,192,19531,1,0,0:0:0:0:
36,192,19673,1,0,0:0:0:0:
182,192,19673,1,0,0:0:0:0:
402,192,19814,1,0,0:0:0:0:
36,192,19956,1,0,0:0:0:0:
182,192,19956,1,0,0:0:0:0:
402,192,20097,1,0,0:0:0:0:
329,192,20239,1,0,0:0:0:0:
256,192,20380,1,0,0:0:0:0:
109,192,20522,1,0,0:0:0:0:
182,192,20522,1,0,0:0:0:0:
475,192,20663,1,0,0:0:0:0:
109,192,20805,1,0,0:0:0:0:
182,192,20805,1,0,0:0:0:0:
475,192,20946,1,0,0:0:0:0:
256,192,21088,1,0,0:0:0:0:
329,192,21229,1,0,0:0:0:0:
402,192,21371,1,0,0:0:0:0:
475,192,21512,1,0,0:0:0:0:
36,192,21654,1,0,0:0:0:0:
182,192,21654,1,0,0:0:0:0:
402,192,21795,1,0,0:0:0:0:
182,192,21937,1,0,0:0:0:0:
36,192,21937,1,0,0:0:0:0:
402,192,22078,1,0,0:0:0:0:
182,192,22220,1,0,0:0:0:0:
36,192,22220,1,0,0:0:0:0:
402,192,22361,1,0,0:0:0:0:
329,192,22503,1,0,0:0:0:0:
256,192,22644,1,0,0:0:0:0:
182,192,22786,1,0,0:0:0:0:
109,192,22786,1,0,0:0:0:0:
475,192,22928,1,0,0:0:0:0:
109,192,23069,1,0,0:0:0:0:
182,192,23069,1,0,0:0:0:0:
475,192,23211,1,0,0:0:0:0:
256,192,23352,1,0,0:0:0:0:
329,192,23494,1,0,0:0:0:0:
402,192,23635,1,0,0:0:0:0:
36,192,23635,1,0,0:0:0:0:
109,192,23635,1,0,0:0:0:0:
182,192,23635,1,0,0:0:0:0:
475,192,23777,1,0,0:0:0:0:
36,192,23918,1,0,0:0:0:0:
109,192,23918,1,0,0:0:0:0:
182,192,23918,1,0,0:0:0:0:
329,192,24060,1,0,0:0:0:0:
475,192,24060,1,0,0:0:0:0:
36,192,24201,1,0,0:0:0:0:
109,192,24201,1,0,0:0:0:0:
182,192,24201,1,0,0:0:0:0:
329,192,24343,1,0,0:0:0:0:
475,192,24343,1,0,0:0:0:0:
36,192,24484,1,0,0:0:0:0:
109,192,24484,1,0,0:0:0:0:
182,192,24484,1,0,0:0:0:0:
329,192,24626,1,0,0:0:0:0:
475,192,24626,1,0,0:0:0:0:
402,192,24767,1,0,0:0:0:0:
256,192,24767,1,0,0:0:0:0:
182,192,24909,1,0,0:0:0:0:
329,192,24909,1,0,0:0:0:0:
109,192,24979,1,0,0:0:0:0:
36,192,25050,1,0,0:0:0:0:
256,192,25050,1,0,0:0:0:0:
182,192,25050,1,0,0:0:0:0:
402,192,25192,1,0,0:0:0:0:
475,192,25192,1,0,0:0:0:0:
36,192,25333,1,0,0:0:0:0:
182,192,25333,1,0,0:0:0:0:
256,192,25333,1,0,0:0:0:0:
402,192,25475,1,0,0:0:0:0:
475,192,25475,1,0,0:0:0:0:
36,192,25616,1,0,0:0:0:0:
182,192,25616,1,0,0:0:0:0:
256,192,25616,1,0,0:0:0:0:
109,192,25758,1,0,0:0:0:0:
329,192,25758,1,0,0:0:0:0:
256,192,25758,1,0,0:0:0:0:
182,192,25899,1,0,0:0:0:0:
329,192,25899,1,0,0:0:0:0:
402,192,25899,1,0,0:0:0:0:
256,192,26041,1,0,0:0:0:0:
402,192,26041,1,0,0:0:0:0:
475,192,26041,1,0,0:0:0:0:
329,192,26182,1,0,0:0:0:0:
475,192,26182,1,0,0:0:0:0:
402,192,26182,1,0,0:0:0:0:
36,192,26324,1,0,0:0:0:0:
182,192,26324,1,0,0:0:0:0:
329,192,26465,1,0,0:0:0:0:
402,192,26465,1,0,0:0:0:0:
475,192,26465,1,0,0:0:0:0:
36,192,26607,1,0,0:0:0:0:
182,192,26607,1,0,0:0:0:0:
329,192,26748,1,0,0:0:0:0:
475,192,26748,1,0,0:0:0:0:
402,192,26748,1,0,0:0:0:0:
182,192,26890,1,0,0:0:0:0:
36,192,26890,1,0,0:0:0:0:
329,192,27031,1,0,0:0:0:0:
475,192,27031,1,0,0:0:0:0:
256,192,27173,1,0,0:0:0:0:
402,192,27173,1,0,0:0:0:0:
182,192,27314,1,0,0:0:0:0:
36,192,27314,1,0,0:0:0:0:
475,192,27314,1,0,0:0:0:0:
109,192,27385,1,0,0:0:0:0:
402,192,27385,1,0,0:0:0:0:
329,192,27456,1,0,0:0:0:0:
182,192,27456,1,0,0:0:0:0:
256,192,27527,1,0,0:0:0:0:
475,192,27527,1,0,0:0:0:0:
36,192,27597,1,0,0:0:0:0:
402,192,27597,1,0,0:0:0:0:
109,192,27668,1,0,0:0:0:0:
329,192,27668,1,0,0:0:0:0:
182,192,27739,1,0,0:0:0:0:
256,192,27739,1,0,0:0:0:0:
329,192,27810,1,0,0:0:0:0:
402,192,27880,1,0,0:0:0:0:
36,192,27880,1,0,0:0:0:0:
109,192,27951,1,0,0:0:0:0:
475,192,27951,1,0,0:0:0:0:
182,192,28022,1,0,0:0:0:0:
402,192,28022,1,0,0:0:0:0:
256,192,28093,1,0,0:0:0:0:
329,192,28093,1,0,0:0:0:0:
402,192,28163,1,0,0:0:0:0:
109,192,28163,1,0,0:0:0:0:
475,192,28305,1,0,0:0:0:0:
182,192,28305,1,0,0:0:0:0:
109,192,28446,1,0,0:0:0:0:
36,192,28446,1,0,0:0:0:0:
329,192,28446,1,0,0:0:0:0:
402,192,28446,1,0,0:0:0:0:
256,192,28588,1,0,0:0:0:0:
182,192,28588,1,0,0:0:0:0:
36,192,28729,1,0,0:0:0:0:
109,192,28729,1,0,0:0:0:0:
329,192,28729,1,0,0:0:0:0:
402,192,28729,1,0,0:0:0:0:
256,192,28871,1,0,0:0:0:0:
182,192,28871,1,0,0:0:0:0:
109,192,29012,1,0,0:0:0:0:
36,192,29012,1,0,0:0:0:0:
329,192,29012,1,0,0:0:0:0:
402,192,29012,1,0,0:0:0:0:
182,192,29154,1,0,0:0:0:0:
475,192,29154,1,0,0:0:0:0:
256,192,29225,1,0,0:0:0:0:
329,192,29295,1,0,0:0:0:0:
402,192,29295,1,0,0:0:0:0:
402,192,29437,1,0,0:0:0:0:
475,192,29437,1,0,0:0:0:0:
329,192,29578,1,0,0:0:0:0:
475,192,29578,1,0,0:0:0:0:
256,192,29578,1,0,0:0:0:0:
36,192,29578,1,0,0:0:0:0:
109,192,29720,1,0,0:0:0:0:
182,192,29720,1,0,0:0:0:0:
36,192,29861,1,0,0:0:0:0:
256,192,29861,1,0,0:0:0:0:
329,192,29861,1,0,0:0:0:0:
475,192,29861,1,0,0:0:0:0:
182,192,30003,1,0,0:0:0:0:
109,192,30003,1,0,0:0:0:0:
182,192,30144,1,0,0:0:0:0:
256,192,30144,1,0,0:0:0:0:
256,192,30286,1,0,0:0:0:0:
329,192,30286,1,0,0:0:0:0:
402,192,30357,1,0,0:0:0:0:
475,192,30428,1,0,0:0:0:0:
182,192,30428,1,0,0:0:0:0:
109,192,30428,1,0,0:0:0:0:
256,192,30498,1,0,0:0:0:0:
36,192,30569,1,0,0:0:0:0:
402,192,30569,1,0,0:0:0:0:
329,192,30569,1,0,0:0:0:0:
36,192,30711,1,0,0:0:0:0:
182,192,30711,1,0,0:0:0:0:
256,192,30711,1,0,0:0:0:0:
475,192,30711,1,0,0:0:0:0:
109,192,30852,1,0,0:0:0:0:
329,192,30852,1,0,0:0:0:0:
36,192,30994,1,0,0:0:0:0:
182,192,30994,1,0,0:0:0:0:
256,192,30994,1,0,0:0:0:0:
475,192,30994,1,0,0:0:0:0:
329,192,31135,1,0,0:0:0:0:
109,192,31135,1,0,0:0:0:0:
36,192,31277,1,0,0:0:0:0:
182,192,31277,1,0,0:0:0:0:
256,192,31277,1,0,0:0:0:0:
475,192,31277,1,0,0:0:0:0:
109,192,31418,1,0,0:0:0:0:
402,192,31418,1,0,0:0:0:0:
182,192,31489,1,0,0:0:0:0:
256,192,31560,1,0,0:0:0:0:
475,192,31560,1,0,0:0:0:0:
402,192,31630,1,0,0:0:0:0:
329,192,31701,1,0,0:0:0:0:
109,192,31701,1,0,0:0:0:0:
36,192,31701,1,0,0:0:0:0:
182,192,31843,1,0,0:0:0:0:
256,192,31843,1,0,0:0:0:0:
402,192,31843,1,0,0:0:0:0:
475,192,31843,1,0,0:0:0:0:
329,192,31984,1,0,0:0:0:0:
109,192,31984,1,0,0:0:0:0:
182,192,32126,1,0,0:0:0:0:
256,192,32126,1,0,0:0:0:0:
402,192,32126,1,0,0:0:0:0:
475,192,32126,1,0,0:0:0:0:
329,192,32267,1,0,0:0:0:0:
109,192,32267,1,0,0:0:0:0:
36,192,32409,1,0,0:0:0:0:
182,192,32409,1,0,0:0:0:0:
402,192,32479,1,0,0:0:0:0:
109,192,32550,1,0,0:0:0:0:
256,192,32550,1,0,0:0:0:0:
475,192,32621,1,0,0:0:0:0:
182,192,32692,1,0,0:0:0:0:
329,192,32692,1,0,0:0:0:0:
36,192,32762,1,0,0:0:0:0:
256,192,32833,1,0,0:0:0:0:
402,192,32833,1,0,0:0:0:0:
109,192,32904,1,0,0:0:0:0:
182,192,32975,1,0,0:0:0:0:
329,192,32975,1,0,0:0:0:0:
475,192,32975,1,0,0:0:0:0:
402,192,32975,1,0,0:0:0:0:
36,192,33116,1,0,0:0:0:0:
109,192,33116,1,0,0:0:0:0:
182,192,33258,1,0,0:0:0:0:
329,192,33258,1,0,0:0:0:0:
402,192,33258,1,0,0:0:0:0:
475,192,33258,1,0,0:0:0:0:
36,192,33399,1,0,0:0:0:0:
109,192,33399,1,0,0:0:0:0:
182,192,33541,1,0,0:0:0:0:
329,192,33541,1,0,0:0:0:0:
402,192,33541,1,0,0:0:0:0:
475,192,33541,1,0,0:0:0:0:
256,192,33682,1,0,0:0:0:0:
36,192,33682,1,0,0:0:0:0:
109,192,33753,1,0,0:0:0:0:
329,192,33753,1,0,0:0:0:0:
182,192,33824,1,0,0:0:0:0:
402,192,33824,1,0,0:0:0:0:
475,192,33824,1,0,0:0:0:0:
402,192,33965,1,0,0:0:0:0:
329,192,33965,1,0,0:0:0:0:
109,192,33965,1,0,0:0:0:0:
36,192,34107,1,0,0:0:0:0:
109,192,34107,1,0,0:0:0:0:
182,192,34107,1,0,0:0:0:0:
475,192,34107,1,0,0:0:0:0:
256,192,34248,1,0,0:0:0:0:
402,192,34248,1,0,0:0:0:0:
36,192,34390,1,0,0:0:0:0:
109,192,34390,1,0,0:0:0:0:
182,192,34390,1,0,0:0:0:0:
475,192,34390,1,0,0:0:0:0:
256,192,34531,1,0,0:0:0:0:
402,192,34531,1,0,0:0:0:0:
475,192,34673,1,0,0:0:0:0:
329,192,34673,1,0,0:0:0:0:
109,192,34744,1,0,0:0:0:0:
402,192,34814,1,0,0:0:0:0:
256,192,34814,1,0,0:0:0:0:
36,192,34885,1,0,0:0:0:0:
329,192,34956,1,0,0:0:0:0:
182,192,34956,1,0,0:0:0:0:
475,192,35027,1,0,0:0:0:0:
256,192,35097,1,0,0:0:0:0:
109,192,35097,1,0,0:0:0:0:
402,192,35168,1,0,0:0:0:0:
182,192,35239,1,0,0:0:0:0:
36,192,35239,1,0,0:0:0:0:
329,192,35239,1,0,0:0:0:0:
475,192,35239,1,0,0:0:0:0:
402,192,35380,1,0,0:0:0:0:
256,192,35380,1,0,0:0:0:0:
36,192,35522,1,0,0:0:0:0:
182,192,35522,1,0,0:0:0:0:
329,192,35522,1,0,0:0:0:0:
475,192,35522,1,0,0:0:0:0:
256,192,35663,1,0,0:0:0:0:
402,192,35663,1,0,0:0:0:0:
36,192,35805,1,0,0:0:0:0:
182,192,35805,1,0,0:0:0:0:
329,192,35805,1,0,0:0:0:0:
475,192,35805,1,0,0:0:0:0:
256,192,35946,1,0,0:0:0:0:
402,192,35946,1,0,0:0:0:0:
182,192,36017,1,0,0:0:0:0:
109,192,36088,1,0,0:0:0:0:
36,192,36088,1,0,0:0:0:0:
475,192,36088,1,0,0:0:0:0:
402,192,36159,1,0,0:0:0:0:
329,192,36229,1,0,0:0:0:0:
256,192,36229,1,0,0:0:0:0:
109,192,36229,1,0,0:0:0:0:
36,192,36371,1,0,0:0:0:0:
182,192,36371,1,0,0:0:0:0:
402,192,36512,1,0,0:0:0:0:
36,192,36654,1,0,0:0:0:0:
182,192,36654,1,0,0:0:0:0:
402,192,36795,1,0,0:0:0:0:
36,192,36937,1,0,0:0:0:0:
182,192,36937,1,0,0:0:0:0:
256,192,36937,1,0,0:0:0:0:
109,192,37078,1,0,0:0:0:0:
256,192,37078,1,0,0:0:0:0:
329,192,37078,1,0,0:0:0:0:
36,192,37149,1,0,0:0:0:0:
182,192,37220,1,0,0:0:0:0:
329,192,37220,1,0,0:0:0:0:
402,192,37220,1,0,0:0:0:0:
109,192,37291,1,0,0:0:0:0:
256,192,37361,1,0,0:0:0:0:
402,192,37361,1,0,0:0:0:0:
475,192,37361,1,0,0:0:0:0:
182,192,37432,1,0,0:0:0:0:
109,192,37503,1,0,0:0:0:0:
36,192,37503,1,0,0:0:0:0:
329,192,37503,1,0,0:0:0:0:
402,192,37503,1,0,0:0:0:0:
182,192,37644,1,0,0:0:0:0:
256,192,37644,1,0,0:0:0:0:
475,192,37644,1,0,0:0:0:0:
182,192,37786,1,0,0:0:0:0:
256,192,37786,1,0,0:0:0:0:
475,192,37786,1,0,0:0:0:0:
36,192,37928,1,0,0:0:0:0:
329,192,37928,1,0,0:0:0:0:
182,192,38069,1,0,0:0:0:0:
256,192,38069,1,0,0:0:0:0:
475,192,38069,1,0,0:0:0:0:
36,192,38140,1,0,0:0:0:0:
109,192,38211,1,0,0:0:0:0:
182,192,38281,1,0,0:0:0:0:
256,192,38281,1,0,0:0:0:0:
475,192,38281,1,0,0:0:0:0:
36,192,38352,1,0,0:0:0:0:
109,192,38423,1,0,0:0:0:0:
182,192,38494,1,0,0:0:0:0:
256,192,38494,1,0,0:0:0:0:
475,192,38494,1,0,0:0:0:0:
329,192,38635,1,0,0:0:0:0:
109,192,38635,1,0,0:0:0:0:
36,192,38635,1,0,0:0:0:0:
402,192,38777,1,0,0:0:0:0:
475,192,38777,1,0,0:0:0:0:
256,192,38777,1,0,0:0:0:0:
256,192,38918,1,0,0:0:0:0:
475,192,38918,1,0,0:0:0:0:
402,192,38918,1,0,0:0:0:0:
109,192,39060,1,0,0:0:0:0:
329,192,39060,1,0,0:0:0:0:
256,192,39201,1,0,0:0:0:0:
402,192,39201,1,0,0:0:0:0:
475,192,39201,1,0,0:0:0:0:
109,192,39272,1,0,0:0:0:0:
182,192,39343,1,0,0:0:0:0:
256,192,39413,1,0,0:0:0:0:
402,192,39413,1,0,0:0:0:0:
475,192,39413,1,0,0:0:0:0:
109,192,39484,1,0,0:0:0:0:
182,192,39555,1,0,0:0:0:0:
256,192,39626,1,0,0:0:0:0:
402,192,39626,1,0,0:0:0:0:
475,192,39626,1,0,0:0:0:0:
182,192,39767,1,0,0:0:0:0:
329,192,39767,1,0,0:0:0:0:
36,192,39909,1,0,0:0:0:0:
109,192,39909,1,0,0:0:0:0:
256,192,39909,1,0,0:0:0:0:
36,192,40050,1,0,0:0:0:0:
109,192,40050,1,0,0:0:0:0:
256,192,40050,1,0,0:0:0:0:
182,192,40192,1,0,0:0:0:0:
329,192,40192,1,0,0:0:0:0:
36,192,40333,1,0,0:0:0:0:
109,192,40333,1,0,0:0:0:0:
256,192,40333,1,0,0:0:0:0:
402,192,40404,1,0,0:0:0:0:
329,192,40475,1,0,0:0:0:0:
256,192,40545,1,0,0:0:0:0:
109,192,40545,1,0,0:0:0:0:
36,192,40545,1,0,0:0:0:0:
402,192,40616,1,0,0:0:0:0:
329,192,40687,1,0,0:0:0:0:
256,192,40758,1,0,0:0:0:0:
109,192,40758,1,0,0:0:0:0:
36,192,40758,1,0,0:0:0:0:
182,192,40899,1,0,0:0:0:0:
402,192,40899,1,0,0:0:0:0:
256,192,41041,1,0,0:0:0:0:
329,192,41041,1,0,0:0:0:0:
36,192,41041,1,0,0:0:0:0:
475,192,41041,1,0,0:0:0:0:
36,192,41182,1,0,0:0:0:0:
256,192,41182,1,0,0:0:0:0:
329,192,41182,1,0,0:0:0:0:
475,192,41182,1,0,0:0:0:0:
402,192,41324,1,0,0:0:0:0:
182,192,41324,1,0,0:0:0:0:
256,192,41465,1,0,0:0:0:0:
329,192,41465,1,0,0:0:0:0:
475,192,41465,1,0,0:0:0:0:
36,192,41465,1,0,0:0:0:0:
109,192,41536,1,0,0:0:0:0:
182,192,41607,1,0,0:0:0:0:
256,192,41678,1,0,0:0:0:0:
329,192,41678,1,0,0:0:0:0:
475,192,41678,1,0,0:0:0:0:
36,192,41678,1,0,0:0:0:0:
109,192,41748,1,0,0:0:0:0:
182,192,41819,1,0,0:0:0:0:
36,192,41890,1,0,0:0:0:0:
256,192,41890,1,0,0:0:0:0:
475,192,41890,1,0,0:0:0:0:
402,192,41890,1,0,0:0:0:0:
109,192,42031,1,0,0:0:0:0:
329,192,42031,1,0,0:0:0:0:
182,192,42173,1,0,0:0:0:0:
36,192,42173,1,0,0:0:0:0:
402,192,42173,1,0,0:0:0:0:
36,192,42314,1,0,0:0:0:0:
182,192,42314,1,0,0:0:0:0:
402,192,42314,1,0,0:0:0:0:
256,192,42456,1,0,0:0:0:0:
475,192,42456,1,0,0:0:0:0:
36,192,42597,1,0,0:0:0:0:
182,192,42597,1,0,0:0:0:0:
402,192,42597,1,0,0:0:0:0:
329,192,42668,1,0,0:0:0:0:
256,192,42739,1,0,0:0:0:0:
36,192,42810,1,0,0:0:0:0:
182,192,42810,1,0,0:0:0:0:
402,192,42810,1,0,0:0:0:0:
329,192,42880,1,0,0:0:0:0:
256,192,42951,1,0,0:0:0:0:
36,192,43022,1,0,0:0:0:0:
182,192,43022,1,0,0:0:0:0:
402,192,43022,1,0,0:0:0:0:
109,192,43163,1,0,0:0:0:0:
329,192,43163,1,0,0:0:0:0:
182,192,43305,1,0,0:0:0:0:
256,192,43305,1,0,0:0:0:0:
36,192,43305,1,0,0:0:0:0:
475,192,43305,1,0,0:0:0:0:
36,192,43446,1,0,0:0:0:0:
182,192,43446,1,0,0:0:0:0:
256,192,43446,1,0,0:0:0:0:
475,192,43446,1,0,0:0:0:0:
109,192,43588,1,0,0:0:0:0:
402,192,43588,1,0,0:0:0:0:
36,192,43729,1,0,0:0:0:0:
182,192,43729,1,0,0:0:0:0:
256,192,43729,1,0,0:0:0:0:
475,192,43729,1,0,0:0:0:0:
402,192,43800,1,0,0:0:0:0:
329,192,43871,1,0,0:0:0:0:
256,192,43942,1,0,0:0:0:0:
182,192,43942,1,0,0:0:0:0:
36,192,43942,1,0,0:0:0:0:
475,192,43942,1,0,0:0:0:0:
402,192,44012,1,0,0:0:0:0:
329,192,44083,1,0,0:0:0:0:
256,192,44154,1,0,0:0:0:0:
36,192,44154,1,0,0:0:0:0:
182,192,44154,1,0,0:0:0:0:
475,192,44154,1,0,0:0:0:0:
109,192,44295,1,0,0:0:0:0:
329,192,44295,1,0,0:0:0:0:
402,192,44295,1,0,0:0:0:0:
256,192,44437,1,0,0:0:0:0:
36,192,44437,1,0,0:0:0:0:
475,192,44437,1,0,0:0:0:0:
256,192,44578,1,0,0:0:0:0:
36,192,44578,1,0,0:0:0:0:
475,192,44578,1,0,0:0:0:0:
182,192,44720,1,0,0:0:0:0:
329,192,44720,1,0,0:0:0:0:
36,192,44861,1,0,0:0:0:0:
256,192,44861,1,0,0:0:0:0:
475,192,44861,1,0,0:0:0:0:
109,192,44861,1,0,0:0:0:0:
402,192,44932,1,0,0:0:0:0:
182,192,44932,1,0,0:0:0:0:
329,192,45003,1,0,0:0:0:0:
109,192,45003,1,0,0:0:0:0:
256,192,45074,1,0,0:0:0:0:
36,192,45074,1,0,0:0:0:0:
475,192,45074,1,0,0:0:0:0:
402,192,45144,1,0,0:0:0:0:
182,192,45144,1,0,0:0:0:0:
329,192,45215,1,0,0:0:0:0:
109,192,45215,1,0,0:0:0:0:
256,192,45286,1,0,0:0:0:0:
36,192,45286,1,0,0:0:0:0:
475,192,45286,1,0,0:0:0:0:
402,192,45286,1,0,0:0:0:0:
329,192,45428,1,0,0:0:0:0:
402,192,45428,1,0,0:0:0:0:
109,192,45428,1,0,0:0:0:0:
256,192,45569,1,0,0:0:0:0:
36,192,45569,1,0,0:0:0:0:
475,192,45569,1,0,0:0:0:0:
109,192,45569,1,0,0:0:0:0:
329,192,45711,1,0,0:0:0:0:
402,192,45711,1,0,0:0:0:0:
256,192,45711,1,0,0:0:0:0:
36,192,45711,1,0,0:0:0:0:
475,192,45711,1,0,0:0:0:0:
182,192,45852,1,0,0:0:0:0:
256,192,45994,1,0,0:0:0:0:
475,192,45994,1,0,0:0:0:0:
329,192,45994,1,0,0:0:0:0:
402,192,45994,1,0,0:0:0:0:
36,192,45994,1,0,0:0:0:0:
109,192,46064,1,0,0:0:0:0:
182,192,46135,1,0,0:0:0:0:
256,192,46206,1,0,0:0:0:0:
36,192,46206,1,0,0:0:0:0:
475,192,46206,1,0,0:0:0:0:
329,192,46206,1,0,0:0:0:0:
402,192,46277,1,0,0:0:0:0:
329,192,46347,1,0,0:0:0:0:
256,192,46418,1,0,0:0:0:0:
182,192,46418,1,0,0:0:0:0:
36,192,46418,1,0,0:0:0:0:
475,192,46418,1,0,0:0:0:0:
475,192,46560,1,0,0:0:0:0:
329,192,46560,1,0,0:0:0:0:
475,192,46701,1,0,0:0:0:0:
182,192,46701,1,0,0:0:0:0:
475,192,46843,1,0,0:0:0:0:
36,192,46843,1,0,0:0:0:0:
475,192,46984,1,0,0:0:0:0:
109,192,46984,1,0,0:0:0:0:
475,192,47126,1,0,0:0:0:0:
256,192,47126,1,0,0:0:0:0:
475,192,47267,1,0,0:0:0:0:
402,192,47267,1,0,0:0:0:0:
475,192,47409,1,0,0:0:0:0:
329,192,47409,1,0,0:0:0:0:
475,192,47550,1,0,0:0:0:0:
182,192,47550,1,0,0:0:0:0:
475,192,47692,1,0,0:0:0:0:
36,192,47692,1,0,0:0:0:0:
475,192,47833,1,0,0:0:0:0:
109,192,47833,1,0,0:0:0:0:
475,192,47975,1,0,0:0:0:0:
256,192,47975,1,0,0:0:0:0:
475,192,48116,1,0,0:0:0:0:
402,192,48116,1,0,0:0:0:0:
475,192,48258,1,0,0:0:0:0:
329,192,48258,1,0,0:0:0:0:
475,192,48399,1,0,0:0:0:0:
109,192,48399,1,0,0:0:0:0:
475,192,48541,1,0,0:0:0:0:
256,192,48541,1,0,0:0:0:0:
475,192,48682,1,0,0:0:0:0:
36,192,48682,1,0,0:0:0:0:
475,192,48824,1,0,0:0:0:0:
109,192,48824,1,0,0:0:0:0:
475,192,48965,1,0,0:0:0:0:
256,192,48965,1,0,0:0:0:0:
475,192,49107,1,0,0:0:0:0:
402,192,49107,1,0,0:0:0:0:
475,192,49248,1,0,0:0:0:0:
182,192,49248,1,0,0:0:0:0:
329,192,49319,1,0,0:0:0:0:
475,192,49390,1,0,0:0:0:0:
109,192,49390,1,0,0:0:0:0:
256,192,49461,1,0,0:0:0:0:
475,192,49531,1,0,0:0:0:0:
36,192,49531,1,0,0:0:0:0:
182,192,49602,1,0,0:0:0:0:
475,192,49673,1,0,0:0:0:0:
402,192,49673,1,0,0:0:0:0:
475,192,49814,1,0,0:0:0:0:
329,192,49814,1,0,0:0:0:0:
475,192,49956,1,0,0:0:0:0:
256,192,49956,1,0,0:0:0:0:
36,192,49956,1,0,0:0:0:0:
475,192,50097,1,0,0:0:0:0:
109,192,50097,1,0,0:0:0:0:
475,192,50239,1,0,0:0:0:0:
182,192,50239,1,0,0:0:0:0:
475,192,50380,1,0,0:0:0:0:
329,192,50380,1,0,0:0:0:0:
475,192,50522,1,0,0:0:0:0:
256,192,50522,1,0,0:0:0:0:
475,192,50663,1,0,0:0:0:0:
182,192,50663,1,0,0:0:0:0:
475,192,50805,1,0,0:0:0:0:
109,192,50805,1,0,0:0:0:0:
36,192,50805,1,0,0:0:0:0:
402,192,50805,1,0,0:0:0:0:
256,192,50946,1,0,0:0:0:0:
475,192,51088,1,0,0:0:0:0:
36,192,51088,1,0,0:0:0:0:
109,192,51088,1,0,0:0:0:0:
402,192,51088,1,0,0:0:0:0:
475,192,51229,1,0,0:0:0:0:
182,192,51229,1,0,0:0:0:0:
475,192,51371,1,0,0:0:0:0:
329,192,51371,1,0,0:0:0:0:
475,192,51512,1,0,0:0:0:0:
109,192,51512,1,0,0:0:0:0:
475,192,51654,1,0,0:0:0:0:
256,192,51654,1,0,0:0:0:0:
475,192,51795,1,0,0:0:0:0:
402,192,51795,1,0,0:0:0:0:
475,192,51937,1,0,0:0:0:0:
329,192,51937,1,0,0:0:0:0:
475,192,52078,1,0,0:0:0:0:
182,192,52078,1,0,0:0:0:0:
475,192,52220,1,0,0:0:0:0:
36,192,52220,1,0,0:0:0:0:
475,192,52361,1,0,0:0:0:0:
402,192,52361,1,0,0:0:0:0:
475,192,52503,1,0,0:0:0:0:
256,192,52503,1,0,0:0:0:0:
475,192,52644,1,0,0:0:0:0:
109,192,52644,1,0,0:0:0:0:
475,192,52786,1,0,0:0:0:0:
329,192,52786,1,0,0:0:0:0:
475,192,52928,1,0,0:0:0:0:
182,192,52928,1,0,0:0:0:0:
475,192,53069,1,0,0:0:0:0:
36,192,53069,1,0,0:0:0:0:
475,192,53211,1,0,0:0:0:0:
109,192,53211,1,0,0:0:0:0:
475,192,53352,1,0,0:0:0:0:
182,192,53352,1,0,0:0:0:0:
402,192,53352,1,0,0:0:0:0:
36,192,53352,1,0,0:0:0:0:
475,192,53494,1,0,0:0:0:0:
329,192,53494,1,0,0:0:0:0:
182,192,53564,1,0,0:0:0:0:
475,192,53635,1,0,0:0:0:0:
36,192,53635,1,0,0:0:0:0:
256,192,53706,1,0,0:0:0:0:
475,192,53777,1,0,0:0:0:0:
109,192,53777,1,0,0:0:0:0:
329,192,53847,1,0,0:0:0:0:
475,192,53918,1,0,0:0:0:0:
182,192,53918,1,0,0:0:0:0:
475,192,54060,1,0,0:0:0:0:
256,192,54060,1,0,0:0:0:0:
475,192,54201,1,0,0:0:0:0:
109,192,54201,1,0,0:0:0:0:
475,192,54343,1,0,0:0:0:0:
182,192,54343,1,0,0:0:0:0:
475,192,54484,1,0,0:0:0:0:
36,192,54484,1,0,0:0:0:0:
256,192,54484,1,0,0:0:0:0:
109,192,54555,1,0,0:0:0:0:
329,192,54555,1,0,0:0:0:0:
182,192,54626,1,0,0:0:0:0:
402,192,54626,1,0,0:0:0:0:
256,192,54696,1,0,0:0:0:0:
475,192,54767,1,0,0:0:0:0:
329,192,54767,1,0,0:0:0:0:
36,192,54767,1,0,0:0:0:0:
109,192,54838,1,0,0:0:0:0:
256,192,54838,1,0,0:0:0:0:
402,192,54838,1,0,0:0:0:0:
182,192,54909,1,0,0:0:0:0:
329,192,54909,1,0,0:0:0:0:
256,192,54979,1,0,0:0:0:0:
475,192,55050,1,0,0:0:0:0:
329,192,55050,1,0,0:0:0:0:
36,192,55050,1,0,0:0:0:0:
109,192,55121,1,0,0:0:0:0:
256,192,55121,1,0,0:0:0:0:
402,192,55121,1,0,0:0:0:0:
182,192,55192,1,0,0:0:0:0:
329,192,55192,1,0,0:0:0:0:
256,192,55262,1,0,0:0:0:0:
475,192,55333,1,0,0:0:0:0:
329,192,55333,1,0,0:0:0:0:
36,192,55616,1,0,0:0:0:0:
109,192,55616,1,0,0:0:0:0:
329,192,55616,1,0,0:0:0:0:
256,192,55616,1,0,0:0:0:0:
475,192,55616,1,0,0:0:0:0:
182,192,55758,1,0,0:0:0:0:
109,192,55758,1,0,0:0:0:0:
329,192,55758,1,0,0:0:0:0:
256,192,55899,1,0,0:0:0:0:
475,192,55899,1,0,0:0:0:0:
182,192,55899,1,0,0:0:0:0:
36,192,55899,1,0,0:0:0:0:
402,192,55899,1,0,0:0:0:0:
329,192,56041,1,0,0:0:0:0:
402,192,56041,1,0,0:0:0:0:
182,192,56041,1,0,0:0:0:0:
36,192,56182,1,0,0:0:0:0:
109,192,56182,1,0,0:0:0:0:
256,192,56182,1,0,0:0:0:0:
329,192,56182,1,0,0:0:0:0:
475,192,56182,1,0,0:0:0:0:
36,192,56324,1,0,0:0:0:0:
109,192,56324,1,0,0:0:0:0:
256,192,56324,1,0,0:0:0:0:
329,192,56324,1,0,0:0:0:0:
475,192,56324,1,0,0:0:0:0:
109,192,56465,1,0,0:0:0:0:
182,192,56465,1,0,0:0:0:0:
329,192,56465,1,0,0:0:0:0:
402,192,56607,1,0,0:0:0:0:
475,192,56607,1,0,0:0:0:0:
329,192,56678,1,0,0:0:0:0:
256,192,56678,1,0,0:0:0:0:
36,192,56748,1,0,0:0:0:0:
109,192,56748,1,0,0:0:0:0:
182,192,56748,1,0,0:0:0:0:
402,192,56748,1,0,0:0:0:0:
109,192,56890,1,0,0:0:0:0:
182,192,56890,1,0,0:0:0:0:
256,192,56890,1,0,0:0:0:0:
475,192,56890,1,0,0:0:0:0:
182,192,57031,1,0,0:0:0:0:
256,192,57031,1,0,0:0:0:0:
329,192,57031,1,0,0:0:0:0:
36,192,57031,1,0,0:0:0:0:
256,192,57173,1,0,0:0:0:0:
329,192,57173,1,0,0:0:0:0:
402,192,57173,1,0,0:0:0:0:
109,192,57173,1,0,0:0:0:0:
329,192,57314,1,0,0:0:0:0:
402,192,57314,1,0,0:0:0:0:
475,192,57314,1,0,0:0:0:0:
182,192,57314,1,0,0:0:0:0:
329,192,57456,1,0,0:0:0:0:
256,192,57456,1,0,0:0:0:0:
109,192,57456,1,0,0:0:0:0:
36,192,57597,1,0,0:0:0:0:
109,192,57597,1,0,0:0:0:0:
182,192,57597,1,0,0:0:0:0:
329,192,57597,1,0,0:0:0:0:
402,192,57597,1,0,0:0:0:0:
475,192,57597,1,0,0:0:0:0:
36,192,57880,1,0,0:0:0:0:
109,192,57880,1,0,0:0:0:0:
329,192,57880,1,0,0:0:0:0:
475,192,57880,1,0,0:0:0:0:
256,192,57880,1,0,0:0:0:0:
329,192,58022,1,0,0:0:0:0:
182,192,58022,1,0,0:0:0:0:
109,192,58022,1,0,0:0:0:0:
256,192,58163,1,0,0:0:0:0:
475,192,58163,1,0,0:0:0:0:
182,192,58163,1,0,0:0:0:0:
36,192,58163,1,0,0:0:0:0:
402,192,58163,1,0,0:0:0:0:
329,192,58305,1,0,0:0:0:0:
182,192,58305,1,0,0:0:0:0:
402,192,58305,1,0,0:0:0:0:
475,192,58446,1,0,0:0:0:0:
256,192,58446,1,0,0:0:0:0:
329,192,58446,1,0,0:0:0:0:
109,192,58446,1,0,0:0:0:0:
36,192,58446,1,0,0:0:0:0:
109,192,58588,1,0,0:0:0:0:
475,192,58588,1,0,0:0:0:0:
36,192,58588,1,0,0:0:0:0:
329,192,58588,1,0,0:0:0:0:
256,192,58588,1,0,0:0:0:0:
329,192,58729,1,0,0:0:0:0:
182,192,58729,1,0,0:0:0:0:
109,192,58729,1,0,0:0:0:0:
402,192,58871,1,0,0:0:0:0:
475,192,58871,1,0,0:0:0:0:
256,192,58942,1,0,0:0:0:0:
329,192,58942,1,0,0:0:0:0:
402,192,59012,1,0,0:0:0:0:
182,192,59012,1,0,0:0:0:0:
109,192,59012,1,0,0:0:0:0:
36,192,59012,1,0,0:0:0:0:
182,192,59154,1,0,0:0:0:0:
475,192,59154,1,0,0:0:0:0:
256,192,59154,1,0,0:0:0:0:
109,192,59154,1,0,0:0:0:0:
182,192,59295,1,0,0:0:0:0:
36,192,59295,1,0,0:0:0:0:
256,192,59295,1,0,0:0:0:0:
329,192,59295,1,0,0:0:0:0:
109,192,59437,1,0,0:0:0:0:
256,192,59437,1,0,0:0:0:0:
402,192,59437,1,0,0:0:0:0:
329,192,59437,1,0,0:0:0:0:
475,192,59578,1,0,0:0:0:0:
329,192,59578,1,0,0:0:0:0:
402,192,59578,1,0,0:0:0:0:
182,192,59578,1,0,0:0:0:0:
36,192,59578,128,0,59720:0:0:0:0:
256,192,59720,1,0,0:0:0:0:
329,192,59720,1,0,0:0:0:0:
402,192,59720,1,0,0:0:0:0:
109,192,59720,1,0,0:0:0:0:
182,192,59861,1,0,0:0:0:0:
256,192,59861,1,0,0:0:0:0:
329,192,59861,1,0,0:0:0:0:
36,192,59861,128,0,60003:0:0:0:0:
475,192,59861,1,0,0:0:0:0:
402,192,60003,1,0,0:0:0:0:
109,192,60003,1,0,0:0:0:0:
475,192,60144,1,0,0:0:0:0:
329,192,60144,1,0,0:0:0:0:
36,192,60144,1,0,0:0:0:0:
182,192,60144,1,0,0:0:0:0:
109,192,60144,1,0,0:0:0:0:
182,192,60286,1,0,0:0:0:0:
329,192,60286,1,0,0:0:0:0:
256,192,60286,1,0,0:0:0:0:
402,192,60428,1,0,0:0:0:0:
182,192,60428,1,0,0:0:0:0:
475,192,60428,1,0,0:0:0:0:
329,192,60428,1,0,0:0:0:0:
36,192,60428,1,0,0:0:0:0:
182,192,60569,1,0,0:0:0:0:
329,192,60569,1,0,0:0:0:0:
256,192,60569,1,0,0:0:0:0:
109,192,60711,1,0,0:0:0:0:
36,192,60711,1,0,0:0:0:0:
475,192,60711,1,0,0:0:0:0:
182,192,60711,1,0,0:0:0:0:
329,192,60711,1,0,0:0:0:0:
329,192,60852,1,0,0:0:0:0:
36,192,60852,1,0,0:0:0:0:
109,192,60852,1,0,0:0:0:0:
475,192,60852,1,0,0:0:0:0:
182,192,60852,1,0,0:0:0:0:
182,192,60994,1,0,0:0:0:0:
329,192,60994,1,0,0:0:0:0:
256,192,60994,1,0,0:0:0:0:
475,192,61135,1,0,0:0:0:0:
402,192,61135,1,0,0:0:0:0:
329,192,61206,1,0,0:0:0:0:
256,192,61206,1,0,0:0:0:0:
109,192,61277,1,0,0:0:0:0:
36,192,61277,1,0,0:0:0:0:
402,192,61277,1,0,0:0:0:0:
182,192,61277,1,0,0:0:0:0:
256,192,61418,1,0,0:0:0:0:
109,192,61418,1,0,0:0:0:0:
182,192,61418,1,0,0:0:0:0:
475,192,61418,1,0,0:0:0:0:
256,192,61560,1,0,0:0:0:0:
329,192,61560,1,0,0:0:0:0:
182,192,61560,1,0,0:0:0:0:
36,192,61560,1,0,0:0:0:0:
402,192,61701,1,0,0:0:0:0:
329,192,61701,1,0,0:0:0:0:
109,192,61701,1,0,0:0:0:0:
256,192,61701,1,0,0:0:0:0:
402,192,61843,1,0,0:0:0:0:
182,192,61843,1,0,0:0:0:0:
475,192,61843,1,0,0:0:0:0:
329,192,61843,1,0,0:0:0:0:
109,192,61984,1,0,0:0:0:0:
256,192,61984,1,0,0:0:0:0:
329,192,61984,1,0,0:0:0:0:
36,192,62126,1,0,0:0:0:0:
182,192,62126,1,0,0:0:0:0:
329,192,62126,1,0,0:0:0:0:
475,192,62126,1,0,0:0:0:0:
109,192,62126,1,0,0:0:0:0:
402,192,62126,1,0,0:0:0:0:
475,192,62409,1,0,0:0:0:0:
329,192,62409,1,0,0:0:0:0:
36,192,62409,1,0,0:0:0:0:
109,192,62409,1,0,0:0:0:0:
182,192,62409,1,0,0:0:0:0:
256,192,62550,1,0,0:0:0:0:
182,192,62550,1,0,0:0:0:0:
329,192,62550,1,0,0:0:0:0:
402,192,62692,1,0,0:0:0:0:
182,192,62692,1,0,0:0:0:0:
475,192,62692,1,0,0:0:0:0:
329,192,62692,1,0,0:0:0:0:
36,192,62692,1,0,0:0:0:0:
182,192,62833,1,0,0:0:0:0:
256,192,62833,1,0,0:0:0:0:
329,192,62833,1,0,0:0:0:0:
329,192,62975,1,0,0:0:0:0:
475,192,62975,1,0,0:0:0:0:
182,192,62975,1,0,0:0:0:0:
36,192,62975,1,0,0:0:0:0:
109,192,62975,1,0,0:0:0:0:
36,192,63116,1,0,0:0:0:0:
182,192,63116,1,0,0:0:0:0:
329,192,63116,1,0,0:0:0:0:
475,192,63116,1,0,0:0:0:0:
109,192,63116,1,0,0:0:0:0:
256,192,63258,1,0,0:0:0:0:
329,192,63258,1,0,0:0:0:0:
182,192,63258,1,0,0:0:0:0:
475,192,63399,1,0,0:0:0:0:
402,192,63399,1,0,0:0:0:0:
256,192,63470,1,0,0:0:0:0:
329,192,63470,1,0,0:0:0:0:
182,192,63541,1,0,0:0:0:0:
402,192,63541,1,0,0:0:0:0:
36,192,63541,1,0,0:0:0:0:
109,192,63541,1,0,0:0:0:0:
109,192,63682,1,0,0:0:0:0:
475,192,63682,1,0,0:0:0:0:
182,192,63682,1,0,0:0:0:0:
256,192,63682,1,0,0:0:0:0:
256,192,63824,1,0,0:0:0:0:
36,192,63824,1,0,0:0:0:0:
329,192,63824,1,0,0:0:0:0:
182,192,63824,1,0,0:0:0:0:
256,192,63965,1,0,0:0:0:0:
402,192,63965,1,0,0:0:0:0:
109,192,63965,1,0,0:0:0:0:
329,192,63965,1,0,0:0:0:0:
475,192,64107,1,0,0:0:0:0:
402,192,64107,1,0,0:0:0:0:
182,192,64107,1,0,0:0:0:0:
329,192,64107,1,0,0:0:0:0:
36,192,64107,128,0,64248:0:0:0:0:
402,192,64248,1,0,0:0:0:0:
329,192,64248,1,0,0:0:0:0:
256,192,64248,1,0,0:0:0:0:
109,192,64248,1,0,0:0:0:0:
329,192,64390,1,0,0:0:0:0:
256,192,64390,1,0,0:0:0:0:
182,192,64390,1,0,0:0:0:0:
36,192,64390,128,0,64531:0:0:0:0:
475,192,64390,1,0,0:0:0:0:
109,192,64531,1,0,0:0:0:0:
402,192,64531,1,0,0:0:0:0:
402,192,64673,1,0,0:0:0:0:
182,192,64673,1,0,0:0:0:0:
109,192,64673,1,0,0:0:0:0:
36,192,64673,1,0,0:0:0:0:
109,192,64814,1,0,0:0:0:0:
475,192,64814,1,0,0:0:0:0:
256,192,64814,1,0,0:0:0:0:
182,192,64814,1,0,0:0:0:0:
256,192,64956,1,0,0:0:0:0:
36,192,64956,1,0,0:0:0:0:
182,192,64956,1,0,0:0:0:0:
329,192,64956,1,0,0:0:0:0:
256,192,65097,1,0,0:0:0:0:
402,192,65097,1,0,0:0:0:0:
109,192,65097,1,0,0:0:0:0:
329,192,65097,1,0,0:0:0:0:
475,192,65239,1,0,0:0:0:0:
36,192,65239,128,0,65380:0:0:0:0:
402,192,65239,1,0,0:0:0:0:
182,192,65239,1,0,0:0:0:0:
329,192,65239,1,0,0:0:0:0:
329,192,65380,1,0,0:0:0:0:
109,192,65380,1,0,0:0:0:0:
402,192,65380,1,0,0:0:0:0:
256,192,65380,1,0,0:0:0:0:
36,192,65522,128,0,65663:0:0:0:0:
256,192,65522,1,0,0:0:0:0:
329,192,65522,1,0,0:0:0:0:
475,192,65522,1,0,0:0:0:0:
182,192,65522,1,0,0:0:0:0:
402,192,65663,1,0,0:0:0:0:
109,192,65663,1,0,0:0:0:0:
109,192,65805,1,0,0:0:0:0:
36,192,65805,1,0,0:0:0:0:
402,192,65805,1,0,0:0:0:0:
182,192,65805,1,0,0:0:0:0:
256,192,65946,1,0,0:0:0:0:
182,192,65946,1,0,0:0:0:0:
109,192,65946,1,0,0:0:0:0:
475,192,65946,1,0,0:0:0:0:
182,192,66088,1,0,0:0:0:0:
329,192,66088,1,0,0:0:0:0:
256,192,66088,1,0,0:0:0:0:
36,192,66088,1,0,0:0:0:0:
109,192,66229,1,0,0:0:0:0:
329,192,66229,1,0,0:0:0:0:
256,192,66229,1,0,0:0:0:0:
402,192,66229,1,0,0:0:0:0:
182,192,66371,1,0,0:0:0:0:
329,192,66371,1,0,0:0:0:0:
402,192,66371,1,0,0:0:0:0:
475,192,66371,1,0,0:0:0:0:
36,192,66371,128,0,66512:0:0:0:0:
402,192,66512,1,0,0:0:0:0:
256,192,66512,1,0,0:0:0:0:
329,192,66512,1,0,0:0:0:0:
109,192,66512,1,0,0:0:0:0:
475,192,66654,1,0,0:0:0:0:
182,192,66654,1,0,0:0:0:0:
329,192,66654,1,0,0:0:0:0:
36,192,66654,128,0,66795:0:0:0:0:
256,192,66654,1,0,0:0:0:0:
109,192,66795,1,0,0:0:0:0:
402,192,66795,1,0,0:0:0:0:
36,192,66937,128,0,67078:0:0:0:0:
182,192,66937,1,0,0:0:0:0:
109,192,66937,1,0,0:0:0:0:
256,192,66937,1,0,0:0:0:0:
402,192,66937,1,0,0:0:0:0:
182,192,67078,1,0,0:0:0:0:
256,192,67078,1,0,0:0:0:0:
329,192,67078,1,0,0:0:0:0:
475,192,67078,1,0,0:0:0:0:
36,192,67220,128,0,67361:0:0:0:0:
256,192,67220,1,0,0:0:0:0:
329,192,67220,1,0,0:0:0:0:
402,192,67220,1,0,0:0:0:0:
329,192,67361,1,0,0:0:0:0:
402,192,67361,1,0,0:0:0:0:
475,192,67361,1,0,0:0:0:0:
109,192,67361,1,0,0:0:0:0:
36,192,67503,128,0,67644:0:0:0:0:
329,192,67503,1,0,0:0:0:0:
402,192,67503,1,0,0:0:0:0:
475,192,67503,1,0,0:0:0:0:
402,192,67644,1,0,0:0:0:0:
329,192,67644,1,0,0:0:0:0:
256,192,67644,1,0,0:0:0:0:
109,192,67644,1,0,0:0:0:0:
36,192,67786,128,0,67928:0:0:0:0:
329,192,67786,1,0,0:0:0:0:
182,192,67786,1,0,0:0:0:0:
256,192,67786,1,0,0:0:0:0:
109,192,67928,1,0,0:0:0:0:
36,192,68069,128,0,68211:0:0:0:0:
182,192,68069,1,0,0:0:0:0:
256,192,68069,1,0,0:0:0:0:
109,192,68069,1,0,0:0:0:0:
182,192,68211,1,0,0:0:0:0:
256,192,68211,1,0,0:0:0:0:
329,192,68211,1,0,0:0:0:0:
36,192,68352,128,0,68494:0:0:0:0:
256,192,68352,1,0,0:0:0:0:
329,192,68352,1,0,0:0:0:0:
402,192,68352,1,0,0:0:0:0:
109,192,68423,1,0,0:0:0:0:
329,192,68494,1,0,0:0:0:0:
402,192,68494,1,0,0:0:0:0:
475,192,68494,1,0,0:0:0:0:
36,192,68635,128,0,68777:0:0:0:0:
329,192,68635,1,0,0:0:0:0:
402,192,68635,1,0,0:0:0:0:
475,192,68635,1,0,0:0:0:0:
402,192,68777,1,0,0:0:0:0:
329,192,68777,1,0,0:0:0:0:
256,192,68777,1,0,0:0:0:0:
109,192,68777,1,0,0:0:0:0:
36,192,68918,128,0,69060:0:0:0:0:
329,192,68918,1,0,0:0:0:0:
256,192,68918,1,0,0:0:0:0:
182,192,68918,1,0,0:0:0:0:
109,192,69060,1,0,0:0:0:0:
475,192,69201,128,0,69272:0:0:0:0:
36,192,69201,1,0,0:0:0:0:
475,192,69343,128,0,69413:0:0:0:0:
36,192,69343,1,0,0:0:0:0:
475,192,69484,128,0,69555:0:0:0:0:
36,192,69484,1,0,0:0:0:0:
475,192,69626,128,0,69696:0:0:0:0:
36,192,69626,1,0,0:0:0:0:
475,192,69767,128,0,69838:0:0:0:0:
36,192,69767,1,0,0:0:0:0:
475,192,69909,128,0,69979:0:0:0:0:
36,192,69909,1,0,0:0:0:0:
475,192,70050,128,0,70121:0:0:0:0:
36,192,70050,1,0,0:0:0:0:
475,192,70192,128,0,70262:0:0:0:0:
36,192,70192,1,0,0:0:0:0:
329,192,70333,1,0,0:0:0:0:
475,192,70333,128,0,70404:0:0:0:0:
402,192,70333,1,0,0:0:0:0:
182,192,70404,1,0,0:0:0:0:
36,192,70404,1,0,0:0:0:0:
109,192,70404,1,0,0:0:0:0:
329,192,70475,1,0,0:0:0:0:
475,192,70475,128,0,70545:0:0:0:0:
402,192,70475,1,0,0:0:0:0:
182,192,70545,1,0,0:0:0:0:
36,192,70545,1,0,0:0:0:0:
109,192,70545,1,0,0:0:0:0:
475,192,70616,128,0,70687:0:0:0:0:
329,192,70616,1,0,0:0:0:0:
402,192,70616,1,0,0:0:0:0:
36,192,70687,1,0,0:0:0:0:
182,192,70687,1,0,0:0:0:0:
109,192,70687,1,0,0:0:0:0:
475,192,70758,128,0,70828:0:0:0:0:
329,192,70758,1,0,0:0:0:0:
402,192,70758,1,0,0:0:0:0:
36,192,70828,1,0,0:0:0:0:
182,192,70828,1,0,0:0:0:0:
109,192,70828,1,0,0:0:0:0:
475,192,70899,128,0,70970:0:0:0:0:
329,192,70899,1,0,0:0:0:0:
402,192,70899,1,0,0:0:0:0:
182,192,70970,1,0,0:0:0:0:
36,192,70970,1,0,0:0:0:0:
109,192,70970,1,0,0:0:0:0:
475,192,71041,128,0,71111:0:0:0:0:
329,192,71041,1,0,0:0:0:0:
402,192,71041,1,0,0:0:0:0:
182,192,71111,1,0,0:0:0:0:
36,192,71111,1,0,0:0:0:0:
109,192,71111,1,0,0:0:0:0:
256,192,71182,128,0,71465:0:0:0:0:
36,192,72597,1,0,0:0:0:0:
182,192,72597,1,0,0:0:0:0:
329,192,72597,1,0,0:0:0:0:
475,192,72597,1,0,0:0:0:0:
109,192,73729,1,0,0:0:0:0:
256,192,74295,1,0,0:0:0:0:
329,192,74861,1,0,0:0:0:0:
475,192,74861,1,0,0:0:0:0:
36,192,75994,1,0,0:0:0:0:
182,192,76560,1,0,0:0:0:0:
329,192,76843,1,0,0:0:0:0:
256,192,76843,1,0,0:0:0:0:
402,192,77126,1,0,0:0:0:0:
475,192,77126,1,0,0:0:0:0:
329,192,78258,1,0,0:0:0:0:
475,192,78824,1,0,0:0:0:0:
256,192,79390,1,0,0:0:0:0:
36,192,79390,1,0,0:0:0:0:
182,192,80239,1,0,0:0:0:0:
475,192,80522,1,0,0:0:0:0:
329,192,80805,1,0,0:0:0:0:
182,192,81088,1,0,0:0:0:0:
36,192,81371,1,0,0:0:0:0:
109,192,81654,1,0,0:0:0:0:
402,192,81654,1,0,0:0:0:0:
182,192,82786,1,0,0:0:0:0:
329,192,83352,1,0,0:0:0:0:
36,192,83918,1,0,0:0:0:0:
475,192,83918,1,0,0:0:0:0:
182,192,85050,1,0,0:0:0:0:
329,192,85050,1,0,0:0:0:0:
109,192,85616,1,0,0:0:0:0:
256,192,85899,1,0,0:0:0:0:
329,192,85899,1,0,0:0:0:0:
402,192,86182,1,0,0:0:0:0:
475,192,86182,1,0,0:0:0:0:
182,192,87314,1,0,0:0:0:0:
329,192,87880,1,0,0:0:0:0:
475,192,88446,1,0,0:0:0:0:
36,192,88446,1,0,0:0:0:0:
182,192,88446,1,0,0:0:0:0:
329,192,88446,1,0,0:0:0:0:
256,192,90144,128,0,90711:0:0:0:0:
329,192,90711,1,0,0:0:0:0:
402,192,90711,1,0,0:0:0:0:
475,192,90711,1,0,0:0:0:0:
36,192,90711,1,0,0:0:0:0:
109,192,90711,1,0,0:0:0:0:
182,192,90852,1,0,0:0:0:0:
329,192,90994,1,0,0:0:0:0:
402,192,90994,1,0,0:0:0:0:
475,192,90994,1,0,0:0:0:0:
182,192,91135,1,0,0:0:0:0:
402,192,91277,1,0,0:0:0:0:
475,192,91277,1,0,0:0:0:0:
329,192,91277,1,0,0:0:0:0:
256,192,91277,1,0,0:0:0:0:
182,192,91418,1,0,0:0:0:0:
329,192,91560,1,0,0:0:0:0:
402,192,91560,1,0,0:0:0:0:
475,192,91560,1,0,0:0:0:0:
109,192,91560,1,0,0:0:0:0:
256,192,91630,1,0,0:0:0:0:
36,192,91701,1,0,0:0:0:0:
182,192,91701,1,0,0:0:0:0:
329,192,91843,1,0,0:0:0:0:
402,192,91843,1,0,0:0:0:0:
475,192,91843,1,0,0:0:0:0:
109,192,91984,1,0,0:0:0:0:
329,192,92126,1,0,0:0:0:0:
402,192,92126,1,0,0:0:0:0:
475,192,92126,1,0,0:0:0:0:
182,192,92267,1,0,0:0:0:0:
329,192,92409,1,0,0:0:0:0:
402,192,92409,1,0,0:0:0:0:
475,192,92409,1,0,0:0:0:0:
109,192,92409,1,0,0:0:0:0:
256,192,92409,1,0,0:0:0:0:
36,192,92550,1,0,0:0:0:0:
109,192,92621,1,0,0:0:0:0:
329,192,92692,1,0,0:0:0:0:
402,192,92692,1,0,0:0:0:0:
475,192,92692,1,0,0:0:0:0:
182,192,92692,1,0,0:0:0:0:
256,192,92762,1,0,0:0:0:0:
329,192,92833,1,0,0:0:0:0:
329,192,92975,1,0,0:0:0:0:
402,192,92975,1,0,0:0:0:0:
475,192,92975,1,0,0:0:0:0:
109,192,92975,1,0,0:0:0:0:
36,192,92975,1,0,0:0:0:0:
475,192,93116,1,0,0:0:0:0:
182,192,93116,1,0,0:0:0:0:
329,192,93258,1,0,0:0:0:0:
402,192,93258,1,0,0:0:0:0:
475,192,93258,1,0,0:0:0:0:
109,192,93399,1,0,0:0:0:0:
329,192,93541,1,0,0:0:0:0:
402,192,93541,1,0,0:0:0:0:
475,192,93541,1,0,0:0:0:0:
36,192,93541,1,0,0:0:0:0:
182,192,93541,1,0,0:0:0:0:
256,192,93682,1,0,0:0:0:0:
182,192,93753,1,0,0:0:0:0:
329,192,93824,1,0,0:0:0:0:
402,192,93824,1,0,0:0:0:0:
475,192,93824,1,0,0:0:0:0:
109,192,93824,1,0,0:0:0:0:
36,192,93824,1,0,0:0:0:0:
256,192,93894,1,0,0:0:0:0:
182,192,93965,1,0,0:0:0:0:
329,192,94107,1,0,0:0:0:0:
402,192,94107,1,0,0:0:0:0:
475,192,94107,1,0,0:0:0:0:
109,192,94107,1,0,0:0:0:0:
36,192,94107,1,0,0:0:0:0:
182,192,94248,1,0,0:0:0:0:
329,192,94390,1,0,0:0:0:0:
402,192,94390,1,0,0:0:0:0:
475,192,94390,1,0,0:0:0:0:
182,192,94390,1,0,0:0:0:0:
329,192,94673,1,0,0:0:0:0:
402,192,94673,1,0,0:0:0:0:
475,192,94673,1,0,0:0:0:0:
182,192,94673,1,0,0:0:0:0:
109,192,94673,1,0,0:0:0:0:
256,192,94814,1,0,0:0:0:0:
182,192,94885,1,0,0:0:0:0:
329,192,94956,1,0,0:0:0:0:
402,192,94956,1,0,0:0:0:0:
475,192,94956,1,0,0:0:0:0:
109,192,94956,1,0,0:0:0:0:
36,192,94956,1,0,0:0:0:0:
182,192,95027,1,0,0:0:0:0:
256,192,95097,1,0,0:0:0:0:
402,192,95239,1,0,0:0:0:0:
475,192,95239,1,0,0:0:0:0:
182,192,95239,1,0,0:0:0:0:
109,192,95380,1,0,0:0:0:0:
36,192,95380,1,0,0:0:0:0:
402,192,95522,1,0,0:0:0:0:
475,192,95522,1,0,0:0:0:0:
109,192,95663,1,0,0:0:0:0:
36,192,95663,1,0,0:0:0:0:
402,192,95805,1,0,0:0:0:0:
475,192,95805,1,0,0:0:0:0:
256,192,95805,1,0,0:0:0:0:
109,192,95946,1,0,0:0:0:0:
36,192,95946,1,0,0:0:0:0:
329,192,95946,1,0,0:0:0:0:
402,192,96088,1,0,0:0:0:0:
475,192,96088,1,0,0:0:0:0:
182,192,96088,1,0,0:0:0:0:
256,192,96159,1,0,0:0:0:0:
109,192,96229,1,0,0:0:0:0:
36,192,96229,1,0,0:0:0:0:
329,192,96229,1,0,0:0:0:0:
402,192,96371,1,0,0:0:0:0:
475,192,96371,1,0,0:0:0:0:
109,192,96512,1,0,0:0:0:0:
36,192,96512,1,0,0:0:0:0:
182,192,96512,1,0,0:0:0:0:
402,192,96654,1,0,0:0:0:0:
475,192,96654,1,0,0:0:0:0:
329,192,96654,1,0,0:0:0:0:
109,192,96795,1,0,0:0:0:0:
36,192,96795,1,0,0:0:0:0:
402,192,96937,1,0,0:0:0:0:
475,192,96937,1,0,0:0:0:0:
182,192,96937,1,0,0:0:0:0:
109,192,97078,1,0,0:0:0:0:
36,192,97078,1,0,0:0:0:0:
256,192,97078,1,0,0:0:0:0:
329,192,97149,1,0,0:0:0:0:
402,192,97220,1,0,0:0:0:0:
475,192,97220,1,0,0:0:0:0:
182,192,97220,1,0,0:0:0:0:
256,192,97291,1,0,0:0:0:0:
109,192,97361,1,0,0:0:0:0:
36,192,97361,1,0,0:0:0:0:
329,192,97361,1,0,0:0:0:0:
475,192,97503,1,0,0:0:0:0:
402,192,97503,1,0,0:0:0:0:
256,192,97503,1,0,0:0:0:0:
182,192,97574,1,0,0:0:0:0:
109,192,97644,1,0,0:0:0:0:
36,192,97644,1,0,0:0:0:0:
329,192,97644,1,0,0:0:0:0:
256,192,97715,1,0,0:0:0:0:
402,192,97786,1,0,0:0:0:0:
475,192,97786,1,0,0:0:0:0:
182,192,97786,1,0,0:0:0:0:
109,192,97928,1,0,0:0:0:0:
36,192,97928,1,0,0:0:0:0:
402,192,98069,1,0,0:0:0:0:
475,192,98069,1,0,0:0:0:0:
256,192,98069,1,0,0:0:0:0:
109,192,98211,1,0,0:0:0:0:
36,192,98211,1,0,0:0:0:0:
329,192,98211,1,0,0:0:0:0:
256,192,98281,1,0,0:0:0:0:
475,192,98352,1,0,0:0:0:0:
402,192,98352,1,0,0:0:0:0:
182,192,98352,1,0,0:0:0:0:
329,192,98423,1,0,0:0:0:0:
109,192,98494,1,0,0:0:0:0:
36,192,98494,1,0,0:0:0:0:
256,192,98494,1,0,0:0:0:0:
402,192,98635,1,0,0:0:0:0:
475,192,98635,1,0,0:0:0:0:
182,192,98635,1,0,0:0:0:0:
109,192,98777,1,0,0:0:0:0:
36,192,98777,1,0,0:0:0:0:
329,192,98777,1,0,0:0:0:0:
402,192,98918,1,0,0:0:0:0:
475,192,98918,1,0,0:0:0:0:
182,192,98918,1,0,0:0:0:0:
109,192,99060,1,0,0:0:0:0:
36,192,99060,1,0,0:0:0:0:
329,192,99060,1,0,0:0:0:0:
256,192,99130,1,0,0:0:0:0:
402,192,99201,1,0,0:0:0:0:
475,192,99201,1,0,0:0:0:0:
182,192,99201,1,0,0:0:0:0:
36,192,99272,1,0,0:0:0:0:
109,192,99272,1,0,0:0:0:0:
402,192,99343,1,0,0:0:0:0:
475,192,99343,1,0,0:0:0:0:
36,192,99413,1,0,0:0:0:0:
109,192,99413,1,0,0:0:0:0:
182,192,99484,1,0,0:0:0:0:
475,192,99484,1,0,0:0:0:0:
402,192,99555,1,0,0:0:0:0:
109,192,99555,1,0,0:0:0:0:
329,192,99626,1,0,0:0:0:0:
36,192,99626,1,0,0:0:0:0:
256,192,99696,1,0,0:0:0:0:
109,192,99696,1,0,0:0:0:0:
475,192,99696,1,0,0:0:0:0:
182,192,99767,1,0,0:0:0:0:
402,192,99767,1,0,0:0:0:0:
256,192,99838,1,0,0:0:0:0:
475,192,99838,1,0,0:0:0:0:
329,192,99909,1,0,0:0:0:0:
36,192,99909,1,0,0:0:0:0:
402,192,99979,1,0,0:0:0:0:
109,192,99979,1,0,0:0:0:0:
475,192,100050,1,0,0:0:0:0:
182,192,100050,1,0,0:0:0:0:
36,192,100050,1,0,0:0:0:0:
256,192,100121,1,0,0:0:0:0:
402,192,100121,1,0,0:0:0:0:
329,192,100192,1,0,0:0:0:0:
182,192,100192,1,0,0:0:0:0:
109,192,100262,1,0,0:0:0:0:
256,192,100262,1,0,0:0:0:0:
182,192,100333,1,0,0:0:0:0:
36,192,100333,1,0,0:0:0:0:
475,192,100333,1,0,0:0:0:0:
109,192,100404,1,0,0:0:0:0:
402,192,100404,1,0,0:0:0:0:
36,192,100475,1,0,0:0:0:0:
329,192,100475,1,0,0:0:0:0:
256,192,100545,1,0,0:0:0:0:
182,192,100616,1,0,0:0:0:0:
109,192,100616,1,0,0:0:0:0:
475,192,100616,1,0,0:0:0:0:
402,192,100616,1,0,0:0:0:0:
36,192,100899,1,0,0:0:0:0:
182,192,100899,1,0,0:0:0:0:
109,192,100899,1,0,0:0:0:0:
402,192,100899,1,0,0:0:0:0:
329,192,101041,1,0,0:0:0:0:
475,192,101041,1,0,0:0:0:0:
182,192,101182,1,0,0:0:0:0:
36,192,101182,1,0,0:0:0:0:
109,192,101182,1,0,0:0:0:0:
329,192,101324,1,0,0:0:0:0:
475,192,101324,1,0,0:0:0:0:
182,192,101465,1,0,0:0:0:0:
36,192,101465,1,0,0:0:0:0:
109,192,101465,1,0,0:0:0:0:
256,192,101465,1,0,0:0:0:0:
329,192,101607,1,0,0:0:0:0:
475,192,101607,1,0,0:0:0:0:
402,192,101607,1,0,0:0:0:0:
256,192,101678,1,0,0:0:0:0:
182,192,101748,1,0,0:0:0:0:
36,192,101748,1,0,0:0:0:0:
109,192,101748,1,0,0:0:0:0:
329,192,101748,1,0,0:0:0:0:
329,192,101890,1,0,0:0:0:0:
475,192,101890,1,0,0:0:0:0:
256,192,101890,1,0,0:0:0:0:
109,192,102031,1,0,0:0:0:0:
182,192,102031,1,0,0:0:0:0:
36,192,102031,1,0,0:0:0:0:
329,192,102173,1,0,0:0:0:0:
402,192,102173,1,0,0:0:0:0:
182,192,102314,1,0,0:0:0:0:
109,192,102314,1,0,0:0:0:0:
36,192,102314,1,0,0:0:0:0:
402,192,102456,1,0,0:0:0:0:
329,192,102456,1,0,0:0:0:0:
109,192,102597,1,0,0:0:0:0:
182,192,102597,1,0,0:0:0:0:
475,192,102597,1,0,0:0:0:0:
36,192,102597,1,0,0:0:0:0:
329,192,102739,1,0,0:0:0:0:
402,192,102739,1,0,0:0:0:0:
256,192,102810,1,0,0:0:0:0:
182,192,102880,1,0,0:0:0:0:
109,192,102880,1,0,0:0:0:0:
36,192,102880,1,0,0:0:0:0:
256,192,102951,1,0,0:0:0:0:
402,192,103022,1,0,0:0:0:0:
329,192,103022,1,0,0:0:0:0:
329,192,103163,1,0,0:0:0:0:
402,192,103163,1,0,0:0:0:0:
475,192,103163,1,0,0:0:0:0:
109,192,103163,1,0,0:0:0:0:
36,192,103305,1,0,0:0:0:0:
182,192,103305,1,0,0:0:0:0:
329,192,103446,1,0,0:0:0:0:
402,192,103446,1,0,0:0:0:0:
475,192,103446,1,0,0:0:0:0:
36,192,103588,1,0,0:0:0:0:
182,192,103588,1,0,0:0:0:0:
329,192,103729,1,0,0:0:0:0:
402,192,103729,1,0,0:0:0:0:
475,192,103729,1,0,0:0:0:0:
109,192,103729,1,0,0:0:0:0:
36,192,103871,1,0,0:0:0:0:
182,192,103871,1,0,0:0:0:0:
256,192,103942,1,0,0:0:0:0:
329,192,104012,1,0,0:0:0:0:
402,192,104012,1,0,0:0:0:0:
475,192,104012,1,0,0:0:0:0:
256,192,104083,1,0,0:0:0:0:
36,192,104154,1,0,0:0:0:0:
182,192,104154,1,0,0:0:0:0:
402,192,104154,1,0,0:0:0:0:
36,192,104295,1,0,0:0:0:0:
109,192,104295,1,0,0:0:0:0:
182,192,104295,1,0,0:0:0:0:
329,192,104437,1,0,0:0:0:0:
475,192,104437,1,0,0:0:0:0:
402,192,104437,1,0,0:0:0:0:
256,192,104508,1,0,0:0:0:0:
36,192,104578,1,0,0:0:0:0:
109,192,104578,1,0,0:0:0:0:
182,192,104578,1,0,0:0:0:0:
329,192,104720,1,0,0:0:0:0:
475,192,104720,1,0,0:0:0:0:
402,192,104720,1,0,0:0:0:0:
36,192,104861,1,0,0:0:0:0:
109,192,104861,1,0,0:0:0:0:
182,192,104861,1,0,0:0:0:0:
256,192,104861,1,0,0:0:0:0:
329,192,105003,1,0,0:0:0:0:
475,192,105003,1,0,0:0:0:0:
256,192,105074,1,0,0:0:0:0:
36,192,105144,1,0,0:0:0:0:
109,192,105144,1,0,0:0:0:0:
182,192,105144,1,0,0:0:0:0:
402,192,105144,1,0,0:0:0:0:
256,192,105215,1,0,0:0:0:0:
329,192,105286,1,0,0:0:0:0:
475,192,105286,1,0,0:0:0:0:
36,192,105428,1,0,0:0:0:0:
182,192,105428,1,0,0:0:0:0:
256,192,105428,1,0,0:0:0:0:
402,192,105428,1,0,0:0:0:0:
475,192,105569,1,0,0:0:0:0:
329,192,105569,1,0,0:0:0:0:
36,192,105711,1,0,0:0:0:0:
182,192,105711,1,0,0:0:0:0:
256,192,105711,1,0,0:0:0:0:
329,192,105852,1,0,0:0:0:0:
475,192,105852,1,0,0:0:0:0:
36,192,105994,1,0,0:0:0:0:
182,192,105994,1,0,0:0:0:0:
256,192,105994,1,0,0:0:0:0:
402,192,105994,1,0,0:0:0:0:
329,192,106135,1,0,0:0:0:0:
475,192,106135,1,0,0:0:0:0:
109,192,106135,1,0,0:0:0:0:
402,192,106206,1,0,0:0:0:0:
36,192,106277,1,0,0:0:0:0:
182,192,106277,1,0,0:0:0:0:
256,192,106277,1,0,0:0:0:0:
475,192,106277,1,0,0:0:0:0:
402,192,106347,1,0,0:0:0:0:
329,192,106418,1,0,0:0:0:0:
475,192,106418,1,0,0:0:0:0:
109,192,106418,1,0,0:0:0:0:
36,192,106560,1,0,0:0:0:0:
182,192,106560,1,0,0:0:0:0:
256,192,106560,1,0,0:0:0:0:
402,192,106701,1,0,0:0:0:0:
475,192,106701,1,0,0:0:0:0:
36,192,106843,1,0,0:0:0:0:
182,192,106843,1,0,0:0:0:0:
256,192,106843,1,0,0:0:0:0:
402,192,106984,1,0,0:0:0:0:
475,192,106984,1,0,0:0:0:0:
36,192,107126,1,0,0:0:0:0:
182,192,107126,1,0,0:0:0:0:
256,192,107126,1,0,0:0:0:0:
329,192,107126,1,0,0:0:0:0:
402,192,107267,1,0,0:0:0:0:
475,192,107267,1,0,0:0:0:0:
329,192,107338,1,0,0:0:0:0:
36,192,107409,1,0,0:0:0:0:
182,192,107409,1,0,0:0:0:0:
256,192,107409,1,0,0:0:0:0:
109,192,107409,1,0,0:0:0:0:
329,192,107479,1,0,0:0:0:0:
402,192,107550,1,0,0:0:0:0:
475,192,107550,1,0,0:0:0:0:
182,192,107550,1,0,0:0:0:0:
109,192,107621,1,0,0:0:0:0:
256,192,107692,1,0,0:0:0:0:
329,192,107692,1,0,0:0:0:0:
475,192,107692,1,0,0:0:0:0:
36,192,107692,1,0,0:0:0:0:
36,192,107833,1,0,0:0:0:0:
109,192,107833,1,0,0:0:0:0:
256,192,107975,1,0,0:0:0:0:
329,192,107975,1,0,0:0:0:0:
475,192,107975,1,0,0:0:0:0:
109,192,108116,1,0,0:0:0:0:
36,192,108116,1,0,0:0:0:0:
256,192,108258,1,0,0:0:0:0:
329,192,108258,1,0,0:0:0:0:
475,192,108258,1,0,0:0:0:0:
109,192,108258,1,0,0:0:0:0:
109,192,108399,1,0,0:0:0:0:
36,192,108399,1,0,0:0:0:0:
329,192,108399,1,0,0:0:0:0:
182,192,108470,1,0,0:0:0:0:
256,192,108541,1,0,0:0:0:0:
475,192,108541,1,0,0:0:0:0:
182,192,108611,1,0,0:0:0:0:
109,192,108682,1,0,0:0:0:0:
36,192,108682,1,0,0:0:0:0:
329,192,108682,1,0,0:0:0:0:
402,192,108682,1,0,0:0:0:0:
109,192,108824,128,0,109036:0:0:0:0:
36,192,108824,128,0,109107:0:0:0:0:
329,192,108965,1,0,0:0:0:0:
402,192,108965,1,0,0:0:0:0:
182,192,109107,128,0,109390:0:0:0:0:
109,192,109107,128,0,109319:0:0:0:0:
329,192,109248,1,0,0:0:0:0:
402,192,109248,1,0,0:0:0:0:
109,192,109390,128,0,109602:0:0:0:0:
36,192,109390,128,0,109956:0:0:0:0:
402,192,109390,1,0,0:0:0:0:
475,192,109390,1,0,0:0:0:0:
182,192,109531,128,0,109956:0:0:0:0:
256,192,109673,1,0,0:0:0:0:
329,192,109673,1,0,0:0:0:0:
109,192,109673,128,0,109956:0:0:0:0:
402,192,109956,1,0,0:0:0:0:
475,192,109956,128,0,110097:0:0:0:0:
329,192,109956,1,0,0:0:0:0:
256,192,110097,1,0,0:0:0:0:
36,192,110097,128,0,110168:0:0:0:0:
182,192,110097,1,0,0:0:0:0:
329,192,110168,1,0,0:0:0:0:
109,192,110168,128,0,110239:0:0:0:0:
402,192,110239,1,0,0:0:0:0:
475,192,110239,1,0,0:0:0:0:
182,192,110239,128,0,110310:0:0:0:0:
109,192,110310,1,0,0:0:0:0:
329,192,110310,128,0,110380:0:0:0:0:
36,192,110380,1,0,0:0:0:0:
256,192,110380,128,0,110451:0:0:0:0:
182,192,110522,1,0,0:0:0:0:
36,192,110522,1,0,0:0:0:0:
475,192,110522,1,0,0:0:0:0:
329,192,110593,1,0,0:0:0:0:
402,192,110663,1,0,0:0:0:0:
256,192,110663,1,0,0:0:0:0:
109,192,110663,128,0,110734:0:0:0:0:
329,192,110805,128,0,110876:0:0:0:0:
109,192,110805,1,0,0:0:0:0:
182,192,110805,1,0,0:0:0:0:
475,192,110876,1,0,0:0:0:0:
256,192,110876,1,0,0:0:0:0:
36,192,110946,128,0,111017:0:0:0:0:
329,192,110946,1,0,0:0:0:0:
182,192,111017,1,0,0:0:0:0:
36,192,111088,1,0,0:0:0:0:
256,192,111088,1,0,0:0:0:0:
402,192,111088,128,0,111159:0:0:0:0:
329,192,111159,128,0,111229:0:0:0:0:
182,192,111159,1,0,0:0:0:0:
256,192,111229,128,0,111300:0:0:0:0:
109,192,111229,1,0,0:0:0:0:
402,192,111229,1,0,0:0:0:0:
36,192,111300,128,0,111371:0:0:0:0:
329,192,111300,1,0,0:0:0:0:
109,192,111371,128,0,111442:0:0:0:0:
402,192,111371,1,0,0:0:0:0:
182,192,111442,128,0,111512:0:0:0:0:
475,192,111442,1,0,0:0:0:0:
256,192,111512,128,0,111583:0:0:0:0:
36,192,111512,1,0,0:0:0:0:
109,192,111583,1,0,0:0:0:0:
329,192,111583,1,0,0:0:0:0:
256,192,111654,1,0,0:0:0:0:
475,192,111654,1,0,0:0:0:0:
182,192,111654,128,0,111725:0:0:0:0:
36,192,111725,128,0,111795:0:0:0:0:
329,192,111795,1,0,0:0:0:0:
402,192,111795,128,0,111866:0:0:0:0:
109,192,111795,1,0,0:0:0:0:
256,192,111866,128,0,111937:0:0:0:0:
109,192,111937,128,0,112008:0:0:0:0:
182,192,111937,1,0,0:0:0:0:
475,192,111937,1,0,0:0:0:0:
402,192,112008,128,0,112078:0:0:0:0:
36,192,112078,1,0,0:0:0:0:
256,192,112078,128,0,112149:0:0:0:0:
329,192,112078,1,0,0:0:0:0:
36,192,112220,1,0,0:0:0:0:
256,192,112220,1,0,0:0:0:0:
475,192,112220,1,0,0:0:0:0:
182,192,112220,128,0,112291:0:0:0:0:
109,192,112361,1,0,0:0:0:0:
329,192,112361,1,0,0:0:0:0:
402,192,112361,128,0,112432:0:0:0:0:
182,192,112503,1,0,0:0:0:0:
256,192,112503,1,0,0:0:0:0:
36,192,112503,1,0,0:0:0:0:
475,192,112503,128,0,112574:0:0:0:0:
329,192,112644,1,0,0:0:0:0:
402,192,112644,1,0,0:0:0:0:
109,192,112644,128,0,112715:0:0:0:0:
182,192,112715,128,0,112786:0:0:0:0:
36,192,112786,1,0,0:0:0:0:
256,192,112786,1,0,0:0:0:0:
475,192,112786,128,0,112857:0:0:0:0:
402,192,112857,128,0,112928:0:0:0:0:
182,192,112857,1,0,0:0:0:0:
109,192,112928,128,0,112998:0:0:0:0:
329,192,112928,1,0,0:0:0:0:
256,192,112998,128,0,113069:0:0:0:0:
36,192,112998,1,0,0:0:0:0:
402,192,113069,128,0,113140:0:0:0:0:
182,192,113069,1,0,0:0:0:0:
475,192,113069,1,0,0:0:0:0:
36,192,113140,128,0,113211:0:0:0:0:
329,192,113140,1,0,0:0:0:0:
182,192,113211,128,0,113281:0:0:0:0:
109,192,113211,1,0,0:0:0:0:
329,192,113281,128,0,113352:0:0:0:0:
256,192,113281,1,0,0:0:0:0:
475,192,113352,128,0,113423:0:0:0:0:
402,192,113352,1,0,0:0:0:0:
36,192,113352,1,0,0:0:0:0:
182,192,113352,1,0,0:0:0:0:
256,192,113494,1,0,0:0:0:0:
329,192,113494,1,0,0:0:0:0:
109,192,113494,128,0,113564:0:0:0:0:
182,192,113635,1,0,0:0:0:0:
475,192,113635,1,0,0:0:0:0:
402,192,113635,1,0,0:0:0:0:
36,192,113635,128,0,113706:0:0:0:0:
109,192,113777,1,0,0:0:0:0:
256,192,113777,1,0,0:0:0:0:
329,192,113777,128,0,113847:0:0:0:0:
329,192,113918,1,0,0:0:0:0:
402,192,113918,128,0,113989:0:0:0:0:
182,192,113918,1,0,0:0:0:0:
36,192,113918,1,0,0:0:0:0:
109,192,113989,1,0,0:0:0:0:
36,192,114060,128,0,114130:0:0:0:0:
256,192,114060,1,0,0:0:0:0:
109,192,114130,128,0,114201:0:0:0:0:
329,192,114130,1,0,0:0:0:0:
182,192,114201,128,0,114272:0:0:0:0:
402,192,114201,1,0,0:0:0:0:
256,192,114272,128,0,114343:0:0:0:0:
475,192,114272,1,0,0:0:0:0:
329,192,114343,128,0,114413:0:0:0:0:
36,192,114343,1,0,0:0:0:0:
402,192,114413,128,0,114484:0:0:0:0:
109,192,114413,1,0,0:0:0:0:
475,192,114484,128,0,114555:0:0:0:0:
182,192,114484,1,0,0:0:0:0:
329,192,114484,1,0,0:0:0:0:
36,192,114484,1,0,0:0:0:0:
109,192,114626,1,0,0:0:0:0:
256,192,114626,1,0,0:0:0:0:
402,192,114626,128,0,114696:0:0:0:0:
36,192,114767,1,0,0:0:0:0:
182,192,114767,1,0,0:0:0:0:
475,192,114767,1,0,0:0:0:0:
329,192,114767,128,0,114838:0:0:0:0:
256,192,114838,128,0,114909:0:0:0:0:
109,192,114909,1,0,0:0:0:0:
402,192,114909,1,0,0:0:0:0:
182,192,114909,128,0,114979:0:0:0:0:
36,192,115050,1,0,0:0:0:0:
109,192,115050,1,0,0:0:0:0:
256,192,115050,128,0,115121:0:0:0:0:
109,192,115192,1,0,0:0:0:0:
182,192,115192,1,0,0:0:0:0:
329,192,115192,128,0,115262:0:0:0:0:
182,192,115333,1,0,0:0:0:0:
256,192,115333,1,0,0:0:0:0:
402,192,115333,128,0,115404:0:0:0:0:
109,192,115404,128,0,115475:0:0:0:0:
256,192,115475,1,0,0:0:0:0:
329,192,115475,1,0,0:0:0:0:
475,192,115475,128,0,115545:0:0:0:0:
182,192,115545,128,0,115616:0:0:0:0:
475,192,115616,1,0,0:0:0:0:
36,192,115616,1,0,0:0:0:0:
109,192,115616,1,0,0:0:0:0:
402,192,115616,128,0,115687:0:0:0:0:
182,192,115758,1,0,0:0:0:0:
256,192,115758,1,0,0:0:0:0:
329,192,115758,128,0,115828:0:0:0:0:
36,192,115899,1,0,0:0:0:0:
402,192,115899,1,0,0:0:0:0:
475,192,115899,1,0,0:0:0:0:
109,192,115899,128,0,115970:0:0:0:0:
256,192,116041,1,0,0:0:0:0:
329,192,116041,1,0,0:0:0:0:
182,192,116041,128,0,116111:0:0:0:0:
475,192,116182,1,0,0:0:0:0:
109,192,116182,1,0,0:0:0:0:
36,192,116182,1,0,0:0:0:0:
402,192,116182,128,0,116253:0:0:0:0:
329,192,116253,128,0,116324:0:0:0:0:
182,192,116253,1,0,0:0:0:0:
256,192,116324,128,0,116394:0:0:0:0:
109,192,116324,1,0,0:0:0:0:
36,192,116394,128,0,116465:0:0:0:0:
329,192,116394,1,0,0:0:0:0:
109,192,116465,128,0,116536:0:0:0:0:
402,192,116465,1,0,0:0:0:0:
182,192,116536,128,0,116607:0:0:0:0:
475,192,116536,1,0,0:0:0:0:
256,192,116607,128,0,116678:0:0:0:0:
36,192,116607,1,0,0:0:0:0:
109,192,116678,1,0,0:0:0:0:
329,192,116678,1,0,0:0:0:0:
256,192,116748,1,0,0:0:0:0:
475,192,116748,1,0,0:0:0:0:
402,192,116748,1,0,0:0:0:0:
182,192,116748,128,0,116819:0:0:0:0:
36,192,116890,1,0,0:0:0:0:
109,192,116890,128,0,116961:0:0:0:0:
329,192,116890,1,0,0:0:0:0:
182,192,116890,1,0,0:0:0:0:
256,192,116961,128,0,117031:0:0:0:0:
402,192,116961,1,0,0:0:0:0:
182,192,117031,128,0,117102:0:0:0:0:
475,192,117031,1,0,0:0:0:0:
329,192,117102,128,0,117173:0:0:0:0:
402,192,117102,1,0,0:0:0:0:
256,192,117173,128,0,117244:0:0:0:0:
36,192,117173,1,0,0:0:0:0:
402,192,117244,128,0,117314:0:0:0:0:
109,192,117244,1,0,0:0:0:0:
475,192,117314,128,0,117385:0:0:0:0:
182,192,117314,1,0,0:0:0:0:
256,192,117314,1,0,0:0:0:0:
36,192,117314,1,0,0:0:0:0:
329,192,117456,1,0,0:0:0:0:
402,192,117456,1,0,0:0:0:0:
109,192,117456,128,0,117527:0:0:0:0:
36,192,117597,1,0,0:0:0:0:
475,192,117597,1,0,0:0:0:0:
256,192,117597,1,0,0:0:0:0:
182,192,117597,128,0,117668:0:0:0:0:
329,192,117739,1,0,0:0:0:0:
402,192,117739,128,0,117810:0:0:0:0:
109,192,117739,1,0,0:0:0:0:
256,192,117880,1,0,0:0:0:0:
182,192,117880,1,0,0:0:0:0:
402,192,117880,1,0,0:0:0:0:
475,192,117880,128,0,117951:0:0:0:0:
109,192,117951,1,0,0:0:0:0:
36,192,118022,1,0,0:0:0:0:
329,192,118022,1,0,0:0:0:0:
402,192,118022,1,0,0:0:0:0:
256,192,118093,1,0,0:0:0:0:
182,192,118163,1,0,0:0:0:0:
475,192,118163,1,0,0:0:0:0:
109,192,118163,128,0,118234:0:0:0:0:
256,192,118234,1,0,0:0:0:0:
36,192,118305,1,0,0:0:0:0:
329,192,118305,1,0,0:0:0:0:
109,192,118376,1,0,0:0:0:0:
182,192,118446,1,0,0:0:0:0:
36,192,118446,1,0,0:0:0:0:
475,192,118446,1,0,0:0:0:0:
402,192,118446,128,0,118517:0:0:0:0:
329,192,118517,128,0,118588:0:0:0:0:
256,192,118588,1,0,0:0:0:0:
475,192,118588,1,0,0:0:0:0:
36,192,118588,128,0,118659:0:0:0:0:
402,192,118659,1,0,0:0:0:0:
109,192,118659,128,0,118729:0:0:0:0:
329,192,118729,1,0,0:0:0:0:
182,192,118729,1,0,0:0:0:0:
475,192,118729,1,0,0:0:0:0:
182,192,119012,1,0,0:0:0:0:
109,192,119012,1,0,0:0:0:0:
36,192,119012,1,0,0:0:0:0:
329,192,119012,1,0,0:0:0:0:
402,192,119012,1,0,0:0:0:0:
475,192,119012,1,0,0:0:0:0:
