osu file format v12

[General]
AudioFilename: Mind Mapping (kors k mix).mp3
AudioLeadIn: 3000
PreviewTime: 55460
Countdown: 1
SampleSet: Normal
StackLeniency: 0.7
Mode: 0
LetterboxInBreaks: 1

[Editor]
Bookmarks: 21362,42346,50215,53493,97428
DistanceSpacing: 1.2
BeatDivisor: 4
GridSize: 4

[Metadata]
Title:Mind Mapping (kors k mix)
TitleUnicode:Mind Mapping (kors k mix)
Artist:Ryu*
ArtistUnicode:Ryu*
Creator:Revy
Version:Extreme
Source:
Tags:
BeatmapID:256973
BeatmapSetID:95755

[Difficulty]
HPDrainRate:5
CircleSize:4
OverallDifficulty:6
ApproachRate:9
SliderMultiplier:1.7
SliderTickRate:2

[Events]
//Background and Video events
0,0,"12453.jpg",0,0
//Break Periods
2,21562,23385
//Storyboard Layer 0 (Background)
//Storyboard Layer 1 (Fail)
//Storyboard Layer 2 (Pass)
//Storyboard Layer 3 (Foreground)
//Storyboard Sound Samples
//Background Colour Transformations
3,100,163,162,255

[TimingPoints]
379,327.868852459016,4,1,0,50,1,0
23985,-100,4,1,0,20,0,0
34477,-100,4,1,0,35,0,0
45133,-100,4,1,0,40,0,0
54149,-100,4,1,0,30,0,0
55460,-100,4,1,0,50,0,1
71198,-100,4,1,0,5,0,0
71526,-100,4,1,0,50,0,1
76444,-100,4,1,0,50,0,0

[Colours]
Combo1 : 0,255,255
Combo2 : 0,128,255

[HitObjects]
192,44,379,2,0,L|132:148,1,85,4|0,0:0|0:0,0:0:0:0:
362,117,706,2,0,L|320:44,1,85,8|0,0:0|0:0,0:0:0:0:
256,100,1034,1,0,0:0:0:0:
200,164,1198,1,0,0:0:0:0:
256,228,1362,1,8,0:0:0:0:
308,160,1526,1,0,0:0:0:0:
356,280,1690,6,0,L|420:348,1,85
452,264,2018,2,0,L|392:200,1,85,8|0,0:0|0:0,0:0:0:0:
308,188,2346,1,0,0:0:0:0:
256,120,2510,1,0,0:0:0:0:
208,248,2674,1,8,0:0:0:0:
152,68,2838,1,0,0:0:0:0:
100,248,3001,6,0,L|56:328,1,85,4|0,0:0|0:0,0:0:0:0:
144,340,3329,2,0,L|188:260,1,85,8|0,0:0|0:0,0:0:0:0:
212,148,3657,2,0,P|152:96|144:68,1,85
300,236,3985,2,0,P|360:288|368:316,1,85,8|0,0:0|0:0,0:0:0:0:
300,148,4313,2,0,P|352:88|380:80,1,85
212,236,4641,2,0,P|160:296|132:304,1,85,8|0,0:0|0:0,0:0:0:0:
60,196,4969,5,0,0:0:0:0:
100,120,5133,1,0,0:0:0:0:
172,72,5297,1,8,0:0:0:0:
256,64,5460,1,0,0:0:0:0:
336,156,5624,6,0,L|416:204,1,85,4|0,0:0|0:0,0:0:0:0:
392,284,5952,2,0,L|276:288,1,85,8|0,0:0|0:0,0:0:0:0:
232,248,6280,2,0,L|264:156,1,85
208,100,6608,2,0,L|100:144,1,85,8|0,0:0|0:0,0:0:0:0:
88,208,6936,2,0,L|156:272,1,85
256,192,7264,5,8,0:0:0:0:
256,320,7428,1,0,0:0:0:0:
256,192,7592,1,0,0:0:0:0:
352,276,7756,1,0,0:0:0:0:
256,192,7919,1,8,0:0:0:0:
384,188,8083,1,0,0:0:0:0:
356,64,8247,6,0,L|288:-4,1,85,4|0,0:0|0:0,0:0:0:0:
216,3,8575,2,8,L|156:64,1,85,8|0,0:0|0:0,0:0:0:0:
124,144,8903,1,0,0:0:0:0:
60,200,9067,1,0,0:0:0:0:
124,256,9231,1,8,0:0:0:0:
287,235,9559,5,0,0:0:0:0:
212,223,9723,1,0,0:0:0:0:
224,148,9887,1,0,0:0:0:0:
299,160,10051,1,0,0:0:0:0:
328,284,10215,5,0,0:0:0:0:
164,264,10379,1,0,0:0:0:0:
184,100,10542,1,0,0:0:0:0:
348,120,10706,1,0,0:0:0:0:
452,192,10870,6,0,L|416:272,1,85,4|0,0:0|0:0,0:0:0:0:
352,212,11198,2,0,L|400:116,1,85,8|0,0:0|0:0,0:0:0:0:
272,132,11526,2,0,L|272:24,1,85
168,124,11854,2,0,L|136:32,1,85,8|0,0:0|0:0,0:0:0:0:
84,168,12182,6,0,L|124:260,1,85
180,304,12510,1,8,0:0:0:0:
256,344,12674,1,0,0:0:0:0:
324,292,12838,1,0,0:0:0:0:
256,240,13001,1,0,0:0:0:0:
184,196,13165,1,8,0:0:0:0:
256,240,13329,1,0,0:0:0:0:
364,172,13493,6,0,L|428:100,1,85,4|0,0:0|0:0,0:0:0:0:
372,40,13821,2,0,L|312:112,1,85,8|0,0:0|0:0,0:0:0:0:
256,164,14149,1,0,0:0:0:0:
200,100,14313,1,0,0:0:0:0:
124,140,14477,1,8,0:0:0:0:
200,100,14641,1,0,0:0:0:0:
180,228,14805,6,0,L|152:324,1,85
240,332,15133,2,0,L|260:244,1,85,8|0,0:0|0:0,0:0:0:0:
256,164,15460,1,0,0:0:0:0:
160,44,15624,1,0,0:0:0:0:
356,44,15788,1,0,0:0:0:0:
256,244,15952,1,0,0:0:0:0:
256,244,16116,6,0,L|256:344,1,85,4|0,0:0|0:0,0:0:0:0:
340,344,16444,2,0,L|376:256,1,85,8|0,0:0|0:0,0:0:0:0:
172,344,16772,2,0,L|136:256,1,85
96,192,17100,2,0,P|136:176|156:136,1,85,8|0,0:0|0:0,0:0:0:0:
308,64,17592,5,0,0:0:0:0:
388,180,17756,1,8,0:0:0:0:
472,68,17919,1,0,0:0:0:0:
340,112,18083,5,2,0:0:0:0:
360,252,18247,1,0,0:0:0:0:
220,228,18411,1,10,0:0:0:0:
360,252,18575,5,0,0:0:0:0:
256,348,18739,1,0,0:0:0:0:
396,360,18903,1,4,0:0:0:0:
104,72,19231,5,0,0:0:0:0:
72,152,19395,1,0,0:0:0:0:
156,140,19559,1,4,0:0:0:0:
92,300,19887,5,0,0:0:0:0:
168,340,20051,1,0,0:0:0:0:
220,272,20215,1,0,0:0:0:0:
144,236,20378,5,0,0:0:0:0:
220,272,20542,1,0,0:0:0:0:
260,196,20706,1,0,0:0:0:0:
184,156,20870,5,0,0:0:0:0:
260,196,21034,1,0,0:0:0:0:
296,120,21198,1,0,0:0:0:0:
256,44,21362,5,4,0:0:0:0:
192,140,23985,6,0,L|112:72,1,85,6|0,0:0|0:0,0:0:0:0:
80,156,24313,2,0,L|152:220,1,85
152,296,24641,2,0,P|200:288|220:256,1,85
192,140,24969,2,0,P|144:148|124:180,1,85
52,220,25297,5,6,0:0:0:0:
68,304,25460,1,0,0:0:0:0:
152,296,25624,1,0,0:0:0:0:
140,212,25788,1,0,0:0:0:0:
116,132,25952,2,0,P|144:96|188:80,1,85
288,132,26280,2,0,P|260:168|216:184,1,85
320,40,26608,6,0,P|360:60|380:112,1,85,6|0,0:0|0:0,0:0:0:0:
408,256,26936,2,0,P|388:296|336:316,1,85
192,344,27264,2,0,P|152:324|132:272,1,85
104,128,27592,2,0,P|124:88|176:68,1,85
304,144,27919,6,0,L|368:204,1,85,6|0,0:0|0:0,0:0:0:0:
304,260,28247,2,0,L|244:324,1,85
196,252,28575,2,0,L|132:192,1,85
196,132,28903,2,0,L|256:68,1,85
372,80,29231,5,6,0:0:0:0:
412,124,29395,1,0,0:0:0:0:
440,176,29559,1,0,0:0:0:0:
440,236,29723,1,0,0:0:0:0:
400,280,29887,2,0,L|320:336,1,85
276,264,30215,2,0,L|360:208,1,85
256,128,30542,5,6,0:0:0:0:
212,84,30706,1,0,0:0:0:0:
176,132,30870,1,0,0:0:0:0:
140,84,31034,1,0,0:0:0:0:
108,136,31198,2,0,P|64:156|44:204,1,85
72,268,31526,2,0,P|116:248|136:200,1,85
248,252,31854,6,0,L|328:312,1,85,6|0,0:0|0:0,0:0:0:0:
400,288,32182,2,0,L|448:208,1,85
372,168,32510,2,0,L|280:168,1,85
200,168,32838,1,0,0:0:0:0:
200,168,33001,1,0,0:0:0:0:
116,172,33165,6,0,P|84:208|80:260,1,85,6|0,0:0|0:0,0:0:0:0:
228,328,33493,2,0,P|260:292|264:240,1,85
228,92,33821,2,0,P|211:137|225:187,1,85
356,276,34149,2,0,P|372:230|358:180,1,85
324,84,34477,5,6,0:0:0:0:
256,36,34641,1,0,0:0:0:0:
184,84,34805,1,0,0:0:0:0:
212,164,34969,1,0,0:0:0:0:
296,164,35133,2,0,P|324:216|288:328,1,170
297,318,35542,1,0,0:0:0:0:
297,318,35624,1,0,0:0:0:0:
128,328,35788,5,2,0:0:0:0:
188,268,35952,1,0,0:0:0:0:
128,328,36116,1,0,0:0:0:0:
188,268,36280,1,0,0:0:0:0:
104,248,36444,2,0,P|60:176|92:88,1,170
82,98,36854,1,0,0:0:0:0:
82,98,36936,1,0,0:0:0:0:
424,76,37100,5,6,0:0:0:0:
388,152,37264,1,0,0:0:0:0:
324,96,37428,1,0,0:0:0:0:
424,76,37592,1,0,0:0:0:0:
480,180,37756,2,0,P|452:228|332:224,1,170
276,188,38247,1,2,0:0:0:0:
140,84,38575,5,2,0:0:0:0:
64,236,38903,1,2,0:0:0:0:
124,296,39067,2,0,P|200:324|296:284,1,170,2|0,0:0|0:0,0:0:0:0:
320,280,39477,1,0,0:0:0:0:
352,248,39559,1,0,0:0:0:0:
416,188,39723,6,0,L|448:96,1,85,6|0,0:0|0:0,0:0:0:0:
360,100,40051,2,0,L|328:184,1,85
304,260,40378,2,0,P|256:268|188:240,1,85,2|0,0:0|0:0,0:0:0:0:
136,256,40706,2,0,P|92:252|44:264,1,85
84,144,41034,5,2,0:0:0:0:
84,144,41198,1,0,0:0:0:0:
136,76,41362,1,0,0:0:0:0:
136,76,41526,1,0,0:0:0:0:
220,64,41690,1,2,0:0:0:0:
220,64,41854,1,0,0:0:0:0:
304,68,42018,1,0,0:0:0:0:
304,68,42182,1,0,0:0:0:0:
380,104,42346,5,2,0:0:0:0:
392,128,42428,1,0,0:0:0:0:
404,152,42510,1,0,0:0:0:0:
416,176,42592,1,0,0:0:0:0:
428,196,42674,1,0,0:0:0:0:
440,216,42756,1,0,0:0:0:0:
452,240,42838,1,0,0:0:0:0:
464,260,42919,1,0,0:0:0:0:
476,284,43001,6,0,L|500:328,7,42.5,2|0|0|0|0|0|0|0,0:0|0:0|0:0|0:0|0:0|0:0|0:0|0:0,0:0:0:0:
472,332,43657,2,0,L|468:355,32,21.25,2|0|0|0|0|0|0|0|0|0|0|0|0|0|0|2|0|0|0|0|0|0|0|0|0|0|0|0|0|0|0|0|6,0:0|0:0|0:0|0:0|0:0|0:0|0:0|0:0|0:0|0:0|0:0|0:0|0:0|0:0|0:0|0:0|0:0|0:0|0:0|0:0|0:0|0:0|0:0|0:0|0:0|0:0|0:0|0:0|0:0|0:0|0:0|0:0|0:0,0:0:0:0:
388,336,45133,5,0,0:0:0:0:
256,232,45460,1,0,0:0:0:0:
124,340,45788,1,0,0:0:0:0:
256,232,46116,1,0,0:0:0:0:
256,60,46444,5,0,0:0:0:0:
168,204,46772,1,0,0:0:0:0:
340,204,47100,1,0,0:0:0:0:
256,60,47428,1,0,0:0:0:0:
256,232,47756,5,0,0:0:0:0:
368,104,48083,1,0,0:0:0:0:
144,104,48411,1,0,0:0:0:0:
256,232,48739,1,0,0:0:0:0:
120,332,49067,5,0,0:0:0:0:
256,232,49395,1,0,0:0:0:0:
396,332,49723,1,0,0:0:0:0:
256,232,50051,1,0,0:0:0:0:
256,148,50215,5,6,0:0:0:0:
192,92,50378,1,0,0:0:0:0:
100,232,50542,5,0,0:0:0:0:
164,176,50705,1,0,0:0:0:0:
292,288,50870,5,0,0:0:0:0:
228,232,51033,1,0,0:0:0:0:
116,360,51198,5,0,0:0:0:0:
180,304,51361,1,0,0:0:0:0:
408,292,51526,5,6,0:0:0:0:
348,352,51690,1,0,0:0:0:0:
228,232,51854,5,0,0:0:0:0:
292,288,52018,1,0,0:0:0:0:
416,168,52182,5,0,0:0:0:0:
356,228,52346,1,0,0:0:0:0:
244,100,52510,5,0,0:0:0:0:
304,160,52674,1,0,0:0:0:0:
408,56,52838,5,2,0:0:0:0:
391,72,52919,1,0,0:0:0:0:
374,89,53001,1,0,0:0:0:0:
357,106,53083,1,0,0:0:0:0:
340,123,53165,1,0,0:0:0:0:
323,140,53247,1,0,0:0:0:0:
306,157,53329,1,0,0:0:0:0:
288,176,53411,1,0,0:0:0:0:
272,220,53494,5,2,0:0:0:0:
250,227,53575,1,0,0:0:0:0:
227,233,53657,1,0,0:0:0:0:
203,239,53739,1,0,0:0:0:0:
180,245,53821,1,0,0:0:0:0:
157,252,53903,1,0,0:0:0:0:
134,258,53985,1,0,0:0:0:0:
110,263,54067,1,0,0:0:0:0:
28,216,54149,5,0,0:0:0:0:
88,104,54313,1,0,0:0:0:0:
196,40,54477,1,0,0:0:0:0:
324,40,54641,1,0,0:0:0:0:
436,104,54805,1,0,0:0:0:0:
492,216,54969,1,0,0:0:0:0:
392,296,55133,2,0,L|304:312,1,85
180,316,55460,5,0,0:0:0:0:
116,236,55624,1,0,0:0:0:0:
68,328,55788,1,8,0:0:0:0:
200,180,55952,1,0,0:0:0:0:
68,328,56116,2,0,P|156:328|220:264,1,170,0|8,0:0|0:0,0:0:0:0:
214,276,56526,1,0,0:0:0:0:
214,276,56608,1,0,0:0:0:0:
348,72,56772,6,0,P|392:76|440:104,1,85,4|0,0:0|0:0,0:0:0:0:
348,160,57100,2,0,P|304:156|256:128,1,85,8|0,0:0|0:0,0:0:0:0:
228,44,57428,2,0,P|156:80|140:168,1,170,0|8,0:0|0:0,0:0:0:0:
138,162,57838,1,0,0:0:0:0:
138,162,57919,1,0,0:0:0:0:
168,296,58083,5,4,0:0:0:0:
268,204,58247,1,0,0:0:0:0:
304,336,58411,1,8,0:0:0:0:
138,162,58575,1,0,0:0:0:0:
304,336,58739,2,0,P|364:276|352:184,1,170,0|8,0:0|0:0,0:0:0:0:
332,96,59231,5,2,0:0:0:0:
139,163,59559,1,2,0:0:0:0:
308,276,59887,1,2,0:0:0:0:
404,240,60051,2,0,P|440:176|424:80,1,170,2|0,0:0|0:0,0:0:0:0:
408,64,60460,1,0,0:0:0:0:
384,56,60542,1,0,0:0:0:0:
360,48,60624,1,0,0:0:0:0:
336,44,60706,6,0,P|280:36|212:44,1,85,4|0,0:0|0:0,0:0:0:0:
212,132,61034,2,0,P|268:140|336:132,1,85,8|0,0:0|0:0,0:0:0:0:
148,52,61362,2,0,P|112:136|160:212,1,170,0|8,0:0|0:0,0:0:0:0:
145,201,61772,1,0,0:0:0:0:
145,201,61854,1,0,0:0:0:0:
172,344,62018,6,0,P|212:352|256:336,1,85
288,212,62346,2,0,P|248:204|203:219,1,85,8|0,0:0|0:0,0:0:0:0:
368,332,62674,2,0,P|404:248|356:172,1,170,0|8,0:0|0:0,0:0:0:0:
52,64,63329,5,4,0:0:0:0:
152,56,63493,1,0,0:0:0:0:
112,148,63657,1,8,0:0:0:0:
52,64,63821,1,0,0:0:0:0:
64,232,63985,2,0,P|144:236|204:172,1,170,0|8,0:0|0:0,0:0:0:0:
224,76,64477,5,2,0:0:0:0:
288,268,64805,1,2,0:0:0:0:
112,148,65133,1,2,0:0:0:0:
52,232,65297,1,2,0:0:0:0:
156,288,65460,1,2,0:0:0:0:
168,52,65624,1,2,0:0:0:0:
44,344,65788,1,2,0:0:0:0:
212,356,65952,6,0,P|240:304|232:252,1,85,4|0,0:0|0:0,0:0:0:0:
176,200,66280,2,0,P|148:252|156:304,1,85,8|0,0:0|0:0,0:0:0:0:
262,184,66608,2,0,P|216:124|128:124,1,170,0|8,0:0|0:0,0:0:0:0:
128,124,67018,1,0,0:0:0:0:
128,124,67100,1,0,0:0:0:0:
428,304,67264,5,0,0:0:0:0:
428,304,67428,1,0,0:0:0:0:
392,208,67592,2,0,L|312:140,1,85,8|0,0:0|0:0,0:0:0:0:
336,52,67919,2,0,P|252:64|220:144,1,170,0|8,0:0|0:0,0:0:0:0:
80,288,68575,6,0,L|164:340,1,85,4|0,0:0|0:0,0:0:0:0:
240,276,68903,2,0,L|152:220,1,85,8|0,0:0|0:0,0:0:0:0:
272,352,69231,2,0,P|328:288|304:208,1,170,0|8,0:0|0:0,0:0:0:0:
307,212,69641,1,0,0:0:0:0:
307,212,69723,1,0,0:0:0:0:
256,124,69887,5,0,0:0:0:0:
188,48,70051,1,0,0:0:0:0:
140,140,70215,1,8,0:0:0:0:
84,56,70378,1,0,0:0:0:0:
48,152,70542,2,0,P|64:232|148:264,1,170,0|8,0:0|0:0,0:0:0:0:
176,264,70952,1,0,0:0:0:0:
200,264,71034,1,0,0:0:0:0:
224,264,71116,1,0,0:0:0:0:
248,264,71198,6,0,P|300:268|364:288,1,85,0|0,0:0|0:0,0:0:0:0:
420,224,71526,2,0,P|424:176|444:132,1,85,12|0,0:0|0:0,0:0:0:0:
368,68,71854,2,0,P|284:92|196:64,1,170,0|8,0:0|0:0,0:0:0:0:
206,70,72264,1,0,0:0:0:0:
206,70,72346,1,0,0:0:0:0:
108,164,72510,6,0,P|88:208|92:256,1,85
180,292,72838,2,0,P|192:244|184:196,1,85,8|0,0:0|0:0,0:0:0:0:
100,356,73165,2,0,P|184:384|280:336,1,170,0|8,0:0|0:0,0:0:0:0:
380,192,73821,6,0,L|440:88,1,85,4|0,0:0|0:0,0:0:0:0:
324,96,74149,2,0,L|268:192,1,85,8|0,0:0|0:0,0:0:0:0:
260,268,74477,2,0,P|188:268|132:176,1,170,0|8,0:0|0:0,0:0:0:0:
132,194,74887,1,0,0:0:0:0:
132,194,74969,1,0,0:0:0:0:
196,116,75133,6,0,L|152:28,1,85,2|0,0:0|0:0,0:0:0:0:
96,116,75460,2,0,L|136:204,1,85,10|0,0:0|0:0,0:0:0:0:
212,256,75788,2,0,P|288:284|372:248,1,170,2|6,0:0|0:0,0:0:0:0:
420,56,76444,5,0,0:0:0:0:
408,156,76608,1,0,0:0:0:0:
324,96,76772,1,8,0:0:0:0:
408,156,76936,5,0,0:0:0:0:
396,256,77100,1,0,0:0:0:0:
312,196,77264,1,0,0:0:0:0:
396,256,77428,6,0,L|368:368,1,85,8|0,0:0|0:0,0:0:0:0:
280,376,77756,2,0,L|304:284,1,85
312,196,78083,2,0,L|220:136,1,85,8|0,0:0|0:0,0:0:0:0:
168,224,78411,1,0,0:0:0:0:
112,140,78575,1,0,0:0:0:0:
68,288,78739,1,8,0:0:0:0:
188,60,78903,1,0,0:0:0:0:
256,312,79067,6,0,P|304:312|344:280,1,85
352,192,79395,2,0,P|304:192|264:224,1,85,8|0,0:0|0:0,0:0:0:0:
444,228,79723,2,0,P|448:184|424:128,1,85
412,44,80051,2,0,P|368:48|312:24,1,85,8|0,0:0|0:0,0:0:0:0:
256,108,80378,5,0,0:0:0:0:
168,160,80542,1,0,0:0:0:0:
164,56,80706,1,8,0:0:0:0:
76,108,80870,1,0,0:0:0:0:
96,208,81034,1,0,0:0:0:0:
176,272,81198,1,0,0:0:0:0:
256,336,81362,1,8,0:0:0:0:
336,272,81526,1,0,0:0:0:0:
408,200,81690,6,0,P|432:160|484:128,1,85,4|0,0:0|0:0,0:0:0:0:
392,60,82018,2,0,P|368:96|320:128,1,85,8|0,0:0|0:0,0:0:0:0:
256,188,82346,1,0,0:0:0:0:
196,108,82510,1,0,0:0:0:0:
176,272,82674,1,8,0:0:0:0:
120,48,82838,1,0,0:0:0:0:
60,192,83001,6,0,L|48:292,1,85
152,288,83329,2,0,L|160:196,1,85,8|0,0:0|0:0,0:0:0:0:
196,108,83657,2,0,P|232:84|304:72,1,85
332,156,83985,2,0,P|292:184|236:192,1,85,8|0,0:0|0:0,0:0:0:0:
368,60,84313,6,0,P|428:120|432:152,1,85
388,304,84641,2,0,P|328:364|296:368,1,85,8|0,0:0|0:0,0:0:0:0:
144,324,84969,2,0,P|84:264|80:232,1,85
124,80,85297,2,0,P|184:20|216:16,1,85,8|0,0:0|0:0,0:0:0:0:
192,192,85624,6,0,L|168:296,1,85
320,192,85952,2,0,L|344:296,1,85,8|0,0:0|0:0,0:0:0:0:
256,336,86280,2,0,L|256:236,1,85
256,148,86608,1,8,0:0:0:0:
256,124,86690,1,0,0:0:0:0:
256,100,86772,1,0,0:0:0:0:
256,76,86854,1,0,0:0:0:0:
256,52,86936,6,0,P|224:40|144:36,1,85,4|0,0:0|0:0,0:0:0:0:
100,104,87264,2,0,P|132:116|212:120,1,85,8|0,0:0|0:0,0:0:0:0:
329,122,87592,2,0,P|380:116|412:104,1,85
452,200,87919,2,0,P|412:208|352:244,1,85,8|0,0:0|0:0,0:0:0:0:
308,308,88247,5,0,0:0:0:0:
88,348,88411,1,0,0:0:0:0:
204,308,88575,2,0,L|112:228,1,85,8|0,0:0|0:0,0:0:0:0:
56,192,88903,1,0,0:0:0:0:
88,348,89067,1,0,0:0:0:0:
56,192,89231,1,8,0:0:0:0:
88,348,89395,1,0,0:0:0:0:
292,84,89559,6,0,P|348:112|368:140,1,85
348,232,89887,2,0,P|292:204|272:176,1,85,8|0,0:0|0:0,0:0:0:0:
176,200,90215,2,0,P|148:244|144:288,1,85
208,356,90542,2,0,P|236:312|240:268,1,85,8|0,0:0|0:0,0:0:0:0:
276,184,90870,6,0,P|256:148|204:120,1,85
120,140,91198,2,0,P|140:176|192:204,1,85,8|0,0:0|0:0,0:0:0:0:
256,264,91526,1,0,0:0:0:0:
356,248,91690,1,0,0:0:0:0:
360,148,91854,1,8,0:0:0:0:
360,148,91936,1,0,0:0:0:0:
360,148,92018,1,0,0:0:0:0:
360,148,92100,1,0,0:0:0:0:
360,148,92182,6,0,L|312:56,1,85,4|4,0:0|0:0,0:0:0:0:
152,148,92510,2,0,L|200:56,1,85,2|0,0:0|0:0,0:0:0:0:
256,152,92838,1,0,0:0:0:0:
204,240,93001,1,0,0:0:0:0:
308,240,93165,1,2,0:0:0:0:
308,240,93329,1,0,0:0:0:0:
296,340,93493,6,0,P|256:352|196:324,1,85,4|0,0:0|0:0,0:0:0:0:
124,296,93821,1,2,0:0:0:0:
124,296,93985,1,0,0:0:0:0:
116,196,94149,2,0,L|100:96,1,85
184,52,94477,2,0,L|204:160,1,85,2|0,0:0|0:0,0:0:0:0:
296,232,94805,6,0,P|336:248|396:248,1,85,4|0,0:0|0:0,0:0:0:0:
376,148,95133,2,0,P|336:132|276:132,1,85,2|0,0:0|0:0,0:0:0:0:
192,140,95460,1,4,0:0:0:0:
100,192,95624,1,2,0:0:0:0:
144,284,95788,1,0,0:0:0:0:
252,328,95952,6,0,P|344:320|392:244,1,170,2|0,0:0|0:0,0:0:0:0:
260,56,96608,2,0,P|168:64|120:140,1,170,2|0,0:0|0:0,0:0:0:0:
256,252,97428,1,4,0:0:0:0:
