osu file format v9

[General]
AudioFilename: 26 - EMPRESS OST - Ryu - Mind Mapping.mp3
AudioLeadIn: 2000
PreviewTime: 17321
Countdown: 0
SampleSet: Soft
StackLeniency: 0.7
Mode: 1
LetterboxInBreaks: 1

[Editor]
Bookmarks: 17321,24821
DistanceSpacing: 1.6
BeatDivisor: 4
GridSize: 8

[Metadata]
Title:Mind Mapping
Artist:Ryu*
Creator:S h i a
Version:Taiko
Source:Beatmania IIDX 16 EMPRESS
Tags:iidx16 empress Alace Gens electro-tech

[Difficulty]
HPDrainRate:5
CircleSize:7
OverallDifficulty:5
ApproachRate:5
SliderMultiplier:1.4
SliderTickRate:2

[Events]
//Background and Video events
0,0,"bgtaiko.jpg"
//Break Periods
//Storyboard Layer 0 (Background)
//Storyboard Layer 1 (Fail)
//Storyboard Layer 2 (Pass)
//Storyboard Layer 3 (Foreground)
//Storyboard Sound Samples
//Background Colour Transformations
3,100,163,162,255

[TimingPoints]
434,468.75,4,2,1,100,1,0
79184,-100,4,2,1,100,0,1
109184,-100,4,2,1,100,0,0

[Colours]
Combo1 : 255,207,136
Combo2 : 181,253,128
Combo3 : 130,148,253
Combo4 : 252,122,122

[HitObjects]
176,160,434,1,6
200,120,902,1,2
200,120,1371,1,2
200,120,1840,1,2
416,48,2309,1,0
200,120,2777,1,2
304,88,3012,1,0
200,120,3246,1,0
416,48,3715,1,2
192,72,4184,1,0
192,72,4418,1,0
192,72,4652,1,2
192,72,4887,1,0
192,72,5121,1,0
192,72,5590,1,2
192,72,5824,1,2
192,72,6059,1,2
192,72,6293,1,2
192,72,6762,1,2
192,72,6996,1,2
192,72,7465,1,6
192,72,7699,1,6
152,168,7934,5,6
152,168,8285,1,2
152,168,8402,1,2
152,168,8754,1,2
152,168,8871,1,2
152,168,9223,1,2
152,168,9340,1,2
272,48,9691,1,2
232,88,9809,1,2
152,168,10043,1,0
232,88,10277,1,2
152,168,10512,1,0
232,88,10746,1,2
224,200,10980,1,2
224,144,11098,1,2
224,144,11215,1,2
224,144,11449,1,0
152,56,11684,1,2
224,136,11918,1,2
184,96,12035,1,2
152,48,12152,1,2
216,144,12387,1,2
184,96,12504,1,2
152,48,12621,1,2
216,144,12855,1,2
184,96,12973,1,2
152,48,13090,1,2
152,48,13324,1,2
152,48,13441,1,2
152,48,13559,1,2
152,48,13793,1,2
152,48,14027,1,0
152,48,14262,1,0
152,48,14496,1,2
256,96,14730,1,2
152,48,14965,1,0
256,96,15199,1,0
168,168,15434,5,4
112,208,15902,1,4
112,208,16371,1,4
328,248,16840,5,6
232,192,17074,1,6
184,88,17309,1,4
288,40,17543,1,2
184,88,17777,1,0
288,40,18012,1,2
184,88,18246,1,0
288,40,18480,1,2
240,64,18598,1,2
184,88,18715,1,0
288,40,18949,1,2
232,136,19184,1,0
232,136,19418,1,2
232,136,19652,1,0
232,136,19887,1,2
232,136,20121,1,0
232,136,20355,1,2
232,136,20473,1,2
232,136,20590,1,0
160,56,20824,1,2
144,168,21059,1,0
144,168,21293,1,2
144,168,21410,1,2
144,168,21527,1,0
144,168,21762,1,2
144,168,21996,1,0
256,192,22230,1,2
312,200,22348,1,2
256,184,22465,1,2
368,208,22582,1,2
368,208,22699,1,2
280,136,22934,1,2
192,72,23168,1,2
376,208,23637,1,2
288,144,23871,1,2
112,8,24340,1,6
200,80,24574,1,6
296,144,24809,1,4
184,136,25043,1,2
128,136,25160,1,2
128,136,25277,1,0
128,136,25512,1,2
128,136,25746,1,0
128,136,25980,1,2
144,80,26098,1,2
160,48,26215,1,0
160,48,26449,1,2
296,144,26684,1,0
184,136,26918,1,2
128,136,27035,1,2
128,136,27152,1,0
128,136,27387,1,2
128,136,27621,1,0
128,136,27855,1,2
144,80,27973,1,2
160,48,28090,1,0
160,48,28324,1,2
296,144,28559,1,0
184,136,28793,1,2
128,136,28910,1,2
128,136,29027,1,0
128,136,29262,1,2
128,136,29496,1,0
128,136,29730,1,2
144,80,29848,1,2
160,48,29965,1,0
144,104,30082,1,0
160,48,30199,1,2
272,64,30434,5,6
272,64,30902,1,6
272,64,31371,1,6
272,64,31840,1,4
272,64,32074,1,4
272,64,32309,1,4
176,120,32543,1,2
80,176,32777,1,0
176,120,33012,1,2
136,144,33480,1,2
136,144,33949,1,2
136,144,34418,1,2
200,48,34652,1,0
160,152,34887,1,2
176,96,35004,1,2
176,96,35121,1,0
176,96,35355,1,2
176,96,35590,1,0
176,96,35707,1,0
176,96,35824,1,2
176,96,35941,1,2
176,96,36059,1,0
176,96,36293,1,2
176,96,36527,1,0
176,96,36762,1,2
176,96,37230,1,2
176,96,37699,1,2
264,168,37934,1,0
176,96,38168,1,0
264,168,38402,1,2
264,168,38637,1,2
264,168,38871,1,0
264,168,39105,1,0
264,168,39340,1,2
264,168,39574,1,2
272,64,39809,1,0
176,120,40043,1,2
80,176,40277,1,0
176,120,40512,1,2
136,144,40980,1,2
136,144,41449,1,2
136,144,41918,1,2
200,48,42152,1,0
160,152,42387,1,2
176,96,42504,1,2
176,96,42621,1,0
176,96,42855,1,2
176,96,43090,1,0
176,96,43207,1,0
176,96,43324,1,2
176,96,43441,1,2
176,96,43559,1,0
176,96,43793,1,2
176,96,44027,1,0
176,96,44262,1,2
176,96,44730,1,2
176,96,45199,1,2
264,168,45434,1,0
176,96,45668,1,0
264,168,45902,1,0
264,168,46137,1,0
264,168,46371,1,2
264,168,46605,1,2
264,168,46840,1,2
264,168,47074,1,2
176,96,47309,5,0
248,8,47543,1,2
160,152,47894,1,2
208,120,48012,1,0
240,8,48246,1,0
184,104,48480,1,2
168,56,48598,1,0
200,88,48832,1,2
184,104,49066,1,0
200,88,49184,1,0
256,184,49418,1,2
352,320,49769,1,2
208,120,49887,1,0
256,184,50121,1,0
320,272,50355,1,2
224,136,50473,1,0
224,136,50707,1,2
224,136,50941,1,0
320,272,51059,1,0
240,192,51293,1,2
200,152,51410,1,0
128,64,51644,1,2
168,104,51762,1,0
168,104,51996,1,0
120,208,52230,1,2
144,160,52348,1,0
232,192,52582,1,2
208,80,52816,1,0
200,24,52934,1,0
152,120,53168,1,2
152,120,53285,1,0
152,120,53519,1,2
152,120,53637,1,0
152,120,53871,1,0
152,120,54105,1,2
152,120,54223,1,0
152,120,54457,1,2
152,120,54691,1,0
152,120,54809,5,0
248,184,55043,1,2
200,152,55160,1,0
296,216,55394,1,2
248,184,55512,1,0
200,152,55629,1,2
248,184,55863,1,0
152,120,55980,1,2
200,152,56098,1,0
296,216,56332,1,2
200,152,56566,1,0
296,216,56684,1,0
224,128,56918,1,2
224,128,57035,1,0
224,128,57269,1,2
224,128,57387,1,0
224,128,57504,1,2
224,128,57738,1,0
224,128,57855,1,2
224,128,57973,1,0
224,128,58207,1,2
224,128,58441,1,0
224,128,58559,1,0
344,248,58793,1,2
344,248,58910,1,0
344,248,59027,1,0
344,248,59144,1,2
304,208,59262,1,0
344,248,59496,1,4
344,248,59848,1,4
344,248,60199,1,4
344,248,60434,1,4
240,208,60668,1,2
240,208,60785,1,0
240,208,61019,1,2
240,208,61137,1,0
240,208,61254,1,2
264,96,61488,1,0
256,152,61605,1,2
256,152,61723,1,0
256,152,61957,1,2
256,152,62074,1,0
256,152,62309,5,2
128,152,62543,1,2
16,144,62777,1,2
128,152,63012,1,2
80,256,63246,1,0
128,152,63480,1,0
88,256,63715,1,0
120,152,63949,1,0
224,104,64184,1,2
224,104,64418,1,2
224,104,64652,1,2
224,104,64887,1,2
224,104,65121,1,2
224,104,65590,1,2
424,8,66059,1,2
320,56,66293,1,2
224,112,66527,1,2
320,48,66762,1,2
232,112,66996,1,0
320,48,67230,1,0
232,112,67465,1,0
320,48,67699,1,0
216,80,67934,1,2
112,120,68168,1,2
144,80,68285,1,2
144,80,68519,1,2
328,160,68637,1,2
216,152,68871,1,2
328,160,68988,1,2
272,160,69105,1,2
328,160,69340,1,2
328,160,69457,1,2
328,160,69574,1,2
328,160,69691,1,2
328,160,69809,1,2
232,96,70043,1,0
136,40,70277,1,2
232,104,70512,1,0
128,64,70746,1,0
336,136,71215,1,2
232,96,71449,1,0
120,72,71684,1,0
232,96,71918,1,0
120,72,72152,1,2
232,96,72387,1,0
120,72,72621,1,0
344,112,73090,1,2
120,72,73559,1,0
232,96,73793,1,0
120,72,74027,1,2
232,96,74262,1,0
120,72,74496,1,0
344,112,74965,1,2
232,96,75199,1,2
120,72,75434,1,0
232,96,75668,1,0
120,72,75902,1,2
232,96,76137,1,2
120,72,76371,1,0
176,96,76605,1,0
176,96,76840,1,2
176,96,77074,1,2
176,96,77309,5,6
176,96,77660,1,6
176,96,78012,1,6
176,96,78363,1,6
176,96,78715,1,6
176,96,78949,1,6
160,208,79184,5,4
240,128,79418,1,2
200,168,79535,1,2
168,208,79652,1,0
224,208,79769,1,0
280,208,79887,1,2
304,96,80121,1,0
288,208,80355,1,2
288,152,80473,1,2
288,208,80590,1,0
296,96,80824,1,0
288,208,81059,1,2
296,96,81293,1,0
288,208,81527,1,2
296,96,81762,1,0
280,264,81996,1,2
208,176,82230,1,0
176,136,82348,1,2
208,184,82465,1,2
152,88,82699,1,2
160,208,82934,1,0
240,128,83168,1,2
200,168,83285,1,2
168,208,83402,1,0
224,208,83519,1,0
280,208,83637,1,2
304,96,83871,1,0
288,208,84105,1,2
288,152,84223,1,2
288,208,84340,1,0
296,96,84574,1,2
288,208,84809,1,2
296,96,85043,1,2
296,96,85512,1,2
280,264,85746,1,2
208,184,86215,1,6
152,88,86449,1,6
160,208,86684,5,4
240,128,86918,1,2
200,168,87035,1,2
168,208,87152,1,0
224,208,87269,1,0
280,208,87387,1,2
304,96,87621,1,2
288,208,87738,1,0
288,152,87973,1,0
288,208,88090,1,2
296,96,88324,1,2
288,208,88559,1,0
296,96,88793,1,2
288,208,89027,1,0
296,96,89262,1,2
280,264,89496,1,2
208,176,89613,1,0
176,136,89848,1,0
208,184,89965,1,2
152,88,90199,1,2
160,208,90434,5,0
240,128,90668,1,2
200,168,90785,1,2
168,208,90902,1,0
224,208,91019,1,0
280,208,91137,1,2
304,96,91371,1,2
288,208,91488,1,0
288,152,91723,1,0
288,208,91840,1,2
296,96,92074,1,2
288,208,92309,1,0
296,96,92543,1,2
296,96,93012,1,2
320,144,93129,1,0
280,264,93246,1,0
208,176,93363,1,2
264,192,93480,1,0
176,136,93598,1,2
208,184,93715,1,0
264,192,93832,1,2
152,88,93949,1,2
200,120,94066,1,2
272,64,94184,5,0
176,120,94418,1,0
80,176,94652,1,2
176,120,94887,1,2
200,72,95004,1,0
216,48,95238,1,0
136,144,95355,1,2
216,48,95473,1,0
160,64,95590,1,2
136,144,95824,1,0
136,144,96293,1,0
200,48,96527,1,2
160,152,96762,1,2
176,96,96879,1,0
176,96,97113,1,0
176,96,97230,1,2
224,72,97348,1,0
176,104,97465,1,2
176,96,97699,1,0
176,96,97934,1,0
176,96,98168,1,0
176,96,98402,1,2
176,96,98637,1,2
224,64,98754,1,0
128,120,98988,1,0
176,96,99105,1,2
224,64,99223,1,0
176,96,99340,1,2
176,96,99574,1,0
264,168,99809,1,4
224,8,100160,1,4
272,168,100512,1,4
192,88,100746,1,4
272,168,100980,1,0
320,192,101098,1,0
368,216,101215,1,0
320,192,101332,1,2
368,216,101449,1,2
320,192,101566,1,2
368,216,101684,1,0
176,120,101918,1,0
80,176,102152,1,2
176,120,102387,1,2
232,128,102504,1,0
344,128,102738,1,0
136,144,102855,1,2
192,136,102973,1,0
248,136,103090,1,2
136,144,103324,1,0
136,144,103793,1,0
200,48,104027,1,2
160,152,104262,1,2
176,96,104379,1,0
176,96,104613,1,0
176,96,104730,1,2
176,96,104848,1,0
176,96,104965,1,2
176,96,105199,1,0
176,96,105434,1,0
176,96,105668,1,0
176,96,105902,1,2
176,96,106137,1,2
232,96,106254,1,0
120,96,106488,1,0
176,96,106605,1,2
232,96,106723,1,0
176,96,106840,1,2
176,96,107074,1,0
264,168,107309,1,2
208,72,107543,1,2
264,168,107777,1,2
208,72,108012,1,2
264,168,108246,1,0
264,168,108480,1,0
264,168,108715,1,0
264,168,108949,1,0
184,88,109184,1,4
