osu file format v9

[General]
AudioFilename: 26 - EMPRESS OST - Ryu - Mind Mapping.mp3
AudioLeadIn: 2000
PreviewTime: 17321
Countdown: 0
SampleSet: Normal
StackLeniency: 0.7
Mode: 0
LetterboxInBreaks: 1

[Editor]
DistanceSpacing: 1.1
BeatDivisor: 4
GridSize: 8

[Metadata]
Title:Mind Mapping
Artist:Ryu*
Creator:S h i a
Version:Normal
Source:Beatmania IIDX 16 EMPRESS
Tags:iidx16 empress Alace Gens electro-tech

[Difficulty]
HPDrainRate:1
CircleSize:3
OverallDifficulty:3
ApproachRate:3
SliderMultiplier:1.1
SliderTickRate:1

[Events]
//Background and Video events
0,0,"bgnormal.jpg"
//Break Periods
2,45634,45869
2,62509,68369
//Storyboard Layer 0 (Background)
//Storyboard Layer 1 (Fail)
//Storyboard Layer 2 (Pass)
//Storyboard Layer 3 (Foreground)
//Storyboard Sound Samples
//Background Colour Transformations
3,100,163,162,255

[TimingPoints]
434,468.75,4,2,1,65,1,0
15316,-100,4,1,1,65,0,0
43441,-100,4,1,1,5,0,0
45434,-100,4,1,1,5,0,0
47191,-100,4,1,1,65,0,0
69691,-100,4,2,1,65,0,0
79066,-100,4,1,1,65,0,0
94066,-100,4,2,1,75,0,0
101566,-100,4,1,1,65,0,0
109066,-100,4,2,1,5,0,0

[Colours]
Combo1 : 255,207,136
Combo2 : 181,253,128
Combo3 : 130,148,253
Combo4 : 252,122,122

[HitObjects]
400,48,434,2,0,B|272:48|272:192,1,220,4|0
152,160,1840,1,2
88,56,2309,1,0
24,160,2777,1,2
88,264,3246,2,0,B|24:272|8:352,1,110,0|2
136,336,4184,6,0,B|192:344|248:336,2,110,0|2|0
104,216,5590,1,2
96,96,6059,2,0,B|208:96|256:224,1,220,0|0
464,104,7934,6,0,B|464:160,2,55,0|0|2
368,176,8871,2,0,B|368:96,2,55,0|0|2
272,104,9809,2,0,B|272:184,2,55,0|0|2
176,176,10746,2,0,B|176:112,2,55,0|0|2
64,224,11684,5,0
176,264,12152,2,0,B|232:272|256:336,1,110,2|0
328,232,13090,2,0,B|256:216|256:144,1,110,2|0
256,32,14027,1,2
257,159,14496,2,0,B|256:216|175:242,1,110,0|2
80,160,15434,5,0
144,56,15902,1,0
200,160,16371,1,0
144,264,16840,1,4
256,216,17309,6,0,B|384:216,1,110,0|8
280,128,18246,2,0,B|408:128,1,110,0|8
304,40,19184,2,0,B|184:40,1,110,0|8
80,88,20121,2,0,B|32:136,2,55,0|0|8
168,176,21059,6,0,B|115:197|123:269,1,110,0|8
240,248,21996,2,0,B|272:304|336:304,1,110,0|8
344,184,22934,2,0,B|408:160|408:104,1,110,0|8
288,96,23871,2,0,B|224:96,2,55,0|8|8
192,24,24809,6,0,B|64:24,1,110,0|8
64,144,25746,2,0,B|192:144,1,110,0|8
296,152,26684,5,0
400,208,27152,1,8
296,264,27621,2,0,B|296:328,2,55,0|0|8
200,192,28559,6,0,B|208:256|152:288,1,110,0|8
104,176,29496,2,0,B|88:120|0:112,1,110,0|8
128,48,30434,5,0
248,80,30902,1,8
216,200,31371,2,0,B|216:264,2,55,0|8|8
96,208,32309,6,0,B|160:224|168:304,1,110,0|8
288,280,33246,2,0,B|296:224|360:200,1,110,0|8
256,136,34184,1,0
336,48,34652,1,8
216,48,35121,2,0,B|128:48,2,55,0|0|8
168,160,36059,6,0,B|144:216|80:224,2,110,0|8|0
272,96,37465,1,8
280,216,37934,2,0,B|304:160|368:152,1,110,0|8
368,272,38871,2,0,B|440:272,2,55,0|8|8
256,320,39809,6,0,B|160:256,1,110,0|8
120,144,40746,2,0,B|88:56,2,55,0|0|8
232,200,41684,6,0,B|336:152,1,110,0|8
416,72,42621,2,0,B|464:112,2,55,0|0|8
256,192,43559,12,0,45434
80,64,47309,6,0,B|152:64,2,55,0|0|8
144,168,48246,1,0
80,272,48715,1,8
200,280,49184,6,0,B|240:232,2,55,0|0|8
320,248,50121,2,0,B|376:200|360:128,1,110,0|8
256,96,51059,6,0,B|256:32,2,55,0|0|8
168,184,51996,1,0
256,264,52465,1,8
376,248,52934,6,0,B|376:160,2,55,0|0|8
304,152,53871,2,0,B|200:208,1,110,0|8
112,280,54809,6,0,B|168:312|240:288,1,110,0|8
328,240,55746,2,0,B|384:192|384:120,1,110,0|8
320,40,56684,6,0,B|320:104|264:144,1,110,0|8
168,200,57621,2,0,B|112:216|48:160,1,110,0|8
152,88,58559,5,4
360,216,59496,2,4,B|432:264,2,82.5
312,184,60434,5,4
216,112,60902,1,8
128,192,61371,2,0,B|160:240|216:256,1,110,0|8
312,184,62309,1,4
256,152,69809,6,0,B|224:104,2,55,0|0|8
360,216,70746,2,0,B|304:248|296:328,1,110,0|8
192,248,71684,2,0,B|176:304|208:360,1,110,0|8
104,288,72621,2,0,B|88:224|128:168,1,110,0|8
240,192,73559,5,0
168,96,74027,1,8
72,168,74496,1,0
56,48,74965,1,8
176,64,75434,6,2,B|240:96,2,55,2|0|8
104,160,76371,2,0,B|80:224|120:288,1,110,0|8
232,272,77309,2,0,B|280:240|288:192,4,82.5
224,152,79184,6,0,B|144:248,1,110,0|8
48,176,80121,2,0,B|64:296,1,110,0|8
184,312,81059,2,0,B|288:248,1,110,0|8
400,240,81996,2,0,B|440:192,2,55,0|0|8
320,152,82934,6,0,B|232:72,1,110,0|8
176,184,83871,2,0,B|96:104,1,110,0|8
56,224,84809,2,0,B|136:304,1,110,0|8
248,272,85746,2,0,B|296:224,2,55,0|8|8
368,288,86684,6,0,B|440:288|456:216,1,110,0|8
352,168,87621,2,0,B|384:112|328:64,1,110,0|8
240,144,88559,2,0,B|176:160|176:232,1,110,0|8
56,208,89496,1,0
32,152,89730,1,0
64,96,89965,1,8
160,168,90434,6,0,B|160:224|232:256,1,110,0|8
288,152,91371,2,0,B|352:160|384:96,1,110,0|8
272,56,92309,2,0,B|208:48|168:112,1,110,0|8
144,216,93246,1,0
192,256,93480,1,8
248,272,93715,1,8
368,240,94184,6,0,B|512:128|376:8,1,275
280,80,95824,2,0,B|216:80|192:152,1,110,0|2
112,56,96762,2,0,B|56:88|72:168,2,110,0|2|0
168,168,98168,6,0,B|128:224,2,55,2|0|0
288,144,99105,2,0,B|328:96,1,55,2|0
400,192,99809,6,4,B|352:208|328:256,2,82.5
400,128,100746,2,4,B|400:72,1,55
248,176,101684,6,0,B|248:112|312:88,2,110,0|8|0
352,232,103090,2,0,B|288:232|264:304,1,110,8|0
168,232,104027,2,0,B|184:296|128:344,2,110,8|0|8
80,152,105434,2,0,B|8:184,2,55,0|0|8
136,136,106137,1,8
256,112,106605,6,0,B|312:88|376:112,1,110,0|8
368,168,107309,2,0,B|320:184|288:248,2,110,0|8|0
424,192,108480,2,0,B|464:256,2,55,0|8|8
256,192,109184,12,0,111059
