osu file format v9

[General]
AudioFilename: 26 - EMPRESS OST - Ryu - Mind Mapping.mp3
AudioLeadIn: 2000
PreviewTime: 17321
Countdown: 0
SampleSet: Soft
StackLeniency: 0.7
Mode: 0
LetterboxInBreaks: 1

[Editor]
DistanceSpacing: 1.2
BeatDivisor: 4
GridSize: 8

[Metadata]
Title:Mind Mapping
Artist:Ryu*
Creator:S h i a
Version:Hyper
Source:Beatmania IIDX 16 EMPRESS
Tags:iidx16 empress Alace Gens electro-tech

[Difficulty]
HPDrainRate:3
CircleSize:4
OverallDifficulty:6
ApproachRate:8
SliderMultiplier:2
SliderTickRate:1

[Events]
//Background and Video events
0,0,"bghyper.jpg"
//Break Periods
2,62509,69059
//Storyboard Layer 0 (Background)
//Storyboard Layer 1 (Fail)
//Storyboard Layer 2 (Pass)
//Storyboard Layer 3 (Foreground)
//Storyboard Sound Samples
//Background Colour Transformations
3,100,163,162,255

[TimingPoints]
434,468.75,4,2,1,50,1,0
14378,-100,4,1,1,22,0,0
14613,-100,4,1,1,35,0,0
14847,-100,4,1,1,49,0,0
15081,-100,4,1,1,66,0,0
15550,-100,4,2,1,66,0,0
15784,-100,4,1,1,66,0,0
16019,-100,4,2,1,66,0,0
16253,-100,4,1,1,66,0,0
16488,-100,4,2,1,66,0,0
16722,-100,4,1,1,66,0,0
16956,-100,4,2,1,66,0,0
17191,-100,4,1,1,70,0,0
32426,-100,4,2,1,80,0,0
77191,-100,4,1,1,80,0,0
78832,-100,4,1,1,5,0,0
79066,-100,4,1,1,80,0,0
94066,-100,4,2,1,100,0,0
99809,-100,4,1,1,100,0,0
101566,-100,4,2,1,100,0,0
109072,-100,4,2,1,5,0,0

[Colours]
Combo1 : 255,207,136
Combo2 : 181,253,128
Combo3 : 130,148,253
Combo4 : 252,122,122

[HitObjects]
256,136,434,1,0
368,80,668,1,0
160,224,902,5,0
56,280,1137,1,2
256,288,1371,5,0
256,32,1840,5,0
368,80,2074,1,2
152,80,2309,5,0
40,128,2543,1,0
256,136,2777,5,0
368,184,3012,1,2
168,224,3246,6,0,B|160:280|96:288,1,100
208,320,3715,2,0,B|232:272|280:256,1,100,0|2
280,256,4184,5,0
392,208,4418,1,0
280,72,4652,5,0
392,112,4887,1,2
168,128,5121,6,0,B|136:168|72:160,1,100
112,272,5590,2,0,B|152:312|208:304,1,100,0|2
88,344,6059,5,0
64,224,6293,1,0
104,112,6527,1,0
208,48,6762,1,2
216,312,6996,5,0
328,280,7230,1,0
384,176,7465,1,0
384,56,7699,1,2
480,128,7934,6,0,B|512:184,3,50
480,128,8402,1,2
360,120,8637,1,0
240,128,8871,6,0,B|208:168,3,50
240,128,9340,1,2
320,40,9574,1,0
96,24,9809,5,0
48,208,10043,2,0,B|24:256|48:304,2,100,0|2|0
160,256,10746,2,0,B|216:256|248:304,2,100,0|0|2
120,144,11449,1,0
376,88,11684,6,0,B|328:64|272:88,1,100
376,160,12152,2,0,B|432:160|448:104,1,100,2|0
182,89,12621,6,0,B|230:65|282:86,1,100
150,25,13090,2,0,B|94:60|120:133,1,100,2|0
256,280,13559,5,0
352,208,13793,1,0
304,96,14027,1,2
184,88,14262,1,0
80,144,14496,5,0
88,152,14730,5,0
80,160,14965,5,0
72,152,15199,5,4
152,240,15434,6,0,B|224:312,1,100,4|2
312,232,15902,2,0,B|384:304,1,100,0|2
368,112,16371,2,0,B|288:32,1,100,4|2
208,120,16840,2,0,B|128:40,1,100,0|2
40,120,17309,5,4
96,224,17543,1,0
200,168,17777,1,8
96,224,18012,1,0
208,256,18246,1,0
288,168,18480,1,0
376,248,18715,1,8
288,168,18949,1,0
392,104,19184,5,0
272,96,19418,1,0
168,152,19652,1,8
264,72,19887,1,0
336,280,20121,6,0,B|392:280|448:240,1,100,0|8
312,232,20590,2,0,B|256:232|224:192,1,100,0|8
336,184,21059,6,0,B|392:184|432:136,1,100
336,56,21527,1,8
216,56,21762,2,0,B|216:112|272:144,1,100
272,256,22230,1,0
144,272,22465,2,0,B|93:279|53:239,1,100,8|0
256,304,22934,5,0
352,224,23168,1,8
256,152,23402,1,0
256,152,23519,1,0
256,152,23637,1,8
160,224,23871,1,0
192,112,24105,1,8
80,64,24340,1,0
72,64,24457,1,0
64,64,24574,1,8
56,64,24691,1,0
48,64,24809,5,4
104,168,25043,1,0
224,160,25277,2,0,B|288:144|296:72,2,100,8|0|0
336,200,25980,2,0,B|280:216|264:288,2,100,0|8|0
408,280,26684,5,0
416,288,26918,5,0
424,280,27152,5,8
416,272,27387,5,0
384,160,27621,5,0
288,88,27855,1,8
80,152,28090,5,0
176,88,28324,1,8
120,248,28559,5,0
16,192,28793,1,0
168,304,29027,2,0,B|208:264|184:200,1,100,8|0
248,128,29496,1,0
360,176,29730,1,0
184,88,29965,2,0,B|160:144|200:184,1,100,8|0
352,296,30434,2,0,B|352:352,2,50,0|0|8
336,128,30902,5,0
336,128,31019,2,0,B|304:64|208:64,1,150
120,104,31605,1,0
120,104,31723,1,8
120,104,31840,1,8
200,160,32074,1,8
280,104,32309,6,0,B|336:120|352:184,1,100,4|0
376,288,32777,1,0
256,304,33012,2,0,B|192:304|168:240,2,100
376,304,33715,2,0,B|432:296|456:240,1,100
416,128,34184,5,0
320,200,34418,1,2
200,32,34652,5,0
104,96,34887,1,2
104,96,35121,5,0
200,32,35355,1,2
320,200,35590,5,0
416,128,35824,1,2
304,312,36059,6,0,B|248:320|200:264,1,100
152,176,36527,1,0
248,104,36762,1,0
208,216,36996,1,0
88,200,37230,2,0,B|64:160|0:152,2,100
152,304,37934,6,0,B|40:304,1,100,0|2
264,240,38402,2,0,B|368:240,1,100,0|2
152,152,38871,2,0,B|48:152,1,100,0|2
264,64,39340,2,0,B|376:64,1,100,0|2
432,176,39809,5,0
384,288,40043,1,0
368,168,40277,1,0
448,256,40512,2,0,B|464:312|416:360,1,100
328,272,40980,1,0
208,264,41215,2,0,B|144:248|96:288,1,100
328,96,41684,6,0,B|440:72,1,100,0|2
264,176,42152,2,0,B|200:88,1,100,0|2
376,200,42621,2,0,B|312:296,1,100,0|2
304,104,43090,2,2,B|416:136,1,100,0|2
472,232,43559,5,4
408,328,43793,1,0
288,344,44027,1,0
168,312,44262,1,0
392,256,44496,5,4
272,280,44730,1,0
160,240,44965,1,0
88,144,45199,1,0
288,216,45434,5,4
176,176,45668,1,0
64,224,45902,1,4
24,336,46137,1,0
160,240,46371,5,4
288,216,46605,1,4
384,152,46840,1,4
440,48,47074,1,4
216,56,47309,6,0,B|248:104|224:168,1,100
112,128,47777,2,0,B|56:144,4,50
296,272,48480,1,0
296,272,48715,2,0,B|368:272,4,50
168,128,49418,5,0
168,128,49652,2,0,B|136:168,4,50
280,328,50355,1,0
280,328,50590,2,0,B|224:312,4,50
56,240,51293,5,0
56,240,51527,2,0,B|112:264,4,50
184,48,52230,1,0
184,48,52465,2,0,B|128:64,4,50
88,256,53168,5,0
88,256,53402,2,0,B|144:288,4,50
320,184,54105,1,0
320,184,54340,2,0,B|264:160,4,50,0|0|0|0|4
104,56,55043,5,0
184,144,55277,2,0,B|224:184,1,50
336,40,55746,1,0
416,128,55980,1,0
344,224,56215,2,0,B|312:264,1,50
488,312,56684,5,0
432,208,56918,1,0
352,296,57152,2,0,B|312:336,1,50
192,200,57621,1,0
152,312,57855,1,0
104,200,58090,2,0,B|88:152,1,50
256,112,58559,5,4
256,288,59496,6,0,B|256:128,2,150,4|4|4
136,264,60434,6,0,B|24:264,1,100,4|0
248,264,60902,2,0,B|352:264,1,100
280,168,61371,2,0,B|176:168,1,100
400,168,61840,2,0,B|528:168,1,100,0|0
336,80,62309,1,4
360,336,69809,5,4
256,128,71684,1,2
208,192,73559,1,0
304,192,74496,1,2
256,96,75434,5,0
152,160,75668,1,0
264,208,75902,1,2
256,96,76137,1,2
208,280,76371,5,0
104,224,76605,1,0
304,280,76840,5,2
408,224,77074,1,2
416,48,77309,6,0,B|336:64|320:152,1,150
144,104,78012,2,0,B|232:128|288:40,1,150
224,232,78715,6,0,B|272:264|288:320,1,100
312,192,79184,5,0
272,80,79418,1,0
384,120,79652,1,8
408,240,79887,1,0
304,328,80121,2,0,B|288:272|232:256,2,100,0|0|8
344,216,80824,5,0
280,112,81059,1,0
416,320,81293,5,0
472,216,81527,1,8
368,272,81762,5,0
176,192,81996,2,0,B|128:200|72:192,1,100,0|8
240,120,82465,2,0,B|288:112|352:120,1,100,0|8
208,288,82934,6,0,B|152:264|152:200,1,100
360,104,83402,1,8
344,224,83637,1,0
232,40,83871,2,0,B|208:96|144:104,1,100
232,280,84340,1,8
136,200,84574,1,0
112,320,84809,6,0,B|104:272|32:256,1,100,0|8
96,152,85277,1,0
96,152,85394,1,0
96,152,85512,1,8
208,104,85746,1,0
328,88,85980,1,8
232,224,86215,1,0
240,232,86332,1,0
248,240,86449,1,8
256,248,86566,1,0
264,256,86684,5,0
176,176,86918,1,0
352,48,87152,2,0,B|408:64|416:128,1,100,8|0
240,64,87621,1,0
312,160,87855,1,0
280,296,88090,1,8
224,192,88324,1,0
376,72,88559,5,0
264,112,88793,1,0
488,32,89027,5,8
432,136,89262,1,0
360,232,89496,2,0,B|312:272|320:336,1,100,0|8
232,232,89965,1,0
192,344,90199,1,8
168,32,90434,6,0,B|88:96,1,100
88,216,90902,1,8
176,136,91137,1,0
368,200,91371,6,0,B|448:136,1,100
456,16,91840,1,8
360,88,92074,1,0
496,328,92309,6,0,B|408:408|312:344,1,200,0|8
272,232,93012,2,0,B|224:232|184:288,1,100
128,296,93363,2,0,B|128:368,2,50
128,176,93832,2,0,B|128:112,1,50,0|0
272,40,94184,6,0,B|216:40|184:104,1,100,0|2
304,120,94652,2,0,B|368:120|392:184,2,100
208,48,95355,2,0,B|144:152|272:232,1,200,2|0
368,192,96059,1,0
368,192,96176,1,0
368,192,96293,1,2
344,112,96527,6,0,B|304:64|232:80,1,100,0|0
368,40,96996,1,0
384,48,97113,1,0
400,64,97230,1,2
408,80,97348,1,0
416,96,97465,2,0,B|432:152|376:200,1,100
304,104,97934,6,0,B|240:104|232:200,1,100,0|2
152,88,98402,1,0
152,88,98519,1,0
152,88,98637,2,0,B|176:208|88:272,1,200,0|2
216,280,99340,5,0
216,280,99457,1,0
216,280,99574,2,0,B|264:248|256:168,1,100
256,16,100160,2,0,B|344:16|376:88,1,150
344,208,100746,1,0
344,208,100980,1,0
256,216,101684,6,0,B|256:336,2,100
256,96,102387,1,0
128,296,102855,1,0
32,80,103324,1,0
64,192,103559,5,0
136,96,103793,1,2
320,192,104027,5,0
240,96,104262,1,2
128,296,104496,5,0
248,296,104730,1,2
192,80,104965,5,0
288,152,105199,1,2
408,176,105434,6,0,B|352:176|328:240,2,100
392,296,106137,1,0
392,296,106605,2,0,B|448:288|456:216,2,100,0|0|0
264,296,107309,6,0,B|216:192,1,100,0|2
264,112,107777,2,0,B|312:208,1,100,0|2
104,104,108246,6,0,B|160:8,1,100,0|2
192,136,108715,2,0,B|144:224,1,100,0|2
256,192,109184,12,0,111059
