osu file format v9

[General]
AudioFilename: 26 - EMPRESS OST - Ryu - Mind Mapping.mp3
AudioLeadIn: 2000
PreviewTime: 17321
Countdown: 0
SampleSet: Normal
StackLeniency: 0.7
Mode: 0
LetterboxInBreaks: 1

[Editor]
Bookmarks: 47309,62309,66059,79184,109184
DistanceSpacing: 1
BeatDivisor: 4
GridSize: 4

[Metadata]
Title:Mind Mapping
Artist:Ryu*
Creator:S h i a
Version:Extra
Source:Beatmania IIDX 16 EMPRESS
Tags:iidx16 empress Alace Gens electro-tech

[Difficulty]
HPDrainRate:8
CircleSize:4
OverallDifficulty:8
ApproachRate:9
SliderMultiplier:2.4
SliderTickRate:1

[Events]
//Background and Video events
0,0,"bganother.jpg"
//Break Periods
2,63246,65459
2,70009,76709
//Storyboard Layer 0 (Background)
//Storyboard Layer 1 (Fail)
//Storyboard Layer 2 (Pass)
//Storyboard Layer 3 (Foreground)
//Storyboard Sound Samples
//Background Colour Transformations
3,100,163,162,255

[TimingPoints]
434,468.75,4,2,0,60,1,0
434,-133.333333333333,4,2,0,60,0,0
15434,-100,4,1,1,60,0,0
16781,-100,4,1,1,60,0,0
16898,-100,4,1,1,30,0,0
17016,-100,4,1,1,60,0,0
17133,-100,4,1,1,30,0,0
17250,-100,4,1,1,80,0,0
47309,-100,4,1,1,70,0,0
47953,-100,4,1,1,50,0,0
48070,-100,4,1,1,70,0,0

[Colours]
Combo1 : 255,207,136
Combo2 : 181,253,128
Combo3 : 130,148,253
Combo4 : 252,122,122

[HitObjects]
88,128,47309,5,0
200,172,47426,1,0
208,52,47543,1,8
196,292,47777,5,0
304,244,47894,1,0
408,308,48012,1,8
300,364,48129,1,0
304,244,48246,1,0
408,308,48363,6,0,B|464:332,1,60,0|8
420,220,48598,2,0,B|360:196,1,60,0|0
248,220,48832,2,0,B|304:244,1,60,0|8
272,128,49066,2,0,B|216:104,1,60,0|0
100,76,49301,5,0
44,180,49418,2,0,B|68:272|68:272|100:228,1,120,8|0
168,168,49769,1,0
276,224,49887,1,8
268,344,50004,1,0
148,352,50121,6,0,B|76:336,1,60,0|0
204,308,50355,1,8
152,256,50473,2,0,B|88:240,1,60
212,224,50707,1,0
168,168,50824,2,0,B|104:152,1,60,8|0
312,56,51059,2,0,B|300:132|232:152,1,120,0|8
328,168,51410,1,0
416,200,51527,6,0,B|476:220,1,60
444,128,51761,2,0,B|384:108,1,60,8|0
312,240,51996,2,0,B|368:260,1,60
328,168,52230,2,0,B|268:148,1,60,8|0
168,88,52465,1,0
168,88,52582,5,0
120,200,52699,1,8
120,200,52816,1,0
232,240,52934,1,0
232,240,53051,1,0
292,136,53168,1,8
292,136,53285,1,0
392,204,53402,2,0,B|452:240,1,60,0|0
280,268,53637,2,0,B|268:336,1,60,8|0
140,244,53871,6,0,B|84:288,1,60
96,88,54105,2,0,B|28:80,1,60,8|0
200,128,54340,2,0,B|168:152,7,30,0|0|0|0|8|8|8|8
200,128,54809,6,0,B|328:128,2,120,4|8|0
140,248,55394,1,0
268,312,55512,1,8
360,208,55629,1,0
476,312,55746,6,0,B|412:348,1,60
476,184,55980,5,8
360,208,56098,2,0,B|320:144,1,60
476,184,56332,5,0
440,68,56449,2,0,B|512:32,1,60,8|0
320,60,56684,2,0,B|188:60,1,120,0|8
56,152,57035,1,0
152,296,57152,5,0
176,176,57269,1,0
296,200,57387,1,8
272,320,57504,1,0
164,236,57621,5,0
236,188,57738,1,0
284,260,57855,1,8
212,312,57973,1,0
224,248,58090,5,0
224,248,58148,1,0
224,248,58207,1,0
224,248,58266,1,0
224,248,58324,1,8
224,248,58383,1,8
224,248,58441,1,8
224,248,58500,1,8
224,248,58559,1,4
112,184,59496,5,0
256,88,59848,1,0
404,188,60199,1,8
256,192,60434,1,4
256,192,60492,12,4,62309
424,288,66059,5,0
372,56,66527,1,0
136,100,66996,1,0
208,328,67465,1,0
404,188,67934,5,0
296,136,68168,1,0
240,240,68402,1,0
352,288,68637,1,0
404,188,68871,5,8
392,128,68988,1,8
352,84,69105,1,8
296,60,69223,1,8
236,60,69340,1,0
180,84,69457,1,0
148,132,69574,1,0
132,188,69691,1,0
136,248,69809,5,0
312,140,77309,6,0,B|260:224|132:184,3,180
320,260,78715,1,8
260,272,78832,1,0
200,272,78949,1,0
140,268,79066,1,0
84,248,79184,5,4
