osu file format v9

[General]
AudioFilename: 26 - EMPRESS OST - Ryu - Mind Mapping.mp3
AudioLeadIn: 2000
PreviewTime: 17321
Countdown: 0
SampleSet: Soft
StackLeniency: 0.7
Mode: 0
LetterboxInBreaks: 1

[Editor]
Bookmarks: 17321,24821
DistanceSpacing: 0.8
BeatDivisor: 4
GridSize: 8

[Metadata]
Title:Mind Mapping
Artist:Ryu*
Creator:S h i a
Version:Another
Source:Beatmania IIDX 16 EMPRESS
Tags:iidx16 empress Alace Gens electro-tech

[Difficulty]
HPDrainRate:7
CircleSize:5
OverallDifficulty:7
ApproachRate:7
SliderMultiplier:1.6
SliderTickRate:1

[Events]
//Background and Video events
0,0,"bganother.jpg"
//Break Periods
//Storyboard Layer 0 (Background)
//Storyboard Layer 1 (Fail)
//Storyboard Layer 2 (Pass)
//Storyboard Layer 3 (Foreground)
//Storyboard Sound Samples
//Background Colour Transformations
3,100,163,162,255

[TimingPoints]
434,468.75,4,2,0,60,1,0
14021,-83.3333333333333,4,2,0,70,0,0
14490,-71.4285714285714,4,2,0,70,0,0
14959,-62.5,4,2,0,70,0,0
17303,-100,4,2,0,85,0,0
45896,-83.3333333333333,4,2,0,70,0,0
46365,-71.4285714285714,4,2,0,70,0,0
46834,-62.5,4,2,0,70,0,0
47303,-83.3333333333333,4,2,0,100,0,0
62303,-100,4,2,0,85,0,0
75896,-83.3333333333333,4,2,0,80,0,0
76365,-71.4285714285714,4,2,0,80,0,0
76834,-62.5,4,2,0,80,0,0
79178,-71.4285714285714,4,2,0,100,0,0
94178,-83.3333333333333,4,2,0,100,0,0
107771,-71.4285714285714,4,2,0,100,0,0
108240,-62.5,4,2,0,100,0,0
108709,-55.5555555555556,4,2,0,100,0,0
109178,-50,4,2,0,100,0,0

[Colours]
Combo1 : 255,207,136
Combo2 : 181,253,128
Combo3 : 130,148,253
Combo4 : 252,122,122

[HitObjects]
66,212,434,1,2
137,207,668,1,0
207,223,902,1,2
272,256,1137,1,0
323,304,1371,1,2
440,72,1840,2,0,B|400:144,1,80,2|2
336,112,2309,1,0
264,108,2543,1,0
195,125,2777,1,2
130,158,3012,1,0
80,207,3246,1,0
336,112,3715,1,2
360,352,4184,5,0
297,320,4418,1,0
244,270,4652,1,2
205,210,4887,1,0
185,141,5121,1,0
456,144,5590,2,0,B|376:144,1,80,2|2
304,144,6059,1,2
32,232,6527,1,2
104,232,6762,2,0,B|184:232,1,80,2|2
464,232,7465,1,2
168,144,7934,6,0,B|208:144|248:128|264:80,1,120,4|2
296,96,8402,2,0,B|288:152|312:184|360:200,1,120,2|2
328,224,8871,2,0,B|288:224|248:240|232:288,1,120,2|2
216,320,9340,2,0,B|144:288,1,80,2|2
142,287,9691,1,2
142,287,9809,1,2
72,304,10043,1,0
24,248,10277,1,2
80,200,10512,1,0
152,216,10746,1,2
256,56,11215,1,2
256,56,11684,5,2
184,40,11918,1,0
128,88,12152,1,2
176,144,12387,1,0
246,127,12621,1,2
360,312,13090,2,0,B|272:368,1,80,2|2
224,296,13559,6,0,B|240:252|287:246,1,80
242,190,14027,2,0,B|190:196|170:246,1,96.0000022888184
117,186,14496,2,0,B|139:127|201:120,1,111.999997329712
151,47,14965,2,0,B|81:55|56:122,1,128
24,192,15434,5,4
256,320,15902,1,4
488,192,16371,1,4
256,64,16840,1,4
256,64,17074,1,4
136,176,17309,6,0,B|160:144|208:136,1,80,4|2
232,208,17777,2,0,B|208:240|160:248,1,80,0|2
96,240,18246,1,0
128,304,18480,1,2
128,304,18598,1,2
128,304,18715,2,0,B|176:320|192:352,1,80,0|2
264,304,19184,5,0
352,264,19418,1,2
264,304,19652,1,0
352,264,19887,1,2
408,184,20121,2,0,B|368:160|320:184,1,80,0|2
400,336,20590,2,0,B|440:360|488:336,1,80,0|2
328,360,21059,6,0,B|248:368,1,80,0|2
200,312,21527,2,0,B|280:304,1,80,0|2
328,248,21996,1,0
264,216,22230,1,2
264,216,22348,1,2
264,216,22465,2,0,B|224:184|224:144,1,80,0|2
152,168,22934,5,0
80,192,23168,1,2
176,304,23637,1,2
248,280,23871,1,0
320,256,24105,1,2
392,232,24340,1,0
464,208,24574,1,2
416,136,24809,6,0,B|384:104|344:112,1,80,4|2
240,144,25277,2,0,B|272:176|312:168,1,80,0|2
184,96,25746,1,0
120,56,25980,1,2
120,56,26098,1,2
120,56,26215,2,0,B|88:24|40:32,1,80,0|2
40,136,26684,5,4
80,224,26918,1,2
168,272,27152,1,0
128,184,27387,1,2
168,96,27621,2,0,B|256:144,1,80,0|2
344,288,28090,2,0,B|256:240,1,80,0|2
408,320,28559,6,0,B|440:240,1,80,4|2
416,128,29027,2,0,B|384:208,1,80,0|2
360,80,29496,1,4
296,48,29730,1,2
296,48,29848,1,2
296,48,29965,2,0,B|264:24|216:32,1,80,0|2
152,48,30434,5,4
56,320,30902,1,4
336,248,31371,1,4
248,232,31605,1,4
168,192,31840,1,4
96,136,32074,1,4
176,80,32309,6,0,B|256:80,1,80,4|2
304,144,32777,2,0,B|224:144,1,80,0|2
224,144,33480,1,2
176,216,33715,1,0
128,144,33949,1,2
128,144,34418,1,2
165,260,34652,1,0
259,181,34887,1,2
259,181,35355,1,2
187,336,35590,1,0
73,216,35824,1,2
312,240,36293,5,2
384,208,36527,1,0
456,176,36762,1,2
344,296,37230,1,2
272,328,37465,1,0
200,360,37699,1,2
88,304,37934,6,0,B|136:312|168:272,1,80,0|2
88,168,38402,2,0,B|40:160|8:200,1,80,0|2
184,192,38871,2,0,B|232:200|264:160,1,80,0|2
184,56,39340,2,0,B|136:48|104:88,1,80,0|2
272,80,39809,6,0,B|352:96,1,80,0|2
456,176,40277,2,0,B|376:160,1,80,0|2
377,160,40980,1,2
352,232,41215,1,0
328,304,41449,1,2
328,304,41918,1,2
389,217,42152,1,0
452,132,42387,1,2
452,132,42855,1,2
345,219,43090,1,0
238,306,43324,1,2
160,248,43559,6,0,B|136:216|152:168,1,80,0|2
352,136,44027,2,0,B|376:168|360:216,1,80,0|2
361,212,44730,1,2
256,128,44965,1,0
150,212,45199,1,2
208,288,45434,6,0,B|232:328|272:328,1,80
404,340,45902,2,0,B|355:339|326:291,1,96.0000022888184
212,176,46371,2,0,B|246:232|302:232,1,111.999997329712
448,240,46840,2,0,B|384:240|344:174,1,128
376,96,47309,5,4
304,64,47543,2,0,B|264:40|208:40|168:72,1,144.000003433228,2|2
136,96,48012,1,0
96,112,48129,1,0
56,112,48246,1,0
88,184,48480,2,0,B|128:208|184:208|224:176,1,144.000003433228,2|2
256,152,48949,1,0
296,136,49066,1,2
336,136,49184,5,0
376,200,49418,2,0,B|329:200|281:228|263:276,1,144.000003433228,0|2
248,313,49887,1,0
222,348,50004,1,0
188,368,50121,1,0
136,312,50355,2,0,B|148:266|132:213|90:183,1,144.000003433228,2|2
59,159,50824,1,0
32,124,50941,1,2
22,86,51059,5,0
96,88,51293,2,0,B|112:144|168:168|216:128,1,144.000003433228,2|2
240,120,51762,1,0
280,128,51879,1,2
312,112,51996,1,0
368,168,52230,2,0,B|352:224|296:248|248:208,1,144.000003433228,2|2
224,200,52699,1,0
184,208,52816,1,2
152,192,52934,5,0
88,240,53168,2,0,B|152:288|176:352,1,144.000003433228,2|2
216,336,53637,1,0
256,320,53754,1,2
288,304,53871,1,0
328,240,54105,2,0,B|264:192|240:128,1,144.000003433228,0|2
200,144,54574,1,0
160,160,54691,1,2
128,176,54809,5,4
72,120,55043,2,0,B|128:64|200:64,1,144.000003433228,2|2
240,64,55512,1,0
280,80,55629,1,2
312,144,55863,1,0
336,176,55980,1,2
368,200,56098,1,0
432,248,56332,1,2
432,288,56449,1,0
416,320,56566,1,2
392,344,56684,5,0
304,336,56918,2,0,B|288:272|208:216,1,144.000003433228,2|2
184,208,57387,1,0
144,216,57504,1,2
80,168,57738,1,0
120,152,57855,1,2
152,128,57973,1,0
208,72,58207,1,2
240,96,58324,1,0
272,120,58441,1,2
312,136,58559,5,4
368,192,58793,2,0,B|296:208|240:272,1,144.000003433228,2|2
216,288,59262,1,0
176,296,59379,1,2
136,288,59496,5,4
8,216,59848,1,4
136,152,60199,1,4
88,224,60434,5,4
176,216,60668,2,0,B|248:200|320:240,1,144.000003433228,2|2
344,264,61137,1,0
368,296,61254,1,2
440,280,61488,1,0
448,240,61605,1,2
472,208,61723,1,0
416,160,61957,1,2
384,136,62074,1,2
360,104,62191,1,2
352,64,62309,5,4
272,80,62543,1,0
192,96,62777,1,0
112,112,63012,1,0
168,168,63246,5,0
232,152,63480,1,0
256,216,63715,1,0
192,232,63949,1,0
256,288,64184,5,0
358,240,64418,1,0
344,128,64652,1,0
233,106,64887,1,0
179,205,65121,1,0
480,208,65590,1,0
160,320,66059,5,0
240,304,66293,1,0
320,288,66527,1,0
400,272,66762,1,0
344,216,66996,5,0
280,232,67230,1,0
256,168,67465,1,0
320,152,67699,1,0
392,88,67934,5,0
392,88,68168,1,0
120,88,68637,1,0
120,88,68871,1,0
256,344,69340,1,2
256,336,69457,1,2
256,328,69574,1,2
256,320,69691,1,2
256,312,69809,5,4
328,296,70043,1,0
376,240,70277,1,2
448,224,70512,1,0
496,168,70746,1,2
336,64,71215,2,0,B|264:104,1,80,2|2
192,40,71684,5,2
134,85,71918,1,0
115,157,72152,1,2
58,203,72387,1,0
39,274,72621,1,2
256,360,73090,1,2
360,48,73559,5,2
408,103,73793,1,0
413,177,74027,1,2
460,233,74262,1,0
465,306,74496,1,2
176,352,74965,2,0,B|264:336,1,80,2|2
184,280,75434,6,0,B|136:280|104:232,1,80
8,224,75902,2,0,B|56:216|96:168,1,96.0000022888184
192,192,76371,2,0,B|152:160|128:96,1,111.999997329712
0,112,76840,2,0,B|64:88|104:32,1,128
184,88,77309,5,4
332,110,77660,1,4
355,259,78012,1,4
221,327,78363,1,4
115,221,78715,1,4
115,221,78949,1,4
48,152,79184,6,0,B|112:144|144:96,1,111.999997329712,4|2
176,184,79652,2,0,B|222:139|218:81,1,111.999997329712,0|2
296,64,80121,1,0
376,80,80355,1,2
376,80,80473,1,2
376,80,80590,2,0,B|432:104|480:144,1,111.999997329712,0|2
376,248,81059,5,0
256,272,81293,1,2
344,192,81527,1,0
464,168,81762,1,2
432,288,81996,2,0,B|352:368,1,111.999997329712,0|2
288,136,82465,2,0,B|368:56,1,111.999997329712,0|2
216,136,82934,6,0,B|168:88|112:120,1,111.999997329712,0|2
184,208,83402,2,0,B|232:256|288:224,1,111.999997329712,0|2
216,136,83871,1,0
272,80,84105,1,2
272,80,84223,1,2
272,80,84340,2,0,B|384:80,1,111.999997329712,0|2
432,176,84809,5,0
400,248,85043,1,2
400,248,85160,1,2
400,248,85277,1,0
352,184,85512,1,2
320,256,85746,2,0,B|264:272|232:336,1,111.999997329712,0|2
120,320,86215,2,0,B|176:304|208:240,1,111.999997329712,0|2
224,96,86684,5,4
304,48,86918,1,2
392,56,87152,1,0
464,104,87387,1,2
504,184,87621,1,0
480,272,87855,1,2
480,272,87973,1,2
480,272,88090,2,0,B|432:232|368:248,1,111.999997329712,0|2
288,352,88559,5,4
184,288,88793,1,2
288,352,89027,1,0
184,288,89262,1,2
80,224,89496,2,0,B|136:216|184:160,1,111.999997329712,0|2
312,56,89965,2,0,B|256:64|208:120,1,111.999997329712,0|2
304,128,90434,5,4
360,184,90668,1,2
432,208,90902,1,0
384,272,91137,1,2
312,312,91371,1,4
232,328,91605,1,2
232,328,91723,1,2
232,328,91840,2,0,B|120:328,1,111.999997329712,0|2
32,256,92309,5,4
160,32,92777,1,4
352,208,93246,1,4
256,192,93480,1,4
160,168,93715,1,4
72,128,93949,1,4
72,240,94184,6,2,B|160:280,1,96.0000022888184,4|2
288,376,94652,2,0,B|200:336,1,96.0000022888184,0|2
376,40,95355,1,2
344,112,95590,1,0
312,184,95824,1,2
103,69,96293,1,2
171,130,96527,1,0
240,192,96762,1,2
61,334,97230,1,2
174,291,97465,1,0
288,248,97699,1,2
376,64,98168,5,2
304,88,98402,1,0
360,136,98637,1,2
136,320,99105,1,2
208,296,99340,1,0
152,248,99574,1,2
88,192,99809,5,4
256,72,100160,1,4
424,192,100512,1,4
392,264,100746,1,4
320,240,100980,1,4
352,168,101215,1,2
352,168,101332,1,2
352,168,101449,1,2
352,168,101566,1,2
352,168,101684,6,0,B|256:136,1,96.0000022888184,4|2
112,144,102152,2,0,B|208:176,1,96.0000022888184,0|2
203,174,102504,1,0
272,216,102738,1,0
272,216,102855,1,2
216,272,103090,1,0
280,320,103324,1,2
416,80,103793,1,2
344,112,104027,1,0
264,120,104262,1,2
264,120,104379,1,0
192,96,104613,1,0
192,96,104730,1,2
192,96,104848,1,0
192,96,104965,2,0,B|104:56,1,96.0000022888184,0|2
32,144,105434,6,0,B|88:160|112:208,1,96.0000022888184,0|2
240,192,105902,2,0,B|184:208|160:256,1,96.0000022888184,0|2
456,360,106605,1,2
384,328,106840,1,0
328,272,107074,1,2
496,232,107309,6,0,B|400:232,1,96.0000022888184
480,168,107777,2,0,B|368:168,1,111.999997329712
464,104,108246,2,0,B|336:104,1,128
448,40,108715,2,0,B|304:40,1,143.999993133545
176,40,109184,1,4
