osu file format v9

[General]
AudioFilename: 15 - Im so Happy.mp3
AudioLeadIn: 3000
PreviewTime: -1
Countdown: 1
SampleSet: Normal
StackLeniency: 0.7
Mode: 0
LetterboxInBreaks: 1

[Editor]
DistanceSpacing: 0.8
BeatDivisor: 4
GridSize: 4

[Metadata]
Title:Im so Happy
Artist:Ryu
Creator:OSU_badboat_CN
Version:EXTRA
Source:jubeat
Tags:

[Difficulty]
HPDrainRate:9
CircleSize:4
OverallDifficulty:9
ApproachRate:8
SliderMultiplier:2.00000000596046
SliderTickRate:2

[Events]
//Background and Video events
0,0,"mtp-ish.jpg"
//Break Periods
2,13542,14250
2,36415,36791
2,58874,60327
2,69233,70769
//Storyboard Layer 0 (Background)
//Storyboard Layer 1 (Fail)
//Storyboard Layer 2 (Pass)
//Storyboard Layer 3 (Foreground)
//Storyboard Sound Samples
//Background Colour Transformations
3,100,163,162,255

[TimingPoints]
0,331.491712707182,4,1,0,100,1,0
63977,-100,4,1,0,15,0,0
65386,-100,4,1,0,50,0,0
66629,-100,4,1,0,75,0,0
68038,-100,4,2,0,100,0,0
68370,-100,4,2,0,50,0,0
68701,-100,4,2,0,80,0,0
69033,-100,4,2,0,100,0,0
69198,-100,4,1,0,25,0,0
71519,-100,4,2,0,100,0,0
74668,-80,4,2,0,100,0,0
76823,-66.6666666666667,4,2,0,100,0,0
79806,-57.1428571428571,4,2,0,100,0,0
82292,-50,4,1,0,100,0,1
87845,-100,4,1,0,100,0,0
93066,-100,4,1,0,50,0,0

[HitObjects]
104,20,414,2,0,B|208:52,1,100.000000298023
208,128,745,1,8
312,120,1077,5,0
335,106,1160,1,0
334,129,1243,2,0,B|392:220,1,100.000000298023,0|8
324,308,1740,6,0,B|292:260,2,50.0000001490115
184,288,2071,6,0,B|140:232,8,50.0000001490115,0|0|0|0|0|0|0|0|8
64,44,3066,5,0
64,136,3232,1,0
152,104,3397,1,8
152,204,3563,1,0
244,164,3729,1,0
236,260,3895,1,0
256,272,3977,5,0
344,328,4143,2,0,B|400:324,1,50.0000001490115
460,256,4392,2,0,B|460:200,1,50.0000001490115
460,112,4640,1,0
332,120,4806,2,0,B|288:88,1,50.0000001490115
188,96,5055,2,0,B|140:116,4,50.0000001490115
68,48,5717,5,0
128,104,5883,1,0
64,152,6048,1,8
124,200,6214,1,0
60,252,6380,1,0
120,308,6546,1,0
188,256,6712,1,8
216,280,6795,1,0
240,300,6878,1,0
324,360,7044,5,0
344,360,7127,1,0
324,360,7210,1,0
416,308,7375,1,8
416,220,7541,1,0
420,140,7707,1,0
392,140,7790,1,0
364,140,7872,1,0
336,140,7955,1,0
308,140,8038,1,8
280,140,8121,1,0
252,140,8204,1,0
172,148,8370,5,0
276,116,8535,1,0
384,72,8701,2,0,B|296:24,1,100.000000298023,8|0
216,32,9033,5,0
256,156,9198,1,0
176,120,9364,2,0,B|92:56,1,100.000000298023,8|0
20,52,9696,6,0,B|-20:148,1,100.000000298023
96,140,10027,2,0,B|184:196,1,100.000000298023,8|0
32,236,10359,2,0,B|-8:332,2,100.000000298023,0|0|8
152,288,11022,5,0
176,272,11104,1,0
204,272,11187,1,0
232,284,11270,1,0
256,308,11353,1,8
272,328,11436,5,0
288,344,11519,1,0
312,344,11602,1,0
332,336,11685,1,0
348,316,11767,1,0
352,292,11850,5,0
344,268,11933,1,0
360,244,12016,1,8
376,220,12099,1,0
392,200,12182,1,0
388,176,12265,5,0
380,156,12348,1,0
368,136,12430,1,0
352,120,12513,1,0
328,116,12596,1,0
308,128,12679,5,8
284,116,12762,1,0
260,108,12845,1,0
236,112,12928,1,0
216,128,13011,1,8
192,144,13093,5,0
172,152,13176,1,0
148,152,13259,1,0
132,140,13342,1,8
76,68,15000,6,0,B|116:172,1,100.000000298023
260,176,15331,2,0,B|300:268,1,100.000000298023
456,196,15662,2,0,B|408:96,1,100.000000298023
272,152,15994,2,0,B|360:80,1,100.000000298023
436,40,16325,1,0
432,320,16657,1,0
204,284,16988,1,0
264,132,17154,1,0
136,44,17320,1,0
48,64,17651,6,0,B|48:104,2,25.0000000745058
92,80,17776,2,0,B|92:116,2,25.0000000745058
128,96,17900,2,0,B|128:120,3,25.0000000745058
172,112,18066,2,0,B|172:148,2,25.0000000745058
244,48,18314,2,0,B|312:160,1,125.000000372529
316,160,18687,2,0,B|368:268,2,100.000000298023
280,232,19184,2,0,B|180:316,1,100.000000298023
176,312,19516,2,0,B|68:252,2,100.000000298023
36,196,20303,6,0,B|72:144|136:156,1,100.000000298023
208,268,20635,2,0,B|264:272|308:224,1,100.000000298023
228,76,20966,2,0,B|292:72|324:132,1,100.000000298023
412,208,21298,2,0,B|460:168|452:112,1,100.000000298023
304,72,21629,2,0,B|272:128|200:88,1,100.000000298023
300,236,21961,2,0,B|284:304|364:324,1,100.000000298023
400,128,22292,2,0,B|372:76|436:36,3,100.000000298023
256,96,22955,6,0,B|300:100,5,25.0000000745058
256,100,23286,2,0,B|216:100,5,25.0000000745058
256,100,23617,2,0,B|256:60,5,25.0000000745058
256,100,23949,2,0,B|256:132,5,25.0000000745058
256,100,24280,2,0,B|352:176,3,100.000000298023,0|8|0|8
248,280,24944,2,0,B|164:352,2,100.000000298023,0|0|8
424,148,25607,5,8
424,188,25773,1,0
424,228,25939,1,0
256,112,26270,5,8
128,192,26436,1,0
256,272,26602,1,0
408,192,26933,5,12
260,48,27099,1,0
256,336,27265,1,8
56,80,28259,5,0
256,24,28425,1,0
440,88,28591,1,2
156,219,28922,5,0
256,340,29088,1,0
347,223,29254,1,2
256,120,29585,5,0
256,292,29751,1,0
256,120,29917,1,4
472,24,30911,5,2
456,44,30994,1,0
448,72,31077,1,0
432,96,31160,1,0
420,116,31243,5,0
404,140,31325,1,0
388,164,31408,1,0
396,192,31491,1,0
404,220,31574,5,2
396,248,31657,1,0
380,272,31740,1,0
360,292,31823,1,0
328,296,31906,5,0
308,280,31988,1,0
288,264,32071,1,0
264,248,32154,1,0
236,232,32237,6,0,B|132:248,1,100.000000298023,2|0
100,168,32569,2,0,B|152:72,1,100.000000298023
244,32,32900,5,2
400,180,33066,1,2
220,204,33232,1,2
456,96,33563,6,0,B|400:96,1,50.0000001490115
408,96,33729,2,0,B|352:96,1,50.0000001490115
360,96,33895,2,0,B|308:96,1,50.0000001490115
312,96,34060,2,0,B|260:96,1,50.0000001490115
264,96,34226,6,0,B|204:96,1,50.0000001490115
216,96,34392,2,0,B|164:96,1,50.0000001490115
168,96,34558,2,0,B|112:96,1,50.0000001490115
120,96,34723,2,0,B|68:96,1,50.0000001490115
72,96,34889,6,0,B|72:160,1,50.0000001490115
72,144,35055,2,0,B|72:200,1,50.0000001490115
72,192,35220,2,0,B|72:244,1,50.0000001490115
72,240,35386,2,0,B|72:296,1,50.0000001490115
256,328,35883,1,4
404,248,36215,1,4
80,116,37541,5,4
100,100,37624,1,0
124,84,37707,1,0
188,52,37872,1,0
216,44,37955,1,0
244,44,38038,1,0
356,44,38204,2,0,B|400:88,2,50.0000001490115
260,140,38535,2,0,B|312:180,2,50.0000001490115
432,172,38867,2,0,B|484:208|456:272,1,100.000000298023
332,340,39198,2,0,B|288:376|228:348,1,100.000000298023
248,236,39530,2,0,B|240:180|176:184,1,100.000000298023
52,184,39861,2,0,B|4:140|32:88,1,100.000000298023
136,112,40193,5,4
192,72,40276,1,0
260,64,40359,1,0
324,88,40441,1,0
372,136,40524,1,0
440,280,40856,1,0
256,332,41022,1,0
60,268,41187,1,0
52,48,41519,1,0
256,192,41685,1,0
448,320,41850,1,0
300,216,42182,2,0,B|224:104,3,100.000000298023
184,132,42845,6,0,B|152:80|96:108,1,100.000000298023,4|0
72,248,43176,2,0,B|128:268|160:220,1,100.000000298023
52,120,43508,2,0,B|100:72|140:116,1,100.000000298023
64,192,43839,2,0,B|128:160|152:236,1,100.000000298023
428,204,44171,1,0
232,360,44336,1,0
76,184,44502,1,0
276,44,44668,1,0
360,120,44834,5,0
332,288,45000,1,0
148,272,45165,1,0
176,108,45331,1,0
256,192,45497,6,0,B|256:52,1,100.000000298023,4|0
256,192,45828,2,0,B|368:192,1,100.000000298023
256,192,46160,2,0,B|256:304,1,100.000000298023,4|0
256,192,46491,2,0,B|140:192,1,100.000000298023,4|0
256,92,46823,6,0,B|256:192,1,100.000000298023,0|4
356,192,47154,2,0,B|256:192,1,100.000000298023
256,292,47486,2,0,B|256:192,1,100.000000298023
156,192,47817,2,0,B|256:192,1,100.000000298023,8|8
204,100,48149,6,0,B|256:64|304:108,1,100.000000298023
380,148,48480,2,0,B|416:192|384:244,1,100.000000298023,8|8
300,316,48812,2,0,B|256:356|208:312,1,100.000000298023
148,240,49143,2,0,B|112:192|144:140,1,100.000000298023,8|0
292,100,49475,2,0,B|244:56|192:108,3,100.000000298023,0|0|0|8
36,64,50138,1,8
152,160,50303,1,8
236,36,50469,1,8
340,168,50635,1,8
456,48,50801,6,0,B|400:68|404:140,1,100.000000298023
300,156,51132,2,0,B|344:204|320:256,1,100.000000298023,8|8
448,240,51464,2,0,B|384:256|388:332,1,100.000000298023
288,360,51795,2,0,B|292:296|216:304,1,100.000000298023,8|0
276,180,52127,1,0
184,264,52292,1,0
88,184,52458,1,8
116,56,52624,1,8
252,48,52789,1,8
312,120,52956,1,8
288,232,53121,1,8
180,260,53287,1,0
224,232,53453,5,0
224,232,53535,1,0
224,232,53618,1,0
304,152,53784,1,8
304,152,53867,1,0
304,152,53950,1,8
168,284,54116,1,0
168,284,54198,1,0
168,284,54281,1,0
360,100,54447,1,8
360,100,54530,1,0
360,100,54613,1,0
112,344,54779,1,0
112,344,54861,1,0
112,340,54944,1,0
408,48,55110,1,8
408,48,55193,1,0
408,48,55276,1,8
256,188,55441,1,0
256,188,55524,1,0
256,188,55607,1,0
256,188,55690,1,0
256,188,55773,1,8
204,60,56104,5,0
224,64,56187,1,0
248,72,56270,1,0
272,84,56353,5,0
296,88,56436,1,0
316,92,56519,1,0
340,100,56602,5,0
352,120,56685,1,0
340,104,56767,1,0
368,128,56850,5,0
372,156,56933,1,0
368,180,57016,1,0
356,200,57099,5,0
380,196,57182,1,0
384,180,57265,1,0
384,164,57348,5,0
384,160,57430,1,0
376,140,57513,1,0
364,128,57596,5,0
348,116,57679,1,0
336,104,57762,1,0
320,100,57845,5,0
304,104,57928,1,0
320,100,58011,1,0
336,104,58093,5,0
348,116,58176,1,0
360,124,58259,1,0
360,140,58342,5,0
352,152,58425,1,0
336,160,58508,1,0
316,160,58592,1,0
304,144,58674,1,4
256,24,61077,5,4
24,192,61408,1,2
256,356,61740,1,0
492,192,62072,1,0
384,104,62403,1,4
132,104,62734,1,2
132,280,63065,1,0
384,280,63397,1,0
440,180,64060,6,0,B|384:92,1,100.000000298023,2|0
388,96,64392,2,0,B|296:156,1,100.000000298023
296,152,64723,2,0,B|316:248,1,100.000000298023
304,256,65055,2,0,B|404:200,1,100.000000298023
424,192,65386,6,0,B|424:72,1,100.000000298023,2|0
408,56,65718,2,0,B|292:68,1,100.000000298023
272,64,66049,2,0,B|272:176,1,100.000000298023
272,212,66381,2,0,B|376:264,1,100.000000298023
404,324,66712,6,0,B|488:248,1,100.000000298023,2|0
456,180,67044,2,0,B|388:64,1,100.000000298023
312,16,67375,2,0,B|168:16,1,100.000000298023,2|0
64,32,67707,2,0,B|4:128,1,100.000000298023
24,212,68038,5,6
256,300,68369,1,6
472,208,68702,1,6
256,116,69033,1,6
260,28,71519,6,0,B|172:72,1,100.000000298023,0|0
104,148,71850,2,0,B|168:240,1,100.000000298023,0|8
336,152,72182,2,0,B|272:232,1,100.000000298023,0|0
104,252,72513,2,0,B|160:344,1,100.000000298023,0|8
364,252,72845,2,0,B|304:348,1,100.000000298023
132,344,73176,1,0
108,328,73259,1,0
84,312,73342,1,8
56,240,73508,5,0
56,212,73591,1,0
56,180,73674,1,8
92,119,73839,1,0
92,93,73922,1,0
116,104,74005,1,8
196,88,74171,1,0
224,88,74254,1,0
252,92,74336,1,8
280,100,74419,1,0
304,112,74502,1,0
400,36,74668,6,8,B|300:120,1,124.999998509884,8|0
420,368,75000,2,0,B|296:324,1,124.999998509884
424,124,75331,2,0,B|288:184,1,124.999998509884,8|0
432,276,75662,2,0,B|300:256,1,124.999998509884
124,84,75994,5,8
376,84,76160,1,0
376,304,76325,1,8
124,304,76491,1,0
256,196,76657,1,8
112,332,76823,6,0,B|232:224,2,149.999995976686,0|0|2
404,56,77320,2,0,B|292:156,3,149.999995976686,0|0|0|2
108,56,77983,2,0,B|224:160,3,149.999995976686,0|0|0|2
408,328,78646,2,2,B|288:220,6,149.999995976686,0|0|0|0|0|0|2
84,48,79972,6,0,B|264:48,1,174.999992698431,8|0
436,328,80303,2,0,B|248:328,1,174.999992698431
432,48,80635,2,0,B|252:48,1,174.999992698431,8|0
80,328,80966,2,0,B|260:328,1,174.999992698431
120,288,81298,2,8,B|416:72,2,349.999985396862
220,160,82624,6,0,B|52:16,1,200.000000596046,8|0
292,160,82955,2,0,B|460:16,1,200.000000596046
292,228,83287,2,0,B|440:364,1,200.000000596046,8|0
224,224,83618,2,0,B|64:356,1,200.000000596046
292,228,83950,6,0,B|440:364,1,200.000000596046,8|0
292,160,84281,2,0,B|448:20,1,200.000000596046,8|0
216,152,84613,2,0,B|52:8,1,200.000000596046,8|0
224,224,84944,2,0,B|68:352,1,200.000000596046,8|0
64,20,85276,6,0,B|232:164,1,200.000000596046,8|0
440,360,85607,2,0,B|292:224,1,200.000000596046
64,20,85939,2,0,B|220:152,1,200.000000596046,8|0
440,360,86270,2,0,B|288:220,1,200.000000596046
56,344,86602,6,0,B|220:228,1,200.000000596046,8|0
456,44,86933,2,0,B|288:164,1,200.000000596046,8|0
56,344,87265,2,0,B|228:224,1,200.000000596046,8|0
456,48,87596,2,0,B|272:176,1,200.000000596046,8|0
200,192,87928,5,8
192,192,88011,1,0
184,192,88093,1,0
176,192,88176,1,0
168,192,88259,1,8
160,192,88342,1,0
152,192,88425,1,0
144,192,88508,1,0
136,192,88591,1,8
128,192,88674,1,0
120,192,88756,1,0
112,192,88839,1,0
104,192,88922,1,8
256,148,89254,5,8
256,140,89337,1,0
256,132,89419,1,0
256,124,89502,1,0
256,116,89585,1,8
256,108,89668,1,0
256,100,89751,1,0
256,92,89834,1,0
256,84,89917,1,8
256,76,90000,1,0
256,68,90082,1,0
256,60,90165,1,0
256,52,90248,1,8
320,192,90580,5,8
328,192,90662,1,0
336,192,90745,1,0
344,192,90828,1,0
352,192,90911,1,8
360,192,90994,1,0
368,192,91077,1,0
376,192,91160,1,0
384,192,91243,1,8
392,192,91325,1,0
400,192,91408,1,0
408,192,91491,1,0
416,192,91574,1,8
256,352,91905,5,0
92,156,92070,1,0
336,40,92236,1,0
432,156,92402,1,0
180,36,92568,1,0
256,272,92733,1,0
256,120,92899,1,6
256,192,93066,12,4,95469
