osu file format v12

[General]
AudioFilename: 04. I-O (Extended Mix).mp3
AudioLeadIn: 0
PreviewTime: 44845
Countdown: 1
SampleSet: Normal
StackLeniency: 0.7
Mode: 1
LetterboxInBreaks: 1
WidescreenStoryboard: 1

[Editor]
DistanceSpacing: 1
BeatDivisor: 4
GridSize: 4

[Metadata]
Title:I/O (Extended Mix)
TitleUnicode:I/O (Extended Mix)
Artist:Ryu
ArtistUnicode:Ryu☆
Creator:Sushi
Version:Oni
Source:Dance Dance Revolution
Tags:Sakura Luminance tonight it's party time
BeatmapID:298118
BeatmapSetID:115338

[Difficulty]
HPDrainRate:6
CircleSize:5
OverallDifficulty:7
ApproachRate:5
SliderMultiplier:1.4
SliderTickRate:1

[Events]
//Background and Video events
0,0,"party-party-217839.jpg",0,-100
//Break Periods
//Storyboard Layer 0 (Background)
//Storyboard Layer 1 (Fail)
//Storyboard Layer 2 (Pass)
//Storyboard Layer 3 (Foreground)
//Storyboard Sound Samples
//Background Colour Transformations
3,100,163,162,255

[TimingPoints]
541,397.350993377483,4,1,0,50,1,0
3322,-100,4,1,0,100,0,0
16534,-100,4,1,0,75,0,0
22693,-100,4,1,0,100,0,0
29150,-100,4,1,0,50,0,0
31931,-100,4,1,0,100,0,0
57858,-100,4,1,0,75,0,0
59299,-100,4,1,0,100,0,0
61037,-100,4,1,0,75,0,0
62478,-100,4,1,0,100,0,0
70375,-100,4,1,0,75,0,0
73653,-100,4,1,0,100,0,1
98686,-100,4,1,0,100,0,0
111898,-100,4,1,0,75,0,0
113339,-100,4,1,0,100,0,0
115077,-100,4,1,0,75,0,0
116517,-100,4,1,0,100,0,0
124117,-100,4,1,0,75,0,0
127693,-100,4,1,0,100,0,1
153123,-100,4,1,0,100,0,0

[HitObjects]
256,196,541,1,0,0:0:0:0:
256,196,640,1,0,0:0:0:0:
256,196,839,1,0,0:0:0:0:
256,196,938,1,8,0:0:0:0:
256,196,1137,1,8,0:0:0:0:
256,196,1236,1,0,0:0:0:0:
256,196,1335,1,0,0:0:0:0:
256,196,1435,1,8,0:0:0:0:
256,196,1534,1,0,0:0:0:0:
256,196,1733,1,8,0:0:0:0:
256,196,1931,1,8,0:0:0:0:
256,196,2130,1,0,0:0:0:0:
256,196,2229,1,8,0:0:0:0:
256,196,2329,1,0,0:0:0:0:
256,196,2428,1,0,0:0:0:0:
256,196,2527,1,8,0:0:0:0:
256,196,2627,1,8,0:0:0:0:
256,196,2726,1,8,0:0:0:0:
256,196,2825,1,8,0:0:0:0:
256,196,2925,1,8,0:0:0:0:
256,196,3024,1,8,0:0:0:0:
256,196,3123,1,0,0:0:0:0:
256,196,3223,1,0,0:0:0:0:
256,196,3322,1,12,0:0:0:0:
256,196,3719,1,4,0:0:0:0:
256,196,3918,1,8,0:0:0:0:
256,196,4017,1,0,0:0:0:0:
256,196,4117,1,0,0:0:0:0:
256,196,4315,1,8,0:0:0:0:
256,196,4415,1,0,0:0:0:0:
256,196,4613,1,0,0:0:0:0:
256,196,4713,1,8,0:0:0:0:
256,196,4812,1,0,0:0:0:0:
256,196,4911,1,0,0:0:0:0:
256,196,5110,1,8,0:0:0:0:
256,196,5309,1,0,0:0:0:0:
256,196,5507,1,8,0:0:0:0:
256,196,5607,1,0,0:0:0:0:
256,196,5706,1,0,0:0:0:0:
256,196,5905,1,8,0:0:0:0:
256,196,6004,1,0,0:0:0:0:
256,196,6203,1,0,0:0:0:0:
256,196,6302,1,12,0:0:0:0:
256,196,6501,1,12,0:0:0:0:
256,196,6699,1,0,0:0:0:0:
256,196,6898,1,4,0:0:0:0:
256,196,7097,1,8,0:0:0:0:
256,196,7196,1,0,0:0:0:0:
256,196,7295,1,0,0:0:0:0:
256,196,7494,1,8,0:0:0:0:
256,196,7593,1,0,0:0:0:0:
256,196,7792,1,0,0:0:0:0:
256,196,7891,1,8,0:0:0:0:
256,196,7991,1,0,0:0:0:0:
256,196,8090,1,0,0:0:0:0:
256,196,8289,1,0,0:0:0:0:
256,196,8388,1,0,0:0:0:0:
256,196,8488,1,0,0:0:0:0:
256,196,8686,1,8,0:0:0:0:
256,196,8885,1,8,0:0:0:0:
256,196,9084,1,8,0:0:0:0:
256,196,9183,1,8,0:0:0:0:
256,196,9282,1,8,0:0:0:0:
256,196,9382,1,0,0:0:0:0:
256,196,9481,1,0,0:0:0:0:
256,196,9580,1,8,0:0:0:0:
256,196,9779,1,0,0:0:0:0:
256,196,9878,1,8,0:0:0:0:
256,196,10077,1,4,0:0:0:0:
256,196,10276,1,8,0:0:0:0:
256,196,10375,1,0,0:0:0:0:
256,196,10474,1,0,0:0:0:0:
256,196,10673,1,8,0:0:0:0:
256,196,10772,1,0,0:0:0:0:
256,196,10971,1,0,0:0:0:0:
256,196,11070,1,8,0:0:0:0:
256,196,11170,1,0,0:0:0:0:
256,196,11269,1,0,0:0:0:0:
256,196,11468,1,8,0:0:0:0:
256,196,11666,1,8,0:0:0:0:
256,196,11766,1,8,0:0:0:0:
256,196,11865,1,8,0:0:0:0:
256,196,11964,1,8,0:0:0:0:
256,196,12064,1,4,0:0:0:0:
256,196,12262,1,0,0:0:0:0:
256,196,12362,1,8,0:0:0:0:
256,196,12461,1,0,0:0:0:0:
256,196,12560,1,0,0:0:0:0:
256,196,12660,1,8,0:0:0:0:
256,196,12759,1,0,0:0:0:0:
256,196,12858,1,0,0:0:0:0:
256,196,12925,1,0,0:0:0:0:
256,196,12991,1,0,0:0:0:0:
256,196,13057,1,0,0:0:0:0:
256,196,13123,1,0,0:0:0:0:
256,196,13190,1,0,0:0:0:0:
256,196,13256,1,0,0:0:0:0:
256,196,13454,1,0,0:0:0:0:
256,196,13852,1,0,0:0:0:0:
256,196,14249,1,0,0:0:0:0:
256,196,14448,1,0,0:0:0:0:
256,196,14547,1,0,0:0:0:0:
256,196,14646,1,0,0:0:0:0:
256,196,14746,1,0,0:0:0:0:
256,196,14845,1,0,0:0:0:0:
256,196,14944,1,0,0:0:0:0:
256,196,15044,1,0,0:0:0:0:
256,196,15143,1,0,0:0:0:0:
256,196,15242,1,8,0:0:0:0:
256,196,15342,1,8,0:0:0:0:
256,196,15441,1,0,0:0:0:0:
256,196,15540,1,0,0:0:0:0:
256,196,15640,1,8,0:0:0:0:
256,196,15739,1,0,0:0:0:0:
256,196,15839,1,0,0:0:0:0:
256,196,15938,1,0,0:0:0:0:
256,196,16037,1,8,0:0:0:0:
256,196,16137,1,8,0:0:0:0:
256,196,16236,1,8,0:0:0:0:
256,196,16335,1,8,0:0:0:0:
256,196,16435,1,4,0:0:0:0:
256,196,16633,1,0,0:0:0:0:
256,196,16931,1,8,0:0:0:0:
256,196,17229,1,8,0:0:0:0:
256,196,17428,1,0,0:0:0:0:
256,196,17527,1,8,0:0:0:0:
256,196,17726,1,0,0:0:0:0:
256,196,17825,1,8,0:0:0:0:
256,196,18024,1,0,0:0:0:0:
256,196,18223,1,0,0:0:0:0:
256,196,18521,1,8,0:0:0:0:
256,196,18819,1,8,0:0:0:0:
256,196,19018,1,0,0:0:0:0:
256,196,19117,1,8,0:0:0:0:
256,196,19316,1,0,0:0:0:0:
256,196,19415,1,8,0:0:0:0:
256,196,19613,1,0,0:0:0:0:
256,196,19812,1,0,0:0:0:0:
256,196,20110,1,8,0:0:0:0:
256,196,20408,1,8,0:0:0:0:
256,196,20607,1,0,0:0:0:0:
256,196,20706,1,8,0:0:0:0:
264,224,20905,1,0,0:0:0:0:
264,224,21004,1,8,0:0:0:0:
256,196,21203,1,0,0:0:0:0:
264,224,21401,1,0,0:0:0:0:
256,196,21600,1,0,0:0:0:0:
256,196,21699,1,8,0:0:0:0:
256,196,21898,1,0,0:0:0:0:
256,196,21997,1,8,0:0:0:0:
256,196,22196,1,8,0:0:0:0:
264,224,22395,1,8,0:0:0:0:
264,224,22593,1,8,0:0:0:0:
256,196,22792,1,4,0:0:0:0:
256,196,22991,1,0,0:0:0:0:
256,196,23190,1,0,0:0:0:0:
256,196,23289,1,8,0:0:0:0:
256,196,23388,1,0,0:0:0:0:
256,196,23587,1,0,0:0:0:0:
256,196,23786,1,0,0:0:0:0:
256,196,23885,1,8,0:0:0:0:
256,196,23984,1,0,0:0:0:0:
256,196,24183,1,8,0:0:0:0:
256,196,24382,1,0,0:0:0:0:
256,196,24580,1,0,0:0:0:0:
256,196,24779,1,0,0:0:0:0:
256,196,24878,1,8,0:0:0:0:
256,196,24978,1,0,0:0:0:0:
256,196,25176,1,0,0:0:0:0:
256,196,25375,1,0,0:0:0:0:
256,196,25474,1,8,0:0:0:0:
256,196,25574,1,0,0:0:0:0:
256,196,25772,1,8,0:0:0:0:
256,196,25971,1,4,0:0:0:0:
256,196,26170,1,0,0:0:0:0:
256,196,26368,1,0,0:0:0:0:
256,196,26468,1,8,0:0:0:0:
256,196,26567,1,0,0:0:0:0:
256,196,26766,1,0,0:0:0:0:
256,196,26964,1,0,0:0:0:0:
256,196,27064,1,8,0:0:0:0:
256,196,27163,1,0,0:0:0:0:
256,196,27362,1,0,0:0:0:0:
256,196,27560,1,0,0:0:0:0:
256,196,27660,1,0,0:0:0:0:
256,196,27759,1,0,0:0:0:0:
256,196,27858,1,0,0:0:0:0:
256,196,27958,1,0,0:0:0:0:
256,196,28057,1,8,0:0:0:0:
256,196,28156,1,0,0:0:0:0:
256,196,28256,1,0,0:0:0:0:
256,196,28355,1,0,0:0:0:0:
256,196,28421,1,0,0:0:0:0:
256,196,28488,1,0,0:0:0:0:
256,196,28554,1,0,0:0:0:0:
256,196,28620,1,0,0:0:0:0:
256,196,28686,1,0,0:0:0:0:
256,196,28752,1,0,0:0:0:0:
256,196,28819,1,0,0:0:0:0:
256,196,28885,1,0,0:0:0:0:
256,196,28951,1,0,0:0:0:0:
256,196,29017,1,0,0:0:0:0:
256,196,29084,1,0,0:0:0:0:
256,196,29150,1,0,0:0:0:0:
256,196,29348,1,0,0:0:0:0:
256,196,29547,1,8,0:0:0:0:
256,196,29746,1,0,0:0:0:0:
256,196,29845,1,8,0:0:0:0:
256,196,29944,1,0,0:0:0:0:
256,196,30044,1,0,0:0:0:0:
256,196,30143,1,8,0:0:0:0:
256,196,30342,1,0,0:0:0:0:
256,196,30540,1,8,0:0:0:0:
256,196,30739,1,0,0:0:0:0:
256,196,30938,1,0,0:0:0:0:
256,196,31137,1,8,0:0:0:0:
256,196,31236,1,8,0:0:0:0:
256,196,31335,1,8,0:0:0:0:
256,196,31435,1,0,0:0:0:0:
256,196,31534,1,8,0:0:0:0:
256,196,31633,1,8,0:0:0:0:
256,196,31733,1,0,0:0:0:0:
256,196,31832,1,0,0:0:0:0:
256,196,31931,1,12,0:0:0:0:
256,196,32329,1,0,0:0:0:0:
256,196,32428,1,8,0:0:0:0:
256,196,32527,1,0,0:0:0:0:
256,196,32627,1,0,0:0:0:0:
256,196,32726,1,8,0:0:0:0:
256,196,32925,1,0,0:0:0:0:
256,196,33024,1,8,0:0:0:0:
256,196,33223,1,8,0:0:0:0:
256,196,33421,1,0,0:0:0:0:
256,196,33620,1,0,0:0:0:0:
256,196,33719,1,8,0:0:0:0:
256,196,33918,1,0,0:0:0:0:
256,196,34017,1,8,0:0:0:0:
256,196,34117,1,0,0:0:0:0:
256,196,34216,1,0,0:0:0:0:
256,196,34315,1,8,0:0:0:0:
256,196,34514,1,0,0:0:0:0:
256,196,34613,1,8,0:0:0:0:
256,196,34812,1,8,0:0:0:0:
256,196,35011,1,0,0:0:0:0:
256,196,35110,1,8,0:0:0:0:
256,196,35209,1,0,0:0:0:0:
256,196,35309,1,8,0:0:0:0:
256,196,35507,1,0,0:0:0:0:
256,196,35606,1,8,0:0:0:0:
256,196,35706,1,0,0:0:0:0:
256,196,35805,1,0,0:0:0:0:
256,196,35904,1,8,0:0:0:0:
256,196,36103,1,8,0:0:0:0:
256,196,36202,1,0,0:0:0:0:
256,196,36401,1,0,0:0:0:0:
256,196,36600,1,8,0:0:0:0:
256,196,36798,1,0,0:0:0:0:
256,196,36898,1,8,0:0:0:0:
256,196,37097,1,0,0:0:0:0:
256,196,37196,1,8,0:0:0:0:
256,196,37295,1,0,0:0:0:0:
256,196,37395,1,0,0:0:0:0:
256,196,37494,1,8,0:0:0:0:
256,196,37693,1,0,0:0:0:0:
256,196,37792,1,8,0:0:0:0:
256,196,37991,1,0,0:0:0:0:
256,196,38090,1,0,0:0:0:0:
256,196,38289,1,8,0:0:0:0:
256,196,38488,1,8,0:0:0:0:
256,196,38686,1,0,0:0:0:0:
256,196,38786,1,8,0:0:0:0:
256,196,38885,1,0,0:0:0:0:
256,196,38984,1,0,0:0:0:0:
256,196,39084,1,8,0:0:0:0:
256,196,39183,1,0,0:0:0:0:
256,196,39282,1,0,0:0:0:0:
256,196,39382,1,8,0:0:0:0:
256,196,39580,1,8,0:0:0:0:
256,196,39680,1,0,0:0:0:0:
256,196,39779,1,0,0:0:0:0:
256,196,39878,1,8,0:0:0:0:
256,196,39978,1,0,0:0:0:0:
256,196,40077,1,8,0:0:0:0:
256,196,40276,1,0,0:0:0:0:
256,196,40375,1,8,0:0:0:0:
256,196,40474,1,0,0:0:0:0:
256,196,40574,1,0,0:0:0:0:
256,196,40673,1,8,0:0:0:0:
256,196,40772,1,0,0:0:0:0:
256,196,40872,1,0,0:0:0:0:
256,196,40971,1,8,0:0:0:0:
256,196,41170,1,8,0:0:0:0:
256,196,41269,1,0,0:0:0:0:
256,196,41368,1,0,0:0:0:0:
256,196,41468,1,8,0:0:0:0:
256,196,41567,1,0,0:0:0:0:
256,196,41666,1,8,0:0:0:0:
256,196,41865,1,0,0:0:0:0:
256,196,42064,1,8,0:0:0:0:
256,196,42163,1,0,0:0:0:0:
256,196,42262,1,0,0:0:0:0:
256,196,42461,1,8,0:0:0:0:
256,196,42560,1,0,0:0:0:0:
256,196,42660,1,0,0:0:0:0:
256,196,42858,1,8,0:0:0:0:
256,196,42958,1,0,0:0:0:0:
256,196,43057,1,0,0:0:0:0:
256,196,43156,1,0,0:0:0:0:
256,196,43256,1,8,0:0:0:0:
256,196,43355,1,0,0:0:0:0:
256,196,43454,1,0,0:0:0:0:
256,196,43554,1,0,0:0:0:0:
256,196,43653,1,0,0:0:0:0:
256,196,43951,1,0,0:0:0:0:
256,196,44249,1,0,0:0:0:0:
256,196,44547,1,0,0:0:0:0:
256,196,44646,1,12,0:0:0:0:
256,196,44845,1,0,0:0:0:0:
256,196,45044,1,4,0:0:0:0:
256,196,45243,1,8,0:0:0:0:
256,196,45342,1,0,0:0:0:0:
256,196,45442,1,0,0:0:0:0:
256,196,45640,1,8,0:0:0:0:
256,196,45740,1,0,0:0:0:0:
256,196,45938,1,0,0:0:0:0:
256,196,46038,1,8,0:0:0:0:
256,196,46137,1,0,0:0:0:0:
256,196,46236,1,0,0:0:0:0:
256,196,46435,1,8,0:0:0:0:
256,196,46634,1,0,0:0:0:0:
256,196,46832,1,8,0:0:0:0:
256,196,46932,1,0,0:0:0:0:
256,196,47031,1,0,0:0:0:0:
256,196,47230,1,8,0:0:0:0:
256,196,47329,1,0,0:0:0:0:
256,196,47528,1,0,0:0:0:0:
256,196,47627,1,12,0:0:0:0:
256,196,47826,1,12,0:0:0:0:
256,196,48024,1,0,0:0:0:0:
256,196,48223,1,4,0:0:0:0:
256,196,48421,1,8,0:0:0:0:
256,196,48521,1,0,0:0:0:0:
256,196,48620,1,0,0:0:0:0:
256,196,48819,1,8,0:0:0:0:
256,196,48918,1,0,0:0:0:0:
256,196,49117,1,0,0:0:0:0:
256,196,49216,1,8,0:0:0:0:
256,196,49315,1,0,0:0:0:0:
256,196,49415,1,0,0:0:0:0:
256,196,49613,1,0,0:0:0:0:
256,196,49713,1,0,0:0:0:0:
256,196,49812,1,0,0:0:0:0:
256,196,50011,1,12,0:0:0:0:
256,196,50209,1,8,0:0:0:0:
256,196,50408,1,8,0:0:0:0:
256,196,50507,1,8,0:0:0:0:
256,196,50607,1,0,0:0:0:0:
256,196,50805,1,8,0:0:0:0:
256,196,50905,1,0,0:0:0:0:
256,196,51203,1,12,0:0:0:0:
256,196,51401,1,4,0:0:0:0:
256,196,51600,1,8,0:0:0:0:
256,196,51699,1,0,0:0:0:0:
256,196,51799,1,0,0:0:0:0:
256,196,51997,1,8,0:0:0:0:
256,196,52097,1,0,0:0:0:0:
256,196,52295,1,0,0:0:0:0:
256,196,52395,1,8,0:0:0:0:
256,196,52494,1,8,0:0:0:0:
256,196,52593,1,0,0:0:0:0:
256,196,52693,1,0,0:0:0:0:
256,196,52792,1,8,0:0:0:0:
256,196,52991,1,8,0:0:0:0:
256,196,53090,1,8,0:0:0:0:
256,196,53190,1,8,0:0:0:0:
256,196,53289,1,8,0:0:0:0:
256,196,53388,1,4,0:0:0:0:
256,196,53587,1,8,0:0:0:0:
256,196,53686,1,0,0:0:0:0:
256,196,53885,1,0,0:0:0:0:
256,196,53984,1,8,0:0:0:0:
256,196,54183,1,0,0:0:0:0:
256,196,54249,1,0,0:0:0:0:
256,196,54315,1,0,0:0:0:0:
256,196,54382,1,0,0:0:0:0:
256,196,54448,1,0,0:0:0:0:
256,196,54514,1,0,0:0:0:0:
256,196,54580,1,0,0:0:0:0:
256,196,54779,1,0,0:0:0:0:
256,196,55176,1,0,0:0:0:0:
256,196,55574,1,0,0:0:0:0:
256,196,55772,1,0,0:0:0:0:
256,196,55872,1,0,0:0:0:0:
256,196,55971,1,0,0:0:0:0:
256,196,56070,1,0,0:0:0:0:
260,192,56170,1,0,0:0:0:0:
260,192,56269,1,0,0:0:0:0:
260,192,56368,1,0,0:0:0:0:
260,192,56468,1,0,0:0:0:0:
260,192,56567,1,8,0:0:0:0:
260,192,56666,1,8,0:0:0:0:
260,192,56766,1,8,0:0:0:0:
260,192,56865,1,8,0:0:0:0:
260,192,56964,1,0,0:0:0:0:
260,192,57064,1,0,0:0:0:0:
260,192,57163,1,0,0:0:0:0:
260,192,57262,1,0,0:0:0:0:
260,192,57362,1,12,0:0:0:0:
260,192,57759,1,4,0:0:0:0:
260,192,57958,1,8,0:0:0:0:
260,192,58057,1,8,0:0:0:0:
260,192,58355,1,8,0:0:0:0:
260,192,58454,1,8,0:0:0:0:
260,192,58752,1,8,0:0:0:0:
260,192,58851,1,8,0:0:0:0:
260,192,59150,1,8,0:0:0:0:
260,192,59249,1,8,0:0:0:0:
260,192,59348,1,4,0:0:0:0:
260,192,59746,1,4,0:0:0:0:
260,192,60143,1,4,0:0:0:0:
260,192,60540,1,8,0:0:0:0:
260,192,60938,1,4,0:0:0:0:
260,192,61137,1,8,0:0:0:0:
260,192,61236,1,8,0:0:0:0:
260,192,61534,1,8,0:0:0:0:
260,192,61633,1,8,0:0:0:0:
260,192,61931,1,8,0:0:0:0:
260,192,62030,1,8,0:0:0:0:
260,192,62329,1,8,0:0:0:0:
260,192,62428,1,8,0:0:0:0:
260,192,62527,1,4,0:0:0:0:
260,192,62925,1,4,0:0:0:0:
260,192,63322,1,4,0:0:0:0:
260,192,64117,1,8,0:0:0:0:
260,192,64315,1,8,0:0:0:0:
260,192,64514,1,0,0:0:0:0:
260,192,64713,1,0,0:0:0:0:
260,192,64911,1,8,0:0:0:0:
260,192,65110,1,0,0:0:0:0:
260,192,65309,1,0,0:0:0:0:
260,192,65507,1,0,0:0:0:0:
260,192,65607,1,0,0:0:0:0:
260,192,65706,1,0,0:0:0:0:
260,192,65905,1,0,0:0:0:0:
260,192,66103,1,8,0:0:0:0:
260,192,66302,1,0,0:0:0:0:
260,192,66501,1,8,0:0:0:0:
260,192,66600,1,0,0:0:0:0:
260,192,66699,1,0,0:0:0:0:
260,192,66799,1,0,0:0:0:0:
260,192,66898,1,8,0:0:0:0:
260,192,66997,1,0,0:0:0:0:
260,192,67097,1,0,0:0:0:0:
260,192,67196,1,0,0:0:0:0:
260,192,67295,1,8,0:0:0:0:
260,192,67494,1,0,0:0:0:0:
260,192,67593,1,0,0:0:0:0:
260,192,67693,1,0,0:0:0:0:
260,192,67891,1,0,0:0:0:0:
260,192,67991,1,0,0:0:0:0:
260,192,68090,1,8,0:0:0:0:
260,192,68289,1,0,0:0:0:0:
260,192,68388,1,0,0:0:0:0:
260,192,68488,1,0,0:0:0:0:
260,192,68554,1,0,0:0:0:0:
260,192,68620,1,0,0:0:0:0:
260,192,68686,1,0,0:0:0:0:
260,192,68752,1,0,0:0:0:0:
260,192,68819,1,0,0:0:0:0:
260,192,68885,1,0,0:0:0:0:
260,160,69282,1,0,0:0:0:0:
260,160,69680,1,0,0:0:0:0:
260,160,70474,1,0,0:0:0:0:
260,160,70574,1,8,0:0:0:0:
260,160,70673,1,0,0:0:0:0:
260,160,70772,1,0,0:0:0:0:
260,160,70872,1,0,0:0:0:0:
260,160,70971,1,0,0:0:0:0:
260,160,71070,1,8,0:0:0:0:
260,160,71170,1,8,0:0:0:0:
260,160,71269,1,8,0:0:0:0:
260,160,71368,1,0,0:0:0:0:
260,160,71468,1,8,0:0:0:0:
260,160,71567,1,0,0:0:0:0:
260,160,71666,1,8,0:0:0:0:
260,160,71766,1,0,0:0:0:0:
260,160,71865,1,0,0:0:0:0:
260,160,71964,1,0,0:0:0:0:
260,160,72064,1,8,0:0:0:0:
260,160,72262,1,0,0:0:0:0:
260,160,72362,1,0,0:0:0:0:
260,160,72461,1,8,0:0:0:0:
260,160,72660,1,8,0:0:0:0:
260,160,72858,1,0,0:0:0:0:
260,160,73057,1,0,0:0:0:0:
260,160,73256,1,8,0:0:0:0:
260,160,73355,1,8,0:0:0:0:
260,160,73454,1,8,0:0:0:0:
260,160,73554,1,8,0:0:0:0:
260,160,73653,1,4,0:0:0:0:
260,160,73852,1,0,0:0:0:0:
260,160,74050,1,0,0:0:0:0:
260,160,74150,1,8,0:0:0:0:
260,160,74249,1,0,0:0:0:0:
260,160,74348,1,0,0:0:0:0:
260,160,74448,1,8,0:0:0:0:
260,160,74646,1,8,0:0:0:0:
260,160,74746,1,0,0:0:0:0:
260,160,74944,1,0,0:0:0:0:
260,160,75044,1,0,0:0:0:0:
260,160,75143,1,8,0:0:0:0:
260,160,75242,1,0,0:0:0:0:
260,160,75441,1,0,0:0:0:0:
260,160,75640,1,8,0:0:0:0:
260,160,75739,1,0,0:0:0:0:
260,160,75839,1,0,0:0:0:0:
260,160,75938,1,8,0:0:0:0:
260,160,76037,1,8,0:0:0:0:
260,160,76236,1,0,0:0:0:0:
260,160,76335,1,8,0:0:0:0:
260,160,76534,1,0,0:0:0:0:
260,160,76633,1,8,0:0:0:0:
260,160,76832,1,0,0:0:0:0:
260,160,77031,1,8,0:0:0:0:
260,160,77229,1,0,0:0:0:0:
260,160,77329,1,8,0:0:0:0:
260,160,77428,1,0,0:0:0:0:
260,160,77527,1,8,0:0:0:0:
260,160,77627,1,8,0:0:0:0:
260,160,77726,1,0,0:0:0:0:
260,160,77825,1,8,0:0:0:0:
260,160,77925,1,8,0:0:0:0:
260,160,78024,1,0,0:0:0:0:
260,160,78123,1,8,0:0:0:0:
260,160,78223,1,8,0:0:0:0:
260,160,78322,1,8,0:0:0:0:
260,160,78421,1,0,0:0:0:0:
260,160,78620,1,0,0:0:0:0:
260,160,78819,1,8,0:0:0:0:
260,160,79017,1,8,0:0:0:0:
260,160,79216,1,0,0:0:0:0:
260,160,79315,1,8,0:0:0:0:
260,160,79415,1,0,0:0:0:0:
260,160,79613,1,12,0:0:0:0:
280,144,79812,1,12,0:0:0:0:
260,160,80011,1,4,0:0:0:0:
260,160,80210,1,8,0:0:0:0:
260,160,80408,1,0,0:0:0:0:
260,160,80508,1,8,0:0:0:0:
260,160,80607,1,0,0:0:0:0:
260,160,80706,1,0,0:0:0:0:
260,160,80806,1,8,0:0:0:0:
260,160,81004,1,8,0:0:0:0:
260,160,81104,1,0,0:0:0:0:
260,160,81302,1,0,0:0:0:0:
260,160,81402,1,0,0:0:0:0:
260,160,81501,1,8,0:0:0:0:
260,160,81600,1,0,0:0:0:0:
260,160,81799,1,0,0:0:0:0:
260,160,81998,1,0,0:0:0:0:
260,160,82097,1,8,0:0:0:0:
260,160,82197,1,0,0:0:0:0:
260,160,82296,1,8,0:0:0:0:
260,160,82395,1,8,0:0:0:0:
260,160,82594,1,8,0:0:0:0:
260,160,82693,1,0,0:0:0:0:
260,160,82892,1,0,0:0:0:0:
260,160,82991,1,8,0:0:0:0:
260,160,83190,1,8,0:0:0:0:
260,160,83389,1,0,0:0:0:0:
260,160,83587,1,0,0:0:0:0:
260,160,83786,1,8,0:0:0:0:
260,160,83985,1,8,0:0:0:0:
260,160,84084,1,0,0:0:0:0:
260,160,84183,1,8,0:0:0:0:
260,160,84283,1,8,0:0:0:0:
260,160,84382,1,0,0:0:0:0:
260,160,84481,1,8,0:0:0:0:
260,160,84581,1,8,0:0:0:0:
260,160,84680,1,0,0:0:0:0:
260,160,84779,1,0,0:0:0:0:
260,160,84978,1,0,0:0:0:0:
260,160,85077,1,0,0:0:0:0:
260,160,85276,1,0,0:0:0:0:
260,160,85375,1,8,0:0:0:0:
260,160,85574,1,0,0:0:0:0:
260,160,85673,1,0,0:0:0:0:
260,160,85772,1,0,0:0:0:0:
260,160,85971,1,12,0:0:0:0:
260,160,86170,1,8,0:0:0:0:
260,160,86269,1,8,0:0:0:0:
260,160,86368,1,4,0:0:0:0:
260,160,86567,1,0,0:0:0:0:
260,160,86765,1,0,0:0:0:0:
260,160,86865,1,8,0:0:0:0:
260,160,86964,1,0,0:0:0:0:
260,160,87063,1,0,0:0:0:0:
260,160,87163,1,8,0:0:0:0:
260,160,87262,1,0,0:0:0:0:
260,160,87362,1,0,0:0:0:0:
260,160,87461,1,8,0:0:0:0:
260,160,87659,1,0,0:0:0:0:
260,160,87759,1,8,0:0:0:0:
260,160,87858,1,8,0:0:0:0:
260,160,87957,1,0,0:0:0:0:
260,160,88156,1,0,0:0:0:0:
260,160,88355,1,8,0:0:0:0:
260,160,88454,1,0,0:0:0:0:
260,160,88554,1,0,0:0:0:0:
260,160,88653,1,8,0:0:0:0:
260,160,88752,1,8,0:0:0:0:
260,160,88951,1,0,0:0:0:0:
260,160,89050,1,8,0:0:0:0:
260,160,89150,1,0,0:0:0:0:
260,160,89249,1,0,0:0:0:0:
260,160,89348,1,8,0:0:0:0:
260,160,89547,1,0,0:0:0:0:
260,160,89746,1,8,0:0:0:0:
260,160,89944,1,0,0:0:0:0:
260,160,90044,1,8,0:0:0:0:
260,160,90143,1,0,0:0:0:0:
260,160,90242,1,8,0:0:0:0:
260,160,90342,1,8,0:0:0:0:
260,160,90441,1,0,0:0:0:0:
260,160,90540,1,8,0:0:0:0:
260,160,90640,1,8,0:0:0:0:
260,160,90739,1,0,0:0:0:0:
260,160,90838,1,8,0:0:0:0:
260,160,90938,1,8,0:0:0:0:
260,160,91037,1,8,0:0:0:0:
260,160,91136,1,0,0:0:0:0:
260,160,91335,1,0,0:0:0:0:
260,160,91534,1,8,0:0:0:0:
260,160,91732,1,8,0:0:0:0:
260,160,91931,1,0,0:0:0:0:
260,160,92030,1,8,0:0:0:0:
260,160,92130,1,0,0:0:0:0:
260,160,92328,1,12,0:0:0:0:
280,144,92527,1,12,0:0:0:0:
260,160,92726,1,0,0:0:0:0:
260,160,92925,1,8,0:0:0:0:
260,160,93123,1,0,0:0:0:0:
260,160,93322,1,0,0:0:0:0:
260,160,93421,1,0,0:0:0:0:
260,160,93521,1,8,0:0:0:0:
260,160,93719,1,0,0:0:0:0:
260,160,93819,1,8,0:0:0:0:
260,160,93918,1,0,0:0:0:0:
260,160,94017,1,0,0:0:0:0:
260,160,94117,1,8,0:0:0:0:
260,160,94315,1,0,0:0:0:0:
260,160,94514,1,8,0:0:0:0:
260,160,94713,1,0,0:0:0:0:
260,160,94812,1,8,0:0:0:0:
260,160,94911,1,0,0:0:0:0:
260,160,95011,1,0,0:0:0:0:
260,160,95110,1,8,0:0:0:0:
260,160,95309,1,0,0:0:0:0:
260,160,95408,1,8,0:0:0:0:
260,160,95607,1,0,0:0:0:0:
260,160,95706,1,8,0:0:0:0:
260,160,95805,1,0,0:0:0:0:
260,160,95905,1,0,0:0:0:0:
260,160,96103,1,8,0:0:0:0:
260,160,96302,1,0,0:0:0:0:
260,160,96501,1,8,0:0:0:0:
260,160,96699,1,0,0:0:0:0:
260,160,96766,1,0,0:0:0:0:
260,160,96832,1,0,0:0:0:0:
260,160,96898,1,0,0:0:0:0:
260,160,96964,1,0,0:0:0:0:
260,160,97031,1,0,0:0:0:0:
260,160,97097,1,8,0:0:0:0:
260,160,97295,1,0,0:0:0:0:
260,160,97395,1,0,0:0:0:0:
260,160,97494,1,8,0:0:0:0:
260,160,97693,1,8,0:0:0:0:
260,160,97891,1,0,0:0:0:0:
260,160,97991,1,8,0:0:0:0:
260,160,98090,1,0,0:0:0:0:
260,160,98289,1,8,0:0:0:0:
260,160,98686,1,12,0:0:0:0:
256,196,99084,1,4,0:0:0:0:
256,196,99283,1,8,0:0:0:0:
256,196,99382,1,0,0:0:0:0:
256,196,99482,1,0,0:0:0:0:
256,196,99680,1,8,0:0:0:0:
256,196,99780,1,0,0:0:0:0:
256,196,99978,1,0,0:0:0:0:
256,196,100078,1,8,0:0:0:0:
256,196,100177,1,0,0:0:0:0:
256,196,100276,1,0,0:0:0:0:
256,196,100475,1,8,0:0:0:0:
256,196,100674,1,0,0:0:0:0:
256,196,100872,1,8,0:0:0:0:
256,196,100972,1,0,0:0:0:0:
256,196,101071,1,0,0:0:0:0:
256,196,101270,1,8,0:0:0:0:
256,196,101369,1,0,0:0:0:0:
256,196,101568,1,0,0:0:0:0:
256,196,101667,1,12,0:0:0:0:
256,196,101866,1,12,0:0:0:0:
256,196,102064,1,0,0:0:0:0:
256,196,102263,1,4,0:0:0:0:
256,196,102462,1,8,0:0:0:0:
256,196,102561,1,0,0:0:0:0:
256,196,102660,1,0,0:0:0:0:
256,196,102859,1,8,0:0:0:0:
256,196,102958,1,0,0:0:0:0:
256,196,103157,1,0,0:0:0:0:
256,196,103256,1,8,0:0:0:0:
256,196,103356,1,0,0:0:0:0:
256,196,103455,1,0,0:0:0:0:
256,196,103654,1,0,0:0:0:0:
256,196,103753,1,0,0:0:0:0:
256,196,103853,1,0,0:0:0:0:
256,196,104051,1,8,0:0:0:0:
256,196,104250,1,8,0:0:0:0:
256,196,104449,1,8,0:0:0:0:
256,196,104548,1,8,0:0:0:0:
256,196,104647,1,8,0:0:0:0:
256,196,104747,1,0,0:0:0:0:
256,196,104846,1,0,0:0:0:0:
256,196,104945,1,8,0:0:0:0:
256,196,105144,1,0,0:0:0:0:
256,196,105243,1,8,0:0:0:0:
256,196,105442,1,4,0:0:0:0:
256,196,105641,1,8,0:0:0:0:
256,196,105740,1,0,0:0:0:0:
256,196,105839,1,0,0:0:0:0:
256,196,106038,1,8,0:0:0:0:
256,196,106137,1,0,0:0:0:0:
256,196,106336,1,0,0:0:0:0:
256,196,106435,1,8,0:0:0:0:
256,196,106535,1,0,0:0:0:0:
256,196,106633,1,8,0:0:0:0:
256,196,106733,1,8,0:0:0:0:
256,196,106833,1,8,0:0:0:0:
256,196,106931,1,0,0:0:0:0:
256,196,107031,1,8,0:0:0:0:
256,196,107131,1,8,0:0:0:0:
256,196,107230,1,8,0:0:0:0:
256,196,107329,1,8,0:0:0:0:
256,196,107429,1,4,0:0:0:0:
256,196,107627,1,0,0:0:0:0:
256,196,107727,1,8,0:0:0:0:
256,196,107925,1,0,0:0:0:0:
256,196,108025,1,8,0:0:0:0:
256,196,108124,1,0,0:0:0:0:
256,196,108223,1,0,0:0:0:0:
256,196,108289,1,0,0:0:0:0:
256,196,108355,1,0,0:0:0:0:
256,196,108422,1,0,0:0:0:0:
256,196,108488,1,0,0:0:0:0:
256,196,108554,1,0,0:0:0:0:
256,196,108621,1,0,0:0:0:0:
256,196,108819,1,0,0:0:0:0:
256,196,109217,1,0,0:0:0:0:
256,196,109614,1,0,0:0:0:0:
256,196,109813,1,0,0:0:0:0:
256,196,109912,1,0,0:0:0:0:
256,196,110011,1,0,0:0:0:0:
256,196,110111,1,0,0:0:0:0:
256,196,110210,1,8,0:0:0:0:
256,196,110309,1,8,0:0:0:0:
256,196,110409,1,0,0:0:0:0:
256,196,110508,1,0,0:0:0:0:
256,196,110607,1,8,0:0:0:0:
256,196,110707,1,0,0:0:0:0:
256,196,110806,1,0,0:0:0:0:
256,196,110905,1,8,0:0:0:0:
256,196,111005,1,8,0:0:0:0:
256,196,111104,1,0,0:0:0:0:
256,196,111204,1,0,0:0:0:0:
256,196,111303,1,0,0:0:0:0:
256,196,111402,1,8,0:0:0:0:
256,196,111502,1,8,0:0:0:0:
256,196,111601,1,8,0:0:0:0:
256,196,111700,1,8,0:0:0:0:
256,196,111800,1,4,0:0:0:0:
260,192,111998,1,8,0:0:0:0:
260,192,112097,1,8,0:0:0:0:
260,192,112395,1,8,0:0:0:0:
260,192,112494,1,8,0:0:0:0:
260,192,112792,1,8,0:0:0:0:
260,192,112891,1,8,0:0:0:0:
260,192,113190,1,8,0:0:0:0:
260,192,113289,1,8,0:0:0:0:
260,192,113388,1,4,0:0:0:0:
260,192,113786,1,4,0:0:0:0:
260,192,114183,1,4,0:0:0:0:
260,192,114580,1,8,0:0:0:0:
260,192,114978,1,4,0:0:0:0:
260,192,115177,1,8,0:0:0:0:
260,192,115276,1,8,0:0:0:0:
260,192,115574,1,8,0:0:0:0:
260,192,115673,1,8,0:0:0:0:
260,192,115971,1,8,0:0:0:0:
260,192,116070,1,8,0:0:0:0:
260,192,116369,1,8,0:0:0:0:
260,192,116468,1,8,0:0:0:0:
260,192,116567,1,0,0:0:0:0:
260,192,116766,1,8,0:0:0:0:
260,192,116964,1,0,0:0:0:0:
260,192,117031,1,0,0:0:0:0:
260,192,117097,1,0,0:0:0:0:
260,192,117163,1,8,0:0:0:0:
260,192,117229,1,0,0:0:0:0:
260,192,117295,1,0,0:0:0:0:
260,192,117362,1,0,0:0:0:0:
260,192,117560,1,8,0:0:0:0:
260,192,117759,1,0,0:0:0:0:
260,192,117825,1,0,0:0:0:0:
260,192,117891,1,0,0:0:0:0:
260,192,117958,1,8,0:0:0:0:
260,192,118156,1,0,0:0:0:0:
260,192,118355,1,8,0:0:0:0:
260,192,118554,1,8,0:0:0:0:
260,192,118752,1,0,0:0:0:0:
260,192,118951,1,8,0:0:0:0:
260,192,119150,1,0,0:0:0:0:
260,192,119348,1,0,0:0:0:0:
260,192,119547,1,8,0:0:0:0:
260,192,119646,1,0,0:0:0:0:
260,192,119746,1,0,0:0:0:0:
260,192,119944,1,0,0:0:0:0:
260,192,120143,1,0,0:0:0:0:
260,192,120342,1,8,0:0:0:0:
260,192,120540,1,0,0:0:0:0:
260,192,120640,1,0,0:0:0:0:
260,192,120739,1,0,0:0:0:0:
260,192,120839,1,0,0:0:0:0:
260,192,120938,1,0,0:0:0:0:
260,192,121037,1,0,0:0:0:0:
260,192,121137,1,0,0:0:0:0:
260,192,121236,1,0,0:0:0:0:
260,192,121335,1,0,0:0:0:0:
260,192,121534,1,8,0:0:0:0:
260,192,121633,1,0,0:0:0:0:
260,192,121733,1,0,0:0:0:0:
260,192,121931,1,8,0:0:0:0:
260,192,122031,1,0,0:0:0:0:
260,192,122130,1,0,0:0:0:0:
260,192,122329,1,8,0:0:0:0:
260,192,122428,1,0,0:0:0:0:
260,192,122527,1,0,0:0:0:0:
260,192,122593,1,0,0:0:0:0:
260,192,122660,1,0,0:0:0:0:
260,192,122726,1,0,0:0:0:0:
260,192,122792,1,0,0:0:0:0:
260,192,122858,1,0,0:0:0:0:
260,192,122925,1,0,0:0:0:0:
260,192,123322,1,0,0:0:0:0:
260,192,123719,1,4,0:0:0:0:
260,160,124514,1,8,0:0:0:0:
260,160,124614,1,8,0:0:0:0:
260,160,124713,1,0,0:0:0:0:
260,160,124812,1,8,0:0:0:0:
260,160,124912,1,8,0:0:0:0:
260,160,125011,1,0,0:0:0:0:
260,160,125110,1,8,0:0:0:0:
260,160,125210,1,8,0:0:0:0:
260,160,125309,1,8,0:0:0:0:
260,160,125408,1,0,0:0:0:0:
260,160,125508,1,8,0:0:0:0:
260,160,125607,1,0,0:0:0:0:
260,160,125706,1,8,0:0:0:0:
260,160,125806,1,0,0:0:0:0:
260,160,125905,1,0,0:0:0:0:
260,160,126004,1,0,0:0:0:0:
260,160,126104,1,8,0:0:0:0:
260,160,126203,1,0,0:0:0:0:
260,160,126302,1,8,0:0:0:0:
260,160,126401,1,0,0:0:0:0:
260,160,126501,1,8,0:0:0:0:
260,160,126600,1,8,0:0:0:0:
260,160,126799,1,8,0:0:0:0:
260,160,126898,1,0,0:0:0:0:
260,160,127097,1,0,0:0:0:0:
260,160,127295,1,8,0:0:0:0:
260,160,127395,1,8,0:0:0:0:
260,160,127494,1,8,0:0:0:0:
260,160,127593,1,8,0:0:0:0:
260,160,127693,1,4,0:0:0:0:
260,160,127891,1,8,0:0:0:0:
260,160,127991,1,0,0:0:0:0:
260,160,128090,1,0,0:0:0:0:
260,160,128190,1,8,0:0:0:0:
260,160,128289,1,0,0:0:0:0:
260,160,128388,1,0,0:0:0:0:
260,160,128488,1,8,0:0:0:0:
260,160,128587,1,0,0:0:0:0:
260,160,128686,1,0,0:0:0:0:
260,160,128786,1,8,0:0:0:0:
260,160,128984,1,0,0:0:0:0:
260,160,129084,1,8,0:0:0:0:
260,160,129282,1,0,0:0:0:0:
260,160,129382,1,0,0:0:0:0:
260,160,129481,1,8,0:0:0:0:
260,160,129580,1,0,0:0:0:0:
260,160,129680,1,0,0:0:0:0:
260,160,129779,1,8,0:0:0:0:
260,160,129878,1,0,0:0:0:0:
260,160,129978,1,8,0:0:0:0:
260,160,130077,1,8,0:0:0:0:
260,160,130176,1,0,0:0:0:0:
260,160,130276,1,0,0:0:0:0:
260,160,130375,1,8,0:0:0:0:
260,160,130474,1,0,0:0:0:0:
260,160,130574,1,8,0:0:0:0:
260,160,130673,1,0,0:0:0:0:
260,160,130872,1,0,0:0:0:0:
260,160,130971,1,8,0:0:0:0:
260,160,131070,1,0,0:0:0:0:
260,160,131170,1,8,0:0:0:0:
260,160,131269,1,8,0:0:0:0:
260,160,131368,1,0,0:0:0:0:
260,160,131468,1,0,0:0:0:0:
260,160,131567,1,0,0:0:0:0:
260,160,131666,1,8,0:0:0:0:
260,160,131766,1,0,0:0:0:0:
260,160,131865,1,0,0:0:0:0:
260,160,131964,1,8,0:0:0:0:
260,160,132064,1,0,0:0:0:0:
260,160,132163,1,0,0:0:0:0:
260,160,132262,1,8,0:0:0:0:
260,160,132461,1,0,0:0:0:0:
260,160,132560,1,0,0:0:0:0:
260,160,132660,1,8,0:0:0:0:
260,160,132759,1,8,0:0:0:0:
260,160,132858,1,0,0:0:0:0:
260,160,132958,1,8,0:0:0:0:
260,160,133057,1,8,0:0:0:0:
260,160,133156,1,0,0:0:0:0:
260,160,133256,1,8,0:0:0:0:
260,160,133355,1,8,0:0:0:0:
260,160,133454,1,0,0:0:0:0:
260,160,133554,1,0,0:0:0:0:
232,160,133653,1,12,0:0:0:0:
232,160,133852,1,12,0:0:0:0:
260,160,134050,1,4,0:0:0:0:
260,160,134248,1,8,0:0:0:0:
260,160,134348,1,0,0:0:0:0:
260,160,134447,1,0,0:0:0:0:
260,160,134547,1,8,0:0:0:0:
260,160,134646,1,0,0:0:0:0:
260,160,134745,1,0,0:0:0:0:
260,160,134845,1,8,0:0:0:0:
260,160,134944,1,0,0:0:0:0:
260,160,135043,1,8,0:0:0:0:
260,160,135143,1,8,0:0:0:0:
260,160,135242,1,0,0:0:0:0:
260,160,135341,1,0,0:0:0:0:
260,160,135441,1,8,0:0:0:0:
260,160,135639,1,0,0:0:0:0:
260,160,135739,1,0,0:0:0:0:
260,160,135838,1,8,0:0:0:0:
260,160,135937,1,8,0:0:0:0:
260,160,136037,1,0,0:0:0:0:
260,160,136136,1,8,0:0:0:0:
260,160,136235,1,0,0:0:0:0:
260,160,136335,1,0,0:0:0:0:
260,160,136434,1,8,0:0:0:0:
260,160,136533,1,0,0:0:0:0:
260,160,136633,1,0,0:0:0:0:
260,160,136732,1,8,0:0:0:0:
260,160,136831,1,0,0:0:0:0:
260,160,136931,1,8,0:0:0:0:
260,160,137030,1,0,0:0:0:0:
260,160,137229,1,0,0:0:0:0:
260,160,137328,1,0,0:0:0:0:
260,160,137428,1,8,0:0:0:0:
260,160,137527,1,0,0:0:0:0:
260,160,137626,1,8,0:0:0:0:
260,160,137725,1,0,0:0:0:0:
260,160,137825,1,0,0:0:0:0:
260,160,137924,1,0,0:0:0:0:
260,160,138023,1,8,0:0:0:0:
260,160,138123,1,0,0:0:0:0:
260,160,138222,1,0,0:0:0:0:
260,160,138321,1,8,0:0:0:0:
260,160,138421,1,0,0:0:0:0:
260,160,138520,1,0,0:0:0:0:
260,160,138619,1,8,0:0:0:0:
256,160,138819,1,0,0:0:0:0:
256,160,139017,1,0,0:0:0:0:
256,160,139216,1,0,0:0:0:0:
256,160,139315,1,0,0:0:0:0:
256,160,139514,1,4,0:0:0:0:
256,160,139812,1,4,0:0:0:0:
256,160,140011,1,12,0:0:0:0:
256,160,140209,1,8,0:0:0:0:
256,160,140309,1,8,0:0:0:0:
260,160,140408,1,0,0:0:0:0:
256,160,140507,1,0,0:0:0:0:
260,160,140606,1,8,0:0:0:0:
260,160,140706,1,0,0:0:0:0:
260,160,140805,1,8,0:0:0:0:
260,160,140905,1,8,0:0:0:0:
260,160,141004,1,0,0:0:0:0:
260,160,141103,1,0,0:0:0:0:
260,160,141203,1,8,0:0:0:0:
260,160,141302,1,0,0:0:0:0:
260,160,141401,1,0,0:0:0:0:
260,160,141501,1,8,0:0:0:0:
256,160,141600,1,0,0:0:0:0:
260,160,141699,1,0,0:0:0:0:
260,160,141799,1,8,0:0:0:0:
256,160,141898,1,8,0:0:0:0:
260,160,141997,1,0,0:0:0:0:
260,160,142097,1,8,0:0:0:0:
260,160,142196,1,0,0:0:0:0:
260,160,142295,1,0,0:0:0:0:
260,160,142395,1,8,0:0:0:0:
260,160,142494,1,0,0:0:0:0:
260,160,142593,1,0,0:0:0:0:
260,160,142693,1,8,0:0:0:0:
260,160,142792,1,8,0:0:0:0:
260,160,142891,1,0,0:0:0:0:
260,160,142991,1,0,0:0:0:0:
260,160,143090,1,8,0:0:0:0:
260,160,143189,1,0,0:0:0:0:
260,160,143289,1,8,0:0:0:0:
260,160,143388,1,8,0:0:0:0:
272,184,143488,1,0,0:0:0:0:
260,160,143587,1,0,0:0:0:0:
260,160,143686,1,8,0:0:0:0:
260,160,143785,1,0,0:0:0:0:
260,160,143885,1,0,0:0:0:0:
260,160,143984,1,8,0:0:0:0:
260,160,144083,1,0,0:0:0:0:
260,160,144183,1,0,0:0:0:0:
260,160,144282,1,8,0:0:0:0:
260,160,144381,1,8,0:0:0:0:
260,160,144481,1,0,0:0:0:0:
260,160,144580,1,0,0:0:0:0:
260,160,144679,1,8,0:0:0:0:
260,160,144779,1,0,0:0:0:0:
260,160,144878,1,0,0:0:0:0:
260,160,144977,1,8,0:0:0:0:
272,184,145077,1,8,0:0:0:0:
260,160,145176,1,0,0:0:0:0:
260,160,145275,1,0,0:0:0:0:
260,160,145375,1,8,0:0:0:0:
260,160,145474,1,0,0:0:0:0:
260,160,145573,1,0,0:0:0:0:
260,160,145673,1,8,0:0:0:0:
260,160,145772,1,0,0:0:0:0:
260,160,145871,1,0,0:0:0:0:
260,160,145971,1,8,0:0:0:0:
260,160,146070,1,0,0:0:0:0:
260,160,146169,1,0,0:0:0:0:
260,160,146269,1,0,0:0:0:0:
232,160,146368,1,12,0:0:0:0:
232,160,146567,1,12,0:0:0:0:
260,160,146765,1,4,0:0:0:0:
260,160,146964,1,8,0:0:0:0:
260,160,147163,1,0,0:0:0:0:
260,160,147362,1,0,0:0:0:0:
260,160,147560,1,12,0:0:0:0:
260,160,147759,1,0,0:0:0:0:
232,160,147958,1,0,0:0:0:0:
232,160,148156,1,8,0:0:0:0:
260,160,148355,1,4,0:0:0:0:
196,160,148554,1,0,0:0:0:0:
196,160,148752,1,0,0:0:0:0:
196,160,148951,1,0,0:0:0:0:
196,160,149150,1,12,0:0:0:0:
196,160,149348,1,0,0:0:0:0:
196,160,149547,1,0,0:0:0:0:
196,160,149746,1,8,0:0:0:0:
196,160,149845,1,0,0:0:0:0:
196,160,149944,1,0,0:0:0:0:
232,152,150143,1,0,0:0:0:0:
232,152,150342,1,0,0:0:0:0:
232,152,150540,1,0,0:0:0:0:
232,152,150739,1,8,0:0:0:0:
232,152,150805,1,0,0:0:0:0:
232,152,150872,1,0,0:0:0:0:
232,152,150938,1,0,0:0:0:0:
232,152,151004,1,0,0:0:0:0:
232,152,151070,1,0,0:0:0:0:
232,152,151137,1,8,0:0:0:0:
232,152,151335,1,8,0:0:0:0:
256,160,151534,1,0,0:0:0:0:
256,160,151732,1,0,0:0:0:0:
256,160,151931,1,0,0:0:0:0:
256,160,152030,1,0,0:0:0:0:
256,160,152229,1,4,0:0:0:0:
256,160,152527,1,4,0:0:0:0:
256,160,152726,1,12,0:0:0:0:
256,160,153123,1,4,0:0:0:0:
