osu file format v12

[General]
AudioFilename: 04. I-O (Extended Mix).mp3
AudioLeadIn: 0
PreviewTime: 44845
Countdown: 0
SampleSet: None
StackLeniency: 0.3
Mode: 3
LetterboxInBreaks: 0
SpecialStyle: 0
WidescreenStoryboard: 1

[Editor]
Bookmarks: 129382
DistanceSpacing: 1.8
BeatDivisor: 4
GridSize: 4

[Metadata]
Title:I/O (Extended Mix)
TitleUnicode:I/O (Extended Mix)
Artist:Ryu
ArtistUnicode:Ryu☆
Creator:Sushi
Version:7K MX
Source:Dance Dance Revolution
Tags:Sakura Luminance tonight it's party time
BeatmapID:316519
BeatmapSetID:115338

[Difficulty]
HPDrainRate:6
CircleSize:7
OverallDifficulty:7
ApproachRate:9
SliderMultiplier:2.2
SliderTickRate:2

[Events]
//Background and Video events
0,0,"party-party-217839.jpg",0,-100
//Break Periods
//Storyboard Layer 0 (Background)
//Storyboard Layer 1 (Fail)
//Storyboard Layer 2 (Pass)
//Storyboard Layer 3 (Foreground)
//Storyboard Sound Samples
//Background Colour Transformations
3,100,163,162,255

[TimingPoints]
541,397.350993377483,4,3,0,80,1,0
32329,-100,4,3,0,80,0,1
45044,-100,4,3,0,80,0,0
73653,-100,4,3,0,80,0,1
86269,-100,4,3,0,80,0,0
86368,-100,4,3,0,80,0,1
99084,-100,4,3,0,80,0,0
127693,-100,4,3,0,80,0,1
140309,-100,4,3,0,80,0,0
140408,-100,4,3,0,80,0,1
153123,-100,4,3,0,80,0,0

[HitObjects]
475,192,541,1,0,0:0:0:0:
36,192,541,1,0,0:0:0:0:
109,192,640,1,0,0:0:0:0:
182,192,739,1,0,0:0:0:0:
256,192,839,1,0,0:0:0:0:
109,192,938,1,0,0:0:0:0:
475,192,938,1,0,0:0:0:0:
182,192,1037,1,0,0:0:0:0:
256,192,1137,1,0,0:0:0:0:
329,192,1236,1,0,0:0:0:0:
475,192,1335,1,0,0:0:0:0:
36,192,1335,1,0,0:0:0:0:
402,192,1435,1,0,0:0:0:0:
329,192,1534,1,0,0:0:0:0:
256,192,1633,1,0,0:0:0:0:
402,192,1733,1,0,0:0:0:0:
36,192,1733,1,0,0:0:0:0:
329,192,1832,1,0,0:0:0:0:
256,192,1931,1,0,0:0:0:0:
182,192,2031,1,0,0:0:0:0:
475,192,2130,1,0,0:0:0:0:
36,192,2229,1,0,0:0:0:0:
475,192,2329,1,0,0:0:0:0:
36,192,2428,1,0,0:0:0:0:
475,192,2527,1,0,0:0:0:0:
36,192,2627,1,0,0:0:0:0:
402,192,2726,1,0,0:0:0:0:
109,192,2825,1,0,0:0:0:0:
329,192,2925,1,0,0:0:0:0:
182,192,3024,1,0,0:0:0:0:
256,192,3123,1,0,0:0:0:0:
329,192,3223,1,0,0:0:0:0:
182,192,3223,1,0,0:0:0:0:
475,192,3322,1,0,0:0:0:0:
36,192,3322,1,0,0:0:0:0:
402,192,3322,1,0,0:0:0:0:
109,192,3322,1,0,0:0:0:0:
475,192,3521,1,0,0:0:0:0:
36,192,3719,1,0,0:0:0:0:
475,192,3719,1,0,0:0:0:0:
182,192,3719,1,0,0:0:0:0:
329,192,3719,1,0,0:0:0:0:
329,192,3918,1,0,0:0:0:0:
36,192,3918,1,0,0:0:0:0:
109,192,4017,1,0,0:0:0:0:
402,192,4117,1,0,0:0:0:0:
475,192,4117,1,0,0:0:0:0:
36,192,4117,1,0,0:0:0:0:
402,192,4315,1,0,0:0:0:0:
182,192,4315,1,0,0:0:0:0:
109,192,4415,1,0,0:0:0:0:
329,192,4415,128,0,4713:0:0:0:0:
36,192,4514,1,0,0:0:0:0:
36,192,4713,1,0,0:0:0:0:
256,192,4713,1,0,0:0:0:0:
109,192,4812,1,0,0:0:0:0:
36,192,4911,1,0,0:0:0:0:
475,192,4911,1,0,0:0:0:0:
402,192,4911,1,0,0:0:0:0:
256,192,5110,1,0,0:0:0:0:
182,192,5110,1,0,0:0:0:0:
329,192,5110,1,0,0:0:0:0:
109,192,5209,1,0,0:0:0:0:
36,192,5309,1,0,0:0:0:0:
402,192,5309,1,0,0:0:0:0:
475,192,5309,1,0,0:0:0:0:
329,192,5507,1,0,0:0:0:0:
256,192,5507,1,0,0:0:0:0:
36,192,5507,1,0,0:0:0:0:
109,192,5607,1,0,0:0:0:0:
36,192,5706,1,0,0:0:0:0:
475,192,5706,1,0,0:0:0:0:
329,192,5905,1,0,0:0:0:0:
182,192,5905,1,0,0:0:0:0:
402,192,6004,1,0,0:0:0:0:
109,192,6004,1,0,0:0:0:0:
36,192,6103,1,0,0:0:0:0:
256,192,6203,1,0,0:0:0:0:
475,192,6302,1,0,0:0:0:0:
36,192,6302,1,0,0:0:0:0:
109,192,6302,1,0,0:0:0:0:
402,192,6302,1,0,0:0:0:0:
36,192,6501,1,0,0:0:0:0:
109,192,6501,1,0,0:0:0:0:
402,192,6501,1,0,0:0:0:0:
475,192,6501,1,0,0:0:0:0:
36,192,6699,1,0,0:0:0:0:
36,192,6898,1,0,0:0:0:0:
182,192,6898,1,0,0:0:0:0:
329,192,6898,1,0,0:0:0:0:
475,192,6898,1,0,0:0:0:0:
475,192,7097,1,0,0:0:0:0:
182,192,7097,1,0,0:0:0:0:
402,192,7196,1,0,0:0:0:0:
475,192,7295,1,0,0:0:0:0:
36,192,7295,1,0,0:0:0:0:
109,192,7295,1,0,0:0:0:0:
329,192,7494,1,0,0:0:0:0:
182,192,7494,1,0,0:0:0:0:
402,192,7593,1,0,0:0:0:0:
109,192,7593,128,0,7891:0:0:0:0:
475,192,7693,1,0,0:0:0:0:
475,192,7891,1,0,0:0:0:0:
256,192,7891,1,0,0:0:0:0:
402,192,7991,1,0,0:0:0:0:
475,192,8090,1,0,0:0:0:0:
36,192,8090,1,0,0:0:0:0:
109,192,8090,1,0,0:0:0:0:
402,192,8289,1,0,0:0:0:0:
182,192,8289,1,0,0:0:0:0:
256,192,8289,1,0,0:0:0:0:
402,192,8388,1,0,0:0:0:0:
475,192,8488,1,0,0:0:0:0:
329,192,8488,1,0,0:0:0:0:
36,192,8488,1,0,0:0:0:0:
109,192,8488,1,0,0:0:0:0:
329,192,8686,1,0,0:0:0:0:
475,192,8686,1,0,0:0:0:0:
36,192,8686,1,0,0:0:0:0:
109,192,8686,1,0,0:0:0:0:
182,192,8885,1,0,0:0:0:0:
109,192,8885,1,0,0:0:0:0:
36,192,9084,1,0,0:0:0:0:
402,192,9183,1,0,0:0:0:0:
109,192,9183,1,0,0:0:0:0:
475,192,9282,1,0,0:0:0:0:
256,192,9282,1,0,0:0:0:0:
182,192,9282,1,0,0:0:0:0:
36,192,9481,1,0,0:0:0:0:
402,192,9580,1,0,0:0:0:0:
329,192,9580,1,0,0:0:0:0:
109,192,9580,1,0,0:0:0:0:
182,192,9580,1,0,0:0:0:0:
402,192,9878,1,0,0:0:0:0:
109,192,9878,1,0,0:0:0:0:
256,192,10077,1,0,0:0:0:0:
36,192,10077,1,0,0:0:0:0:
475,192,10077,1,0,0:0:0:0:
402,192,10077,1,0,0:0:0:0:
109,192,10077,1,0,0:0:0:0:
402,192,10276,1,0,0:0:0:0:
182,192,10375,1,0,0:0:0:0:
256,192,10474,1,0,0:0:0:0:
109,192,10474,1,0,0:0:0:0:
36,192,10474,1,0,0:0:0:0:
475,192,10474,1,0,0:0:0:0:
402,192,10673,1,0,0:0:0:0:
182,192,10772,1,0,0:0:0:0:
329,192,10772,128,0,11070:0:0:0:0:
256,192,10872,1,0,0:0:0:0:
109,192,10872,1,0,0:0:0:0:
36,192,10872,1,0,0:0:0:0:
475,192,11070,1,0,0:0:0:0:
182,192,11170,1,0,0:0:0:0:
256,192,11269,5,0,0:0:0:0:
109,192,11269,1,0,0:0:0:0:
36,192,11269,1,0,0:0:0:0:
402,192,11269,1,0,0:0:0:0:
256,192,11468,1,0,0:0:0:0:
329,192,11468,1,0,0:0:0:0:
475,192,11666,5,0,0:0:0:0:
475,192,11766,1,0,0:0:0:0:
475,192,11865,1,0,0:0:0:0:
475,192,11964,1,0,0:0:0:0:
256,192,12064,1,0,0:0:0:0:
402,192,12064,1,0,0:0:0:0:
36,192,12064,1,0,0:0:0:0:
182,192,12064,1,0,0:0:0:0:
475,192,12262,1,0,0:0:0:0:
182,192,12262,1,0,0:0:0:0:
329,192,12362,128,0,12759:0:0:0:0:
109,192,12362,1,0,0:0:0:0:
36,192,12461,1,0,0:0:0:0:
475,192,12560,1,0,0:0:0:0:
36,192,12660,1,0,0:0:0:0:
475,192,12759,1,0,0:0:0:0:
36,192,12858,1,0,0:0:0:0:
109,192,12908,1,0,0:0:0:0:
182,192,12958,1,0,0:0:0:0:
256,192,13007,1,0,0:0:0:0:
475,192,13057,1,0,0:0:0:0:
402,192,13107,1,0,0:0:0:0:
329,192,13156,1,0,0:0:0:0:
256,192,13206,1,0,0:0:0:0:
36,192,13256,1,0,0:0:0:0:
109,192,13256,1,0,0:0:0:0:
402,192,13454,1,0,0:0:0:0:
109,192,13454,1,0,0:0:0:0:
36,192,13454,1,0,0:0:0:0:
475,192,13454,1,0,0:0:0:0:
402,192,13852,1,0,0:0:0:0:
109,192,13852,1,0,0:0:0:0:
329,192,13852,1,0,0:0:0:0:
182,192,13852,1,0,0:0:0:0:
475,192,14249,1,0,0:0:0:0:
36,192,14249,1,0,0:0:0:0:
109,192,14249,1,0,0:0:0:0:
402,192,14249,1,0,0:0:0:0:
36,192,14448,1,0,0:0:0:0:
475,192,14448,1,0,0:0:0:0:
182,192,14547,1,0,0:0:0:0:
329,192,14646,1,0,0:0:0:0:
475,192,14746,1,0,0:0:0:0:
36,192,14845,1,0,0:0:0:0:
256,192,14845,1,0,0:0:0:0:
109,192,14944,1,0,0:0:0:0:
182,192,15044,1,0,0:0:0:0:
109,192,15143,1,0,0:0:0:0:
36,192,15242,1,0,0:0:0:0:
329,192,15242,1,0,0:0:0:0:
402,192,15342,1,0,0:0:0:0:
475,192,15441,1,0,0:0:0:0:
402,192,15540,1,0,0:0:0:0:
329,192,15640,1,0,0:0:0:0:
182,192,15640,1,0,0:0:0:0:
256,192,15640,1,0,0:0:0:0:
36,192,15739,1,0,0:0:0:0:
475,192,15739,1,0,0:0:0:0:
402,192,15839,1,0,0:0:0:0:
109,192,15839,1,0,0:0:0:0:
182,192,15938,1,0,0:0:0:0:
329,192,15938,1,0,0:0:0:0:
475,192,16037,1,0,0:0:0:0:
475,192,16137,1,0,0:0:0:0:
475,192,16236,1,0,0:0:0:0:
475,192,16335,1,0,0:0:0:0:
475,192,16435,1,0,0:0:0:0:
36,192,16435,1,0,0:0:0:0:
256,192,16435,1,0,0:0:0:0:
109,192,16435,1,0,0:0:0:0:
402,192,16435,1,0,0:0:0:0:
182,192,16633,128,0,16931:0:0:0:0:
475,192,16931,128,0,17229:0:0:0:0:
402,192,16931,1,0,0:0:0:0:
402,192,17229,128,0,17527:0:0:0:0:
329,192,17229,1,0,0:0:0:0:
329,192,17527,128,0,17825:0:0:0:0:
256,192,17527,1,0,0:0:0:0:
256,192,17825,128,0,18024:0:0:0:0:
182,192,17825,1,0,0:0:0:0:
182,192,18223,128,0,18521:0:0:0:0:
402,192,18521,1,0,0:0:0:0:
475,192,18521,128,0,18819:0:0:0:0:
329,192,18819,1,0,0:0:0:0:
402,192,18819,128,0,19117:0:0:0:0:
256,192,19117,1,0,0:0:0:0:
329,192,19117,128,0,19415:0:0:0:0:
182,192,19415,1,0,0:0:0:0:
256,192,19415,128,0,19614:0:0:0:0:
402,192,19613,1,0,0:0:0:0:
109,192,19613,1,0,0:0:0:0:
36,192,19812,128,0,20110:0:0:0:0:
256,192,20110,1,0,0:0:0:0:
329,192,20110,128,0,20408:0:0:0:0:
182,192,20408,1,0,0:0:0:0:
256,192,20408,128,0,20706:0:0:0:0:
109,192,20706,1,0,0:0:0:0:
182,192,20706,128,0,21004:0:0:0:0:
36,192,21004,1,0,0:0:0:0:
109,192,21004,128,0,21203:0:0:0:0:
36,192,21401,128,0,21600:0:0:0:0:
329,192,21699,1,0,0:0:0:0:
256,192,21799,1,0,0:0:0:0:
36,192,21997,1,0,0:0:0:0:
109,192,21997,1,0,0:0:0:0:
109,192,22196,1,0,0:0:0:0:
182,192,22196,1,0,0:0:0:0:
329,192,22395,1,0,0:0:0:0:
402,192,22395,1,0,0:0:0:0:
402,192,22593,1,0,0:0:0:0:
475,192,22593,1,0,0:0:0:0:
36,192,22792,5,0,0:0:0:0:
256,192,22792,1,0,0:0:0:0:
36,192,22991,1,0,0:0:0:0:
182,192,22991,128,0,23289:0:0:0:0:
36,192,23190,1,0,0:0:0:0:
475,192,23289,128,0,23587:0:0:0:0:
402,192,23289,1,0,0:0:0:0:
36,192,23388,1,0,0:0:0:0:
109,192,23587,1,0,0:0:0:0:
402,192,23587,128,0,23885:0:0:0:0:
329,192,23587,1,0,0:0:0:0:
109,192,23786,1,0,0:0:0:0:
329,192,23885,128,0,24183:0:0:0:0:
256,192,23885,1,0,0:0:0:0:
109,192,23984,1,0,0:0:0:0:
109,192,24183,1,0,0:0:0:0:
182,192,24183,1,0,0:0:0:0:
256,192,24183,128,0,24382:0:0:0:0:
475,192,24382,1,0,0:0:0:0:
475,192,24580,1,0,0:0:0:0:
329,192,24580,128,0,24878:0:0:0:0:
475,192,24779,1,0,0:0:0:0:
36,192,24878,128,0,25176:0:0:0:0:
109,192,24878,1,0,0:0:0:0:
475,192,24978,1,0,0:0:0:0:
402,192,25176,1,0,0:0:0:0:
109,192,25176,128,0,25474:0:0:0:0:
182,192,25176,1,0,0:0:0:0:
402,192,25375,1,0,0:0:0:0:
182,192,25474,128,0,25772:0:0:0:0:
256,192,25474,1,0,0:0:0:0:
402,192,25574,1,0,0:0:0:0:
402,192,25772,1,0,0:0:0:0:
256,192,25772,128,0,25971:0:0:0:0:
329,192,25772,1,0,0:0:0:0:
36,192,25971,1,0,0:0:0:0:
36,192,26170,1,0,0:0:0:0:
182,192,26170,128,0,26468:0:0:0:0:
36,192,26368,1,0,0:0:0:0:
475,192,26468,128,0,26766:0:0:0:0:
402,192,26468,1,0,0:0:0:0:
36,192,26567,1,0,0:0:0:0:
109,192,26766,1,0,0:0:0:0:
402,192,26766,128,0,27064:0:0:0:0:
329,192,26766,1,0,0:0:0:0:
109,192,26964,1,0,0:0:0:0:
329,192,27064,128,0,27362:0:0:0:0:
256,192,27064,1,0,0:0:0:0:
109,192,27163,1,0,0:0:0:0:
109,192,27362,1,0,0:0:0:0:
256,192,27362,128,0,27560:0:0:0:0:
182,192,27362,1,0,0:0:0:0:
475,192,27560,1,0,0:0:0:0:
36,192,27560,1,0,0:0:0:0:
402,192,27660,1,0,0:0:0:0:
475,192,27759,1,0,0:0:0:0:
402,192,27858,1,0,0:0:0:0:
36,192,27958,1,0,0:0:0:0:
475,192,27958,1,0,0:0:0:0:
256,192,27958,1,0,0:0:0:0:
109,192,28057,1,0,0:0:0:0:
36,192,28156,1,0,0:0:0:0:
109,192,28256,1,0,0:0:0:0:
475,192,28355,1,0,0:0:0:0:
36,192,28355,1,0,0:0:0:0:
402,192,28405,1,0,0:0:0:0:
329,192,28454,1,0,0:0:0:0:
256,192,28504,1,0,0:0:0:0:
475,192,28554,1,0,0:0:0:0:
402,192,28603,1,0,0:0:0:0:
329,192,28653,1,0,0:0:0:0:
256,192,28703,1,0,0:0:0:0:
36,192,28752,1,0,0:0:0:0:
475,192,28752,1,0,0:0:0:0:
109,192,28802,1,0,0:0:0:0:
182,192,28852,1,0,0:0:0:0:
256,192,28901,1,0,0:0:0:0:
36,192,28951,1,0,0:0:0:0:
109,192,29001,1,0,0:0:0:0:
182,192,29050,1,0,0:0:0:0:
256,192,29100,1,0,0:0:0:0:
36,192,32329,1,0,0:0:0:0:
182,192,32527,1,0,0:0:0:0:
109,192,32726,1,0,0:0:0:0:
36,192,32726,1,0,0:0:0:0:
182,192,32925,1,0,0:0:0:0:
36,192,33123,1,0,0:0:0:0:
182,192,33322,1,0,0:0:0:0:
36,192,33521,1,0,0:0:0:0:
109,192,33521,1,0,0:0:0:0:
