osu file format v6

[General]
AudioFilename: Crossing Days.mp3
AudioLeadIn: 2000
PreviewTime: 46237
Countdown: 0
SampleSet: Normal
StackLeniency: 0.7
Mode: 0
LetterboxInBreaks: 1

[Editor]
DistanceSpacing: 0.800000011920929
BeatDivisor: 4
GridSize: 8

[Metadata]
Title:Crossing Days (TV Size)
Artist:Ryoko Shintani
Creator:quintessence
Version:Normal
Source:Kurenai
Tags:

[Difficulty]
HPDrainRate:6
CircleSize:4
OverallDifficulty:6
SliderMultiplier:1.4
SliderTickRate:2

[Events]
//Background and Video events
0,0,"Background crimson.jpg"
//Break Periods
//Storyboard Layer 0 (Background)
//Storyboard Layer 1 (Fail)
//Storyboard Layer 2 (Pass)
//Storyboard Layer 3 (Foreground)
//Storyboard Sound Samples
//Background Colour Transformations
3,100,217,0,0

[TimingPoints]
513,413.793103448276,4,1,0,0,1,0
3823,-100,4,1,0,20,0,0
4444,-100,4,1,0,40,0,0
5271,-100,4,1,0,60,0,0
6099,-100,4,1,0,80,0,0
6719,-100,4,1,0,100,0,0
20581,-100,4,1,0,80,0,0
45926,-100,4,1,0,100,0,0
46340,-100,4,1,0,100,0,1
57926,-100,4,1,0,100,0,0
59375,-100,4,1,0,100,0,1
73340,-100,4,1,0,100,0,0
89064,-100,4,1,0,0,0,0

[Colours]
Combo1 : 255,128,0
Combo2 : 255,85,85
Combo3 : 255,128,64
Combo4 : 255,0,0

[HitObjects]
256,208,513,12,0,3409
256,208,3823,12,4,6720
256,192,7134,5,4
256,304,7548,1,4
352,248,7961,1,0
408,248,8168,1,0
376,144,8582,1,4
432,48,8996,1,0
376,48,9203,1,0
320,48,9410,1,0
208,48,9823,2,0,B|152:48|152:112,1,70,0|4
72,160,10444,5,4
72,272,10857,1,4
160,216,11271,1,0
224,216,11478,1,0
288,216,11685,1,0
352,216,11892,1,4
256,280,12306,1,0
256,336,12513,1,0
368,336,12926,1,0
424,336,13133,1,0
480,336,13340,1,4
424,240,13754,6,4,B|424:168,2,70
312,240,14581,1,0
312,184,14788,1,0
256,88,15202,1,4
200,184,15616,2,0,B|200:280|104:280,1,140
48,192,16444,1,0
48,136,16650,1,4
96,32,17064,6,0,B|168:32,1,70
224,32,17478,1,0
256,88,17685,2,0,B|328:88,1,70
360,136,18099,1,0
368,192,18306,2,0,B|296:192,1,70
320,248,18719,1,0
328,304,18926,2,0,B|256:304,1,70
208,328,19340,1,0
168,360,19547,2,0,B|88:360,3,70,0|0|0|4
56,248,20581,5,0
56,192,20788,1,0
56,136,20995,1,0
56,80,21202,1,0
128,168,21616,2,0,B|416:168,1,280
344,264,22857,6,0,B|344:344|256:400|168:344|168:264,1,280
256,200,24099,1,0
256,144,24306,1,0
256,88,24513,1,0
256,144,24719,1,0
256,200,24926,1,0
168,272,25340,5,8
336,272,25961,1,8
256,128,26581,1,0
256,240,26995,5,8
168,96,27616,1,8
344,96,28237,1,0
456,96,28650,5,8
288,96,29271,1,8
120,96,29892,1,0
120,208,30306,5,8
256,304,30926,1,8
392,208,31547,1,0
504,208,31961,5,8
360,120,32581,1,8
360,296,33202,1,0
248,296,33616,5,0
192,296,33823,1,0
136,296,34030,1,0
152,240,34237,1,0
192,200,34444,2,8,B|192:56,1,140
104,128,35271,1,0
144,168,35478,1,0
192,200,35685,1,0
240,168,35892,1,0
280,128,36099,2,8,B|432:128,1,140
344,40,36926,5,0
304,80,37133,1,0
280,128,37340,1,0
312,176,37547,1,0
344,224,37754,2,8,B|344:368,1,140
432,296,38581,1,0
392,256,38788,1,0
344,224,38995,1,0
296,256,39202,1,0
256,296,39409,2,0,B|112:296,1,140,8|8
0,296,40237,5,0
0,240,40444,1,0
0,184,40650,1,0
0,128,40857,1,0
0,72,41064,2,8,B|144:72,1,140
256,72,41892,1,0
256,128,42099,1,0
256,184,42306,1,0
256,240,42513,1,0
256,296,42719,2,8,B|400:296,1,140,8|4
400,184,43547,5,0
400,184,43754,1,0
400,72,44168,5,0
400,72,44375,1,0
304,128,44788,5,0
304,128,44995,1,0
304,240,45409,5,0
304,240,45616,1,0
208,184,46030,5,4
40,32,46444,5,0
96,32,46650,1,0
152,32,46857,1,0
208,32,47064,1,0
264,32,47271,2,2,B|416:48|376:216,1,245,2|2
304,168,48306,5,0
248,160,48513,1,0
192,168,48719,1,0
136,160,48926,1,0
80,168,49133,1,0
48,216,49340,2,2,B|56:296|136:296,1,105
176,336,49961,5,0
232,328,50168,1,0
288,344,50375,1,0
344,336,50581,1,0
384,296,50788,1,0
400,240,50995,2,0,B|472:240,2,70
344,240,51616,1,0
288,240,51823,2,0,B|208:240|192:120,2,140,0|0|4
416,56,53478,5,0
416,112,53685,1,0
416,168,53892,1,0
320,112,54306,2,2,B|168:112,1,140
120,112,54926,1,0
152,216,55340,2,2,B|96:264|184:320|120:368,1,140
138,347,55961,1,4
248,344,56375,6,8,B|320:344|352:176|352:176|384:344|464:344,1,420
256,208,58030,12,4,59271
424,56,59685,6,0,B|408:152|312:136,1,140
296,184,60306,1,0
248,208,60513,1,0
192,200,60719,1,0
144,168,60926,2,2,B|192:80|112:32,1,140
72,48,61547,6,0,B|24:136|104:184,1,140
144,168,62168,1,0
192,200,62375,1,0
248,208,62581,2,2,B|304:272|280:328,1,105
216,344,63202,5,0
160,352,63409,1,0
104,344,63616,1,0
48,336,63823,1,0
32,280,64030,1,0
56,232,64237,2,2,B|152:232|184:144,1,140
216,64,65064,5,0
304,64,65375,1,0
392,64,65685,1,4
256,312,66719,6,0,B|328:352|400:304,1,140
320,224,67547,2,0,B|381:182|453:222,2,140
264,224,68581,1,0
264,168,68788,1,0
264,112,68995,1,4
112,40,69616,5,0
80,88,69823,1,0
56,136,70030,2,2,B|96:192|48:232|88:288,1,140
128,304,70650,1,0
184,320,70857,2,2,B|256:360|336:312,1,140
256,208,71478,12,4,72099
256,40,72513,5,0
88,280,72926,1,0
424,280,73340,5,4
280,200,73961,2,0,B|272:152|320:160,1,70
224,24,74788,1,0
168,40,74995,1,0
120,72,75202,1,0
88,120,75409,1,0
72,176,75616,1,0
72,232,75823,2,0,B|144:232,2,70,0|0|4
144,320,76650,5,4
256,192,77271,2,0,B|304:184|296:232,1,70
464,232,78099,1,0
472,176,78306,1,0
464,120,78513,1,0
432,80,78719,1,0
392,40,78926,1,0
336,40,79133,2,0,B|336:128,2,70,0|0|4
256,120,79961,5,4
224,288,80581,1,0
288,288,80788,1,0
144,200,81409,2,0,B|144:104|232:64,1,140
256,48,82030,1,0
305,80,82237,2,0,B|364:104|364:200,1,140
364,197,82857,1,4
256,240,83271,5,4
220,75,83892,2,0,B|308:75,1,70
200,224,84719,1,0
256,240,84926,1,0
312,224,85133,1,0
296,168,85340,1,0
256,128,85547,2,0,B|256:48,2,70
216,168,86168,1,4
256,208,86375,12,4,89064
