osu file format v6

[General]
AudioFilename: Crossing Days.mp3
AudioLeadIn: 2000
PreviewTime: 46237
Countdown: 0
SampleSet: Normal
StackLeniency: 0.7
Mode: 0
LetterboxInBreaks: 1

[Editor]
DistanceSpacing: 0.800000011920929
BeatDivisor: 4
GridSize: 8

[Metadata]
Title:Crossing Days (TV Size)
Artist:Ryoko Shintani
Creator:quintessence
Version:Easy
Source:Kurenai
Tags:

[Difficulty]
HPDrainRate:2
CircleSize:3
OverallDifficulty:4
SliderMultiplier:1.4
SliderTickRate:2

[Events]
//Background and Video events
0,0,"Background crimson.jpg"
//Break Periods
//Storyboard Layer 0 (Background)
//Storyboard Layer 1 (Fail)
//Storyboard Layer 2 (Pass)
//Storyboard Layer 3 (Foreground)
//Storyboard Sound Samples
//Background Colour Transformations
3,100,217,0,0

[TimingPoints]
513,413.793103448276,4,1,0,0,1,0
3823,-100,4,1,0,20,0,0
4444,-100,4,1,0,40,0,0
5271,-100,4,1,0,60,0,0
6099,-100,4,1,0,80,0,0
6719,-100,4,1,0,100,0,0
20581,-100,4,1,0,80,0,0
45926,-100,4,1,0,100,0,0
46340,-100,4,1,0,100,0,1
57926,-100,4,1,0,100,0,0
59375,-100,4,1,0,100,0,1
73340,-100,4,1,0,100,0,0
89064,-100,4,1,0,0,0,0

[Colours]
Combo1 : 255,128,0
Combo2 : 255,85,85
Combo3 : 255,128,64
Combo4 : 255,0,0

[HitObjects]
256,208,513,12,0,3409
256,208,3823,12,4,6720
184,64,7134,5,4
72,64,7548,1,4
128,160,7961,2,0,B|128:312,2,140
216,232,9202,1,0
328,232,9616,1,0
440,232,10030,1,4
440,120,10444,5,4
328,120,10857,1,4
256,32,11271,2,0,B|152:56|96:168,1,210,0|4
96,272,12306,1,0
96,328,12513,1,0
200,296,12926,1,0
312,296,13340,1,4
424,296,13754,6,4,B|424:368,2,70
456,184,14581,1,0
392,184,14788,1,0
424,80,15202,1,4
312,80,15616,2,0,B|216:80|216:176,1,140
216,272,16444,1,0
160,272,16650,1,4
80,192,17064,6,0,B|152:192,1,70
264,192,17685,2,0,B|336:192,1,70
384,88,18306,2,0,B|312:88,1,70
200,88,18926,2,0,B|128:88,1,70
168,192,19547,2,0,B|256:288|352:192,1,210,0|4
352,80,20581,5,0
240,80,20995,1,0
240,80,21202,1,0
296,176,21616,2,0,B|16:176,1,280
96,256,22857,6,0,B|96:336|184:392|272:336|272:256,1,280
216,160,24099,1,0
304,96,24513,1,0
408,136,24926,1,0
408,248,25340,5,8
240,248,25961,1,8
56,40,26995,5,8
56,208,27616,1,8
288,48,28650,5,8
456,48,29271,1,8
344,304,30306,5,8
344,136,30926,1,8
80,232,31961,5,8
248,232,32581,1,8
448,32,33616,5,0
336,32,34030,1,0
224,32,34444,2,8,B|224:172,1,140
336,176,35271,1,0
448,176,35685,1,0
448,288,36099,2,8,B|308:288,1,140
192,288,36926,5,0
80,288,37340,1,0
80,176,37754,2,8,B|80:36,1,140
192,40,38581,1,0
304,40,38995,1,0
416,40,39409,2,0,B|416:184,1,140,8|8
304,184,40237,5,0
192,184,40650,1,0
192,296,41064,2,8,B|336:296,1,140
448,296,41892,1,0
448,184,42306,1,0
448,72,42719,2,8,B|308:72,1,140,8|4
192,72,43547,5,0
72,192,44168,5,0
192,312,44788,5,0
304,192,45409,5,0
472,192,46030,5,4
472,80,46444,5,0
360,80,46857,1,0
248,80,47271,2,2,B|96:96|136:264,1,245,2|2
184,320,48306,6,0,B|264:344|344:192,1,210
376,304,49340,2,2,B|488:304,1,105
480,216,49961,5,0
480,160,50168,1,0
480,48,50581,1,0
368,48,50995,2,0,B|144:48,1,210
104,48,51823,2,0,B|114:138|194:138,2,140,0|0|4
64,272,53478,5,0
176,272,53892,1,0
288,272,54306,2,2,B|288:56,1,210
400,64,55340,2,2,B|501:110|277:166|425:213,1,210
456,320,56375,6,8,B|328:248|176:368|16:272,1,420
256,208,58030,12,4,59271
72,224,59685,6,0,B|88:320|184:304,1,140
280,312,60513,1,0
392,312,60926,2,2,B|440:224|360:176,1,140
376,128,61547,6,0,B|152:128,1,210
56,128,62581,2,2,B|32:72|94:33,1,105
168,40,63202,5,0
224,40,63409,1,0
336,40,63823,1,0
448,40,64237,2,2,B|448:256,1,210
392,248,65064,5,0
224,248,65685,1,4
184,96,66719,6,0,B|112:56|40:104,1,140
112,192,67547,2,0,B|173:234|245:194,2,140
184,344,68995,1,4
352,344,69616,5,0
464,344,70030,2,2,B|433:304|481:264|441:208,1,140
440,96,70857,2,2,B|377:57|305:97,1,140
256,208,71478,12,4,72099
144,192,72513,5,0
256,192,72926,1,0
368,192,73340,5,4
432,344,73961,2,0,B|360:344,1,70
192,344,74788,1,0
80,344,75202,1,0
80,232,75616,1,0
80,176,75823,2,0,B|152:176,2,70,0|0|4
80,64,76650,5,4
248,64,77271,2,0,B|320:64,1,70
320,232,78099,1,0
432,232,78513,1,0
432,344,78926,1,0
376,344,79133,2,0,B|288:344,2,70,0|0|4
376,232,79961,5,4
376,64,80581,1,0
376,120,80788,1,0
208,120,81409,2,0,B|64:120,1,140
64,232,82237,2,0,B|280:232,1,210
384,232,83271,5,4
384,64,83892,2,0,B|314:64,1,70
144,56,84719,1,0
144,168,85133,1,0
144,280,85547,2,0,B|232:280,2,70
144,336,86168,1,4
256,208,86375,12,4,89064
