osu file format v12

[General]
AudioFilename: Fleet Glide Galaxy.mp3
AudioLeadIn: 0
PreviewTime: 38448
Countdown: 1
SampleSet: Soft
StackLeniency: 0.7
Mode: 0
LetterboxInBreaks: 1

[Editor]
DistanceSpacing: 0.5
BeatDivisor: 4
GridSize: 8

[Metadata]
Title:Fleet Glide
TitleUnicode:Fleet Glide
Artist:Ryo Nagamatsu
ArtistUnicode:Ryo Nagamatsu
Creator:Chupalika
Version:Insane
Source:Super Mario Galaxy 2
Tags:
BeatmapID:194193
BeatmapSetID:66607

[Difficulty]
HPDrainRate:7
CircleSize:4
OverallDifficulty:5
ApproachRate:8
SliderMultiplier:1
SliderTickRate:1

[Events]
//Background and Video events
0,0,"Fluzzard.png",0,0
//Break Periods
//Storyboard Layer 0 (Background)
//Storyboard Layer 1 (Fail)
//Storyboard Layer 2 (Pass)
//Storyboard Layer 3 (Foreground)
//Storyboard Sound Samples
//Background Colour Transformations
3,100,163,162,255

[TimingPoints]
933.782278929995,472.44094488189,4,2,1,50,1,0
6603,-100,4,2,1,35,0,0
7547,-100,4,2,1,40,0,0
8020,-100,4,2,1,45,0,0
8492,468.75,4,2,1,50,1,0
8492,-100,4,2,1,50,0,0
15992,233.463035019455,4,2,1,50,1,0
15992,-200,4,2,1,40,0,0
22645,-100,4,2,1,50,0,0
27198,234.375,4,2,1,50,1,0
29073,-200,4,2,0,30,0,0
29541,-100,4,2,1,15,0,0
30948,-100,4,2,1,50,0,0
37627,-100,4,2,1,30,0,0
37979,-100,4,2,1,40,0,0
38448,468.75,4,2,1,50,1,0
38448,-66.6666666666667,4,2,1,50,0,0
53448,-50,4,2,1,65,0,0

[Colours]
Combo1 : 255,255,0
Combo2 : 5,240,5
Combo3 : 5,5,240
Combo4 : 240,5,5

[HitObjects]
56,88,815,1,0,1:0:0:0:
64,88,875,1,0,1:0:0:0:
80,88,933,1,0,1:0:0:0:
152,192,1170,1,0,1:0:0:0:
224,88,1406,1,8,1:0:0:0:
224,88,1524,1,0,1:0:0:0:
296,192,1878,1,0,1:0:0:0:
384,88,2232,1,0,1:0:0:0:
416,88,2351,1,8,1:0:0:0:
456,88,2469,1,0,1:0:0:0:
456,320,2705,1,0,1:0:0:0:
456,320,2823,5,0,1:0:0:0:
360,320,3059,1,0,1:0:0:0:
288,192,3295,1,8,1:0:0:0:
288,192,3414,1,0,1:0:0:0:
216,320,3650,1,0,1:0:0:0:
144,320,3886,1,0,1:0:0:0:
48,192,4122,1,0,1:0:0:0:
48,160,4240,1,8,1:0:0:0:
48,128,4358,1,0,1:0:0:0:
48,96,4477,1,0,1:0:0:0:
144,192,4713,5,0,1:0:0:0:
216,320,4949,1,0,1:0:0:0:
256,64,5185,1,8,1:0:0:0:
256,64,5303,1,0,1:0:0:0:
336,192,5658,1,0,1:0:0:0:
440,192,6012,1,0,1:0:0:0:
440,160,6130,1,8,1:0:0:0:
440,128,6248,1,0,1:0:0:0:
296,64,6484,1,0,1:0:0:0:
256,64,6603,5,0,0:0:0:0:
256,72,6681,1,0,0:0:0:0:
256,80,6760,1,0,0:0:0:0:
256,88,6839,1,0,0:0:0:0:
256,96,6918,1,0,0:0:0:0:
256,104,6996,1,0,0:0:0:0:
256,112,7075,1,0,0:0:0:0:
256,120,7154,1,0,0:0:0:0:
256,128,7232,1,0,0:0:0:0:
256,136,7311,1,0,0:0:0:0:
256,144,7390,1,0,0:0:0:0:
256,152,7469,1,0,0:0:0:0:
256,160,7547,2,0,L|256:192,11,16.6666666666667
256,192,8492,5,4,1:0:0:0:
256,192,8843,1,0,1:0:0:0:
96,296,9663,1,0,1:0:0:0:
96,192,9898,1,0,1:0:0:0:
96,88,10132,1,0,1:0:0:0:
200,88,10367,5,0,1:0:0:0:
200,88,10718,1,0,1:0:0:0:
208,296,11070,1,0,1:0:0:0:
240,296,11187,1,0,1:0:0:0:
312,192,11421,1,0,1:0:0:0:
432,88,11656,1,0,1:0:0:0:
432,120,11773,1,8,1:0:0:0:
432,152,11890,1,0,1:0:0:0:
432,184,12007,1,0,1:0:0:0:
256,192,12242,5,0,1:0:0:0:
256,192,12593,1,0,1:0:0:0:
40,192,13413,1,0,1:0:0:0:
120,80,13648,1,0,1:0:0:0:
184,192,13882,1,0,1:0:0:0:
256,80,14117,5,0,1:0:0:0:
376,80,14468,1,0,1:0:0:0:
456,232,14820,1,0,1:0:0:0:
424,232,14937,1,0,1:0:0:0:
320,152,15171,1,0,1:0:0:0:
256,232,15406,1,0,1:0:0:0:
224,232,15523,1,8,1:0:0:0:
192,232,15640,1,0,1:0:0:0:
160,232,15757,1,0,1:0:0:0:
392,80,15992,6,0,P|456:184|368:320,1,300,0|0,1:0|0:0,1:0:0:0:
240,312,17626,1,0,1:0:0:0:
240,312,17704,1,0,1:0:0:0:
240,312,17781,1,0,1:0:0:0:
240,312,17859,6,0,B|144:272|56:192|56:96,1,300,0|0,1:0|0:0,1:0:0:0:
200,96,19493,1,0,1:0:0:0:
200,96,19571,1,0,1:0:0:0:
200,96,19649,1,0,1:0:0:0:
200,96,19727,6,0,P|272:96|312:120,1,100,0|0,1:0|0:0,1:0:0:0:
376,32,20427,1,0,1:0:0:0:
448,32,20661,1,0,1:0:0:0:
456,32,20777,2,0,P|472:72|464:120,1,75,0|0,1:0|0:0,1:0:0:0:
472,248,21361,1,0,1:0:0:0:
472,248,21439,1,0,1:0:0:0:
472,248,21517,1,0,1:0:0:0:
472,248,21595,6,0,P|448:352|368:384,1,200,0|0,1:0|0:0,1:0:0:0:
256,280,22645,1,0,1:0:0:0:
256,256,22762,1,0,1:0:0:0:
256,232,22879,1,0,1:0:0:0:
256,208,22995,1,0,1:0:0:0:
256,184,23112,1,0,1:0:0:0:
256,160,23229,1,0,1:0:0:0:
256,136,23346,1,0,1:0:0:0:
256,112,23462,5,0,1:0:0:0:
256,272,23929,1,8,1:0:0:0:
308,101,24396,1,0,1:0:0:0:
204,282,24863,1,8,1:0:0:0:
366,128,25330,5,0,1:0:0:0:
145,256,25797,1,8,1:0:0:0:
408,192,26264,1,0,1:0:0:0:
104,192,26731,1,8,1:0:0:0:
408,280,27198,5,0,1:0:0:0:
103,104,27666,1,8,1:0:0:0:
356,365,28135,1,0,1:0:0:0:
156,18,28604,1,8,1:0:0:0:
256,384,29073,6,0,L|256:280,1,100
256,192,30010,12,0,30830,0:0:0:0:
256,192,30948,5,0,1:0:0:0:
256,192,31299,1,0,1:0:0:0:
112,192,32119,1,0,1:0:0:0:
256,48,32354,1,8,1:0:0:0:
400,192,32588,1,0,1:0:0:0:
256,336,32823,5,0,1:0:0:0:
256,336,33174,1,0,1:0:0:0:
72,72,33760,1,0,1:0:0:0:
96,72,33877,1,0,1:0:0:0:
120,72,33994,1,0,1:0:0:0:
440,312,34229,1,0,1:0:0:0:
416,312,34346,1,0,1:0:0:0:
392,312,34463,1,0,1:0:0:0:
256,192,34698,5,0,1:0:0:0:
256,192,35049,1,0,1:0:0:0:
256,336,35869,1,0,1:0:0:0:
400,192,36104,1,8,1:0:0:0:
256,48,36338,1,0,1:0:0:0:
112,192,36573,5,0,1:0:0:0:
112,192,36924,1,0,1:0:0:0:
112,288,37627,1,0,1:0:0:0:
112,256,37744,1,0,1:0:0:0:
112,224,37862,1,0,1:0:0:0:
112,192,37979,1,0,1:0:0:0:
112,152,38096,1,0,1:0:0:0:
112,120,38213,1,0,1:0:0:0:
112,88,38330,1,0,1:0:0:0:
112,48,38448,6,0,P|256:48|424:88,1,300.000011444092,0|0,1:0|1:0,2:0:0:0:
472,192,39854,1,8,1:0:0:0:
256,48,40323,5,0,1:0:0:0:
256,192,40557,1,0,1:0:0:0:
256,336,40791,1,8,1:0:0:0:
104,224,41494,1,0,1:0:0:0:
176,80,41729,1,8,1:0:0:0:
248,224,41963,1,0,1:0:0:0:
320,80,42198,6,0,P|432:128|456:312,1,300,0|0,1:0|1:0,2:0:0:0:
256,352,43604,1,8,1:0:0:0:
64,280,44073,5,0,1:0:0:0:
168,176,44307,1,0,1:0:0:0:
272,72,44541,1,8,1:0:0:0:
272,232,44776,1,0,1:0:0:0:
304,232,44893,1,0,1:0:0:0:
408,72,45127,1,0,1:0:0:0:
488,232,45362,1,0,1:0:0:0:
488,264,45479,1,8,1:0:0:0:
488,296,45596,1,0,1:0:0:0:
488,328,45713,1,0,1:0:0:0:
88,104,45948,6,0,B|168:48|264:48|376:104,1,300,0|0,1:0|1:0,2:0:0:0:
472,232,47354,1,8,1:0:0:0:
296,344,47823,6,0,L|296:304,2,37.5,0|0|0,1:0|1:0|1:0,1:0:0:0:
176,256,48291,1,8,1:0:0:0:
40,152,48994,1,0,1:0:0:0:
176,32,49229,1,8,1:0:0:0:
328,32,49463,1,0,1:0:0:0:
472,152,49698,6,0,P|472:248|440:296,1,150,0|8,1:0|1:0,1:0:0:0:
256,312,50635,1,0,1:0:0:0:
64,192,51104,1,8,1:0:0:0:
256,64,51573,1,0,1:0:0:0:
256,192,51807,12,0,53213,0:0:0:0:
56,192,53448,5,0,1:0:0:0:
152,72,53682,1,0,1:0:0:0:
152,312,53916,2,8,L|264:136,1,200,8|0,1:0|1:0,1:0:0:0:
424,72,54854,1,8,1:0:0:0:
456,192,55323,5,0,1:0:0:0:
376,320,55557,1,0,1:0:0:0:
296,72,55791,1,8,1:0:0:0:
216,192,56026,1,0,1:0:0:0:
216,192,56143,1,0,1:0:0:0:
136,192,56377,1,0,1:0:0:0:
56,48,56612,1,0,1:0:0:0:
56,120,56729,1,8,1:0:0:0:
56,192,56846,1,0,1:0:0:0:
56,264,56963,1,0,1:0:0:0:
136,192,57198,5,0,1:0:0:0:
232,72,57432,1,0,1:0:0:0:
232,312,57666,2,0,L|352:152,1,200,8|0,1:0|1:0,1:0:0:0:
440,312,58604,1,8,1:0:0:0:
440,72,59073,6,0,P|240:32|40:72,1,400,0|0,1:0|1:0,1:0:0:0:
40,336,60479,1,8,1:0:0:0:
112,192,60713,1,0,1:0:0:0:
184,48,60948,6,0,P|288:48|384:64,1,200,0|8,1:0|1:0,1:0:0:0:
448,192,61651,1,0,1:0:0:0:
448,264,61768,1,0,1:0:0:0:
448,336,61885,2,0,P|336:336|248:304,1,200,0|8,1:0|1:0,1:0:0:0:
40,192,62823,5,0,1:0:0:0:
256,40,63291,1,8,1:0:0:0:
472,192,63760,1,0,1:0:0:0:
256,344,64229,1,8,1:0:0:0:
40,192,64698,5,4,1:0:0:0:
112,48,64932,1,4,1:0:0:0:
184,336,65283,1,4,1:0:0:0:
256,48,65635,1,4,1:0:0:0:
328,336,65987,1,4,1:0:0:0:
400,192,66221,1,4,1:0:0:0:
472,48,66455,1,4,1:0:0:0:
472,48,66573,5,4,1:0:0:0:
256,192,66807,12,4,68448,1:0:0:0:
