osu file format v5

[General]
AudioFilename: 102 Through the Lightning.mp3
AudioLeadIn: 0
PreviewTime: -1
Countdown: 1
SampleSet: Normal
StackLeniency: 0.7
Mode: 0
LetterboxInBreaks: 1
EditorBookmarks: 13453,24270,52634,85290,111413

[Metadata]
Title:Through the Lightning
Artist:Ryo Kawakami
Creator:ignorethis
Version:Normal
Source:Megaman ZX Advent
Tags:

[Difficulty]
HPDrainRate:1
CircleSize:3
OverallDifficulty:1
SliderMultiplier:1.3
SliderTickRate:2

[Events]
//Background and Video events
0,0,"0b9b9c514f3c313542a75bd6.jpg"
//Break Periods
2,39776,51077
//Storyboard Layer 0 (Background)
//Storyboard Layer 1 (Failing)
//Storyboard Layer 2 (Passing)
//Storyboard Layer 3 (Foreground)
//Storyboard Sound Samples
//Background Colour Transformations
3,100,0,0,0

[TimingPoints]
413,408.163265306122,4,1,0,80,1

[Colours]
Combo1 : 255,0,128
Combo2 : 5,240,5
Combo3 : 5,5,240
Combo4 : 240,5,5
Combo5 : 255,150,0

[HitObjects]
80,136,13474,2,0,B|224:80,1,130
264,80,14086,2,0,B|400:120,1,130
448,152,14698,1,0
480,208,14902,1,0
440,264,15106,2,0,B|312:320,3,130,0|2|0|2
256,312,16535,1,0
192,296,16739,6,0,B|72:216,1,130
48,168,17351,1,0
48,96,17555,2,0,B|208:112,1,130
240,128,18168,1,0
304,144,18372,2,0,B|448:104,4,130,0|4|0|4|0
240,136,20208,1,0
184,112,20413,6,0,B|104:72,1,65
72,120,20821,2,0,B|32:184,1,65
40,240,21229,2,0,B|104:272,1,65
160,288,21637,2,0,B|232:248,1,65
272,216,22045,2,0,B|368:216,1,65
400,192,22453,2,0,B|448:120,3,65
456,72,23270,6,4,B|336:48|192:96|112:72,1,325
64,88,24494,1,0
32,144,24698,1,0
48,208,24902,2,4,B|160:184|280:256|456:200,1,390
488,248,26331,1,0
488,248,26535,1,0
448,296,26739,6,0,B|296:288,1,130
272,240,27351,2,0,B|360:128,1,130
304,96,27964,1,0
240,96,28168,2,0,B|168:112,3,65
128,160,28984,2,0,B|80:240,3,65
64,272,29800,6,0,B|176:296,2,97.5
40,208,30617,2,0,B|72:96,2,97.5
104,200,31433,1,0
232,160,31841,1,2
272,288,32249,1,0
152,336,32657,1,2
104,208,33066,5,0
96,144,33270,2,0,B|136:80|216:80,1,130
264,104,33882,2,0,B|312:144|288:248,1,130
304,288,34494,2,0,B|400:288|432:216,1,130
416,168,35106,2,0,B|408:96|328:80,1,130
264,72,35719,2,0,B|200:72|120:112,1,130
80,128,36331,6,0,B|24:264|176:360,1,260
224,336,37351,1,0
272,296,37555,2,0,B|328:240,2,65
336,176,38372,1,2
424,272,38780,1,0
320,352,39188,1,2
232,256,39596,1,4
64,64,52657,6,0,B|200:40|360:88|480:64,1,390
456,136,54086,1,0
456,200,54290,2,0,B|456:320,2,97.5
400,168,55106,2,0,B|288:168,2,97.5
400,232,55923,6,0,B|272:192|144:264|8:200,1,390
48,144,57351,1,0
96,104,57555,2,0,B|240:96,3,130
288,104,58984,1,0
344,72,59188,6,0,B|456:48|488:256|184:248,1,390,4|0
136,248,60617,1,0
144,184,60821,2,0,B|192:80,2,97.5
200,216,61637,2,0,B|280:312,2,97.5
216,152,62453,6,0,B|336:72,1,130
384,112,63066,2,0,B|352:248,1,130
344,304,63678,2,0,B|424:304,1,65
448,248,64086,2,0,B|440:192|392:152,2,97.5
384,248,64902,1,0
248,232,65310,1,2
136,152,65719,6,0,B|224:72|328:160,2,195
136,216,67147,1,0
176,264,67351,2,0,B|88:344|-16:256,2,195
240,240,68780,1,0
304,240,68984,2,0,B|456:240,3,130
408,176,70412,1,0
384,112,70617,2,0,B|280:216,3,130
224,192,72045,1,0
160,168,72249,6,4,C|272:32|264:216|384:104,1,520
440,224,74290,1,0
328,288,74698,2,0,C|208:312,2,97.5
392,272,75515,1,0
176,120,76331,2,0,C|240:32,2,97.5
232,152,77147,1,0
440,312,77964,2,4,C|464:192,2,97.5
376,328,78780,1,6
