osu file format v5

[General]
AudioFilename: miku.mp3
AudioLeadIn: 0
PreviewTime: 67043
Countdown: 2
SampleSet: Soft
StackLeniency: 0.2
Mode: 0
LetterboxInBreaks: 1
StoryFireInFront: 0
SkinPreference:Default
EditorBookmarks: 29216,47761,67397,92125,102670,140831,152831,165740,182285,205558,232104
EditorDistanceSpacing: 1.70000004768372

[Metadata]
Title:World is Mine
Artist:Ryo
Creator:JarJarJacob
Version:Velocity of Rage
Source:Nico Nico Douga
Tags:Hatsune Miku Vocaloid Tsundere Crap

[Difficulty]
HPDrainRate:8
CircleSize:5
OverallDifficulty:8
SliderMultiplier:2
SliderTickRate:2

[Events]
//Background and Video events
Video,-715,"eromiku.avi"
0,0,"wim01_1024x768.jpg"
//Break Periods
2,92304,100081
2,141031,152081
2,180304,181354
2,231940,240445
//Storyboard Layer 0 (Background)
//Storyboard Layer 1 (Fail)
//Storyboard Layer 2 (Pass)
//Storyboard Layer 3 (Foreground)
Sprite,Foreground,Centre,"spinner-osu.png",164,121 F,0,164831,165195,0,1 S,0,165195,,0.5084802 F,0,165195,165740,1 F,0,165740,166649,1,0
Sprite,Foreground,Centre,"level 2 black team 2.png",315,382 M,0,164831,165195,318,384,315,382 S,0,164831,165195,0.1,0.6324804 M,0,165195,,315,382 F,0,165195,165740,1 F,0,165740,166649,1,0.03744003
Sprite,Foreground,Centre,"play-warningarrow.png",466,209 S,0,237922,,0.7132802 F,0,237922,238649,0,1 M,0,238649,239013,116,209,466,209 F,0,238649,239195,1 F,0,239195,240104,1,0
Sprite,Foreground,Centre,"Untitled-1.png",320,240
//Storyboard Sound Samples
//Background Colour Transformations
3,100,163,162,255

[TimingPoints]
17936,363.636363636364,4,2,0,100,1,0
64397,-100,4,1,1,100,0,0
66852,-100,4,2,0,100,0,0
89922,-100,4,2,0,100,0,1
91013,-100,4,2,0,100,0,0
100831,-100,4,2,0,100,0,1
102649,-100,4,2,0,100,0,0
138573,-100,4,1,1,100,0,0
141028,-100,4,2,0,100,0,0
164740,-100,4,2,1,100,0,0
164922,-100,4,2,0,100,0,0
176467,-100,4,2,0,100,0,1
180104,-100,4,2,0,100,0,0
202558,-100,4,1,1,100,0,0
204649,-100,4,2,0,100,0,0
205558,-100,4,2,0,100,0,1
228058,-100,4,2,0,100,0,0
228104,-100,4,2,0,100,0,0
228831,-100,4,2,0,100,0,0
241013,-100,4,2,0,100,0,0
241195,-50,4,2,0,100,0,1
243376,-50,4,2,0,100,0,0

[Colours]
Combo1 : 255,179,255
Combo2 : 196,196,0
Combo3 : 209,209,209

[HitObjects]
256,336,29208,1,0
256,240,29390,1,8
256,144,29572,1,2
256,48,29754,1,10
80,144,30117,1,0
80,240,30299,2,0,B|80:368|208:368,1,200,0|2
296,360,30845,2,0,B|296:232|424:232,1,200,0|2
416,128,31390,1,0
208,128,31754,1,0
312,128,31936,1,0
416,128,32117,1,2
80,192,32481,5,0
128,96,32663,1,8
176,192,32845,1,2
128,288,33026,1,10
416,192,33390,1,0
416,192,33572,2,0,B|512:272|416:368,1,200
320,368,34117,1,2
216,368,34299,1,0
112,368,34481,1,2
256,224,34845,6,0,B|320:144|176:96|256:32,1,200,4|0
246,41,35390,1,0
256,352,35754,1,2
256,352,35935,1,8
320,256,36117,1,2
192,256,36299,1,10
416,352,36663,2,0,B|528:352|528:208,2,200,0|2|0
208,352,37754,2,0,B|-16:352,1,200
100,192,38299,6,0,B|132:128|196:160|272:48,1,200,2|0
255,71,38845,2,0,B|287:135|351:103|432:224,1,200,2|0
409,193,39390,1,0
408,193,39572,2,0,B|376:257|312:225|216:353,1,200,2|0
250,311,40117,1,2
250,311,40299,1,2
256,112,40663,1,2
256,32,41208,5,0
256,128,41390,1,10
256,224,41572,1,2
32,352,41936,1,8
32,352,42117,1,0
96,288,42299,1,8
176,224,42481,1,8
256,160,42663,1,0
336,224,42845,1,8
416,288,43026,1,8
480,352,43208,1,0
384,368,43390,1,8
288,352,43572,1,8
192,368,43754,6,0,B|192:256|64:400|48:256,1,200,10|4
48,176,44299,2,8,B|48:64|176:208|192:64,1,200,10|8
256,160,44845,1,0
320,240,45026,1,8
384,320,45208,1,8
448,240,45390,1,0
512,160,45572,1,8
256,32,45935,5,8
64,192,46299,1,2
160,208,46481,1,2
256,192,46663,1,2
352,208,46845,1,2
448,192,47026,1,2
448,192,47208,1,0
448,192,47390,1,2
256,352,47754,5,0
32,192,48117,1,8
256,32,48481,1,0
480,192,48845,1,8
256,352,49208,1,0
64,192,49572,1,8
64,192,49754,5,0
112,112,49936,1,8
160,192,50117,1,0
208,112,50299,1,8
256,192,50481,1,0
304,112,50663,1,8
352,192,50845,1,0
400,112,51026,1,8
448,192,51208,1,4
256,352,51572,1,8
256,352,51754,1,4
160,192,52117,1,8
256,192,52299,1,0
352,192,52481,1,8
256,32,52845,1,12
256,32,53208,1,8
64,192,53936,5,0
256,192,54299,1,8
448,192,54663,1,4
256,352,55390,1,2
256,352,55481,1,0
256,352,55572,1,2
256,352,55663,1,0
256,352,55754,5,0
208,256,55936,1,8
304,256,56117,1,0
256,160,56299,1,8
256,160,56663,1,8
256,160,57026,2,8,B|16:160,1,200
64,256,57572,1,0
160,256,57754,1,8
256,256,57936,2,0,B|368:256,1,100,0|8
432,352,58299,1,0
432,256,58481,1,8
432,160,58663,1,4
432,160,59026,1,8
256,368,59754,5,0
256,192,60117,1,8
256,16,60481,1,4
80,368,61208,6,0,B|-32:256|112:176,1,200,0|8
80,104,61754,1,0
80,16,61936,1,2
168,16,62117,1,0
256,16,62299,1,8
256,104,62481,1,0
256,192,62663,1,2
256,272,62845,1,0
256,352,63026,1,8
344,352,63208,1,0
432,352,63390,1,2
432,272,63572,1,0
432,192,63754,1,8
432,104,63936,1,0
432,16,64117,1,2
256,336,64481,5,0
256,336,64663,1,0
256,336,64845,1,0
256,336,65208,1,0
256,336,65572,1,0
256,336,65754,1,0
256,336,66117,1,0
256,336,66299,1,0
256,336,66663,1,0
256,32,67026,5,0
256,240,67390,2,2,B|560:240|560:-64|256:-64|256:240,1,600
176,208,68663,2,0,B|-48:336|-16:144|160:176|64:384,1,300,0|0
192,304,69390,1,0
288,304,69572,1,0
480,304,69936,1,0
256,32,70299,5,8
32,192,70663,1,0
256,352,71026,1,8
480,192,71390,1,0
256,32,71754,1,8
32,192,72117,1,0
256,192,72481,5,0
256,192,72845,1,0
256,192,73208,2,2,B|176:336|368:336|256:192,2,200
32,192,74299,1,0
256,32,74663,1,2
480,192,75026,1,0
256,352,75390,1,2
32,192,75754,1,0
112,192,75935,6,0,B|112:64,1,100,8|0
192,144,76299,2,0,B|304:144,1,100,8|0
368,80,76663,2,8,B|368:288,1,200,8|8
272,288,77208,2,0,B|128:288,1,100,0|8
64,288,77572,2,4,B|64:32,2,200
256,224,78663,5,0
432,336,79026,1,8
336,336,79208,1,0
384,256,79390,1,8
432,176,79572,1,0
336,176,79754,1,8
272,256,79935,1,0
224,176,80117,1,8
176,256,80299,2,0,B|168:264|168:264|160:256|160:256|152:264|152:264|144:256|144:256|136:264|136:264|128:256|128:256|120:264|120:264|112:256|112:256|104:264|104:264|96:256|96:256|88:264|88:264|80:256|80:256|72:264|72:264|64:256|64:256|56:264|56:264|48:256|48:256|40:264|40:264|32:256|32:256|24:264,1,200,4|0
48,64,81026,1,0
144,96,81208,1,8
240,64,81390,1,0
336,96,81572,1,8
432,64,81754,1,0
480,192,81935,5,0
256,352,82299,1,8
32,192,82663,1,0
256,32,83026,1,8
480,192,83390,1,0
256,352,83754,1,0
256,240,84117,5,0
256,240,84481,1,0
64,48,84845,2,10,B|-16:336|496:-64|496:352,1,600,2|0
384,304,86117,2,0,B|288:144|172:390|77:152,1,300,0|0
48,64,87026,1,2
48,64,87208,1,2
48,64,87390,1,2
256,32,87572,5,0
208,128,87754,1,8
304,128,87935,1,0
256,224,88117,1,8
208,320,88299,1,0
304,320,88481,1,12
32,192,88845,1,8
32,192,89026,1,0
32,192,89208,1,12
480,192,89572,1,8
480,192,89754,1,0
480,192,89937,1,12
256,192,89981,12,0,91026
16,192,91208,5,0
112,192,91390,1,0
208,192,91572,1,0
304,192,91754,1,0
400,192,91935,1,0
496,192,92117,1,4
256,192,100845,12,0,102663
32,192,103390,5,2
480,192,103754,1,4
256,272,104117,1,0
256,272,104299,5,8
256,176,104481,2,0,B|176:176|240:64,1,100,2|8
256,176,104845,2,0,B|336:176|272:64,1,100,2|8
256,352,105390,1,0
256,352,105572,1,2
256,32,105935,1,0
256,32,106117,1,2
256,352,106481,1,0
256,352,106663,1,2
32,192,107026,1,0
32,192,107208,2,0,B|144:192,1,100,8|2
224,192,107572,1,8
320,192,107754,1,2
448,352,108117,5,2
352,352,108299,1,8
256,352,108481,1,2
160,352,108663,1,8
64,352,108845,1,2
112,272,109026,1,8
208,272,109208,1,2
304,272,109390,1,10
400,272,109572,1,2
208,272,109936,1,8
256,32,110117,5,8
256,128,110299,1,2
256,224,110481,1,8
80,336,110845,1,0
176,336,111026,1,8
128,256,111208,2,0,B|128:112,1,100,2|8
128,64,111572,1,0
320,64,111935,1,8
400,112,112117,1,2
320,176,112299,1,8
192,112,112481,5,4
16,352,112845,1,0
128,256,113026,1,8
432,256,113390,1,0
128,192,113754,1,8
432,192,114117,1,0
128,128,114481,1,8
128,128,114663,1,0
128,128,114845,1,8
128,128,115026,1,0
128,128,115208,1,8
128,128,115390,1,8
256,352,115754,5,2
448,320,116117,1,0
352,288,116299,1,0
256,256,116481,1,0
160,224,116663,1,4
16,176,117026,5,8
80,96,117208,1,0
144,16,117390,1,8
208,96,117572,2,0,B|336:96,1,100,0|8
400,96,117935,1,0
400,192,118117,1,8
400,288,118299,1,0
96,320,118663,6,0,B|96:144,1,100,0|8
96,128,119026,2,0,B|96:0,1,100,0|8
192,32,119390,2,0,B|192:144,1,100,0|8
192,240,119754,1,0
480,96,120117,1,0
480,96,120299,5,2
400,224,120481,1,2
336,96,120663,1,2
256,224,120845,1,2
192,96,121026,1,2
112,224,121208,1,2
112,224,121572,1,0
416,320,121935,5,0
64,256,122299,1,8
416,176,122663,1,0
64,96,123026,1,8
416,32,123390,1,0
416,176,123754,1,8
480,272,123935,5,0
416,176,124117,1,8
352,272,124299,1,0
288,176,124481,1,8
224,272,124663,1,0
160,176,124845,1,8
96,272,125026,1,0
32,176,125208,1,8
256,64,125572,1,10
256,304,125935,1,8
368,272,126117,1,0
256,240,126299,1,8
144,272,126481,1,10
256,304,126663,1,10
256,64,127026,5,8
256,64,127390,1,4
256,320,128481,1,8
256,320,128845,1,4
48,192,129572,1,2
48,192,129663,1,0
48,192,129754,1,2
48,192,129845,1,0
48,192,129935,5,8
96,112,130117,1,0
144,192,130299,1,2
96,288,130481,1,0
192,288,130663,1,8
240,192,130845,1,0
192,112,131026,1,2
288,112,131208,1,0
336,192,131390,1,8
288,288,131572,1,0
384,288,131754,1,2
336,368,131935,1,2
240,368,132117,1,10
144,368,132299,1,2
32,368,132481,5,0
32,256,132663,1,8
32,144,132845,1,4
32,144,133208,1,0
480,96,133935,1,0
256,192,134299,1,8
480,256,134663,1,4
128,80,135390,5,0
384,304,135754,1,8
256,304,135936,1,0
128,304,136117,1,0
384,80,136481,1,8
256,80,136663,1,0
128,80,136845,1,0
384,304,137208,1,8
256,304,137390,1,0
128,304,137572,1,0
384,80,137935,1,8
256,80,138117,1,0
128,80,138299,1,0
256,192,138663,5,0
256,192,138845,1,0
256,192,139026,1,0
256,192,139390,1,0
256,192,139754,1,0
256,192,139935,1,0
256,192,140299,1,0
256,192,140481,1,0
256,192,140845,1,0
256,48,152845,5,0
448,48,153208,2,0,B|336:128,1,100,0|8
288,160,153572,2,0,B|208:224,1,100,0|8
128,288,153935,2,0,B|48:352,1,100,0|8
48,256,154299,1,2
48,160,154481,2,2,B|32:48|144:176|160:32,1,200,2|0
352,32,155208,1,0
304,112,155390,1,8
352,208,155572,1,0
400,288,155754,1,8
352,368,155935,1,0
256,352,156117,5,0
32,192,156481,1,8
256,32,156845,1,0
480,192,157208,1,8
256,352,157572,1,0
32,192,157936,1,0
256,352,158299,6,0,B|256:112,1,200
96,352,159026,2,2,B|16:48|252:47|480:32,1,600,2|0
460,34,160299,1,0
460,34,160481,1,0
464,240,160845,1,2
464,32,161208,1,2
464,240,161572,1,2
256,352,161754,5,0
208,272,161935,1,0
304,272,162117,1,0
32,192,162481,1,2
480,192,162845,1,2
256,32,163208,1,2
256,352,163572,1,2
256,32,163935,1,2
256,32,164117,1,6
256,32,164481,1,0
256,352,164845,5,2
230,50,165754,5,0
70,171,166117,2,0,C|113:208|48:210|105:240|59:260,2,200,0|2|0
30,80,167026,1,0
222,27,167390,1,2
389,137,167754,2,0,C|325:121|226:130|181:121,1,200,0|2
481,36,168481,1,0
481,36,168663,1,0
285,80,169026,2,0,C|268:49|218:67|172:36|116:85,2,200,0|2|0
208,145,169935,1,0
208,145,170117,1,0
208,145,170299,1,0
104,320,170663,5,0
293,255,171026,1,2
400,87,171390,1,0
304,56,171572,1,2
204,45,171754,1,0
85,207,172117,1,2
248,322,172481,1,0
85,207,172845,1,0
413,152,173208,6,0,C|378:118|355:160|341:130|334:131|301:147|282:116|279:116|237:140|235:138|191:115|167:140|146:111,1,400,0|2
102,329,174299,1,0
199,305,174481,1,2
264,230,174663,1,0
431,340,175026,1,2
431,139,175390,1,0
431,339,175754,1,2
431,139,176117,1,0
256,192,176481,12,0,180117
256,256,182117,5,8
112,96,182481,1,0
208,96,182663,1,0
304,96,182845,1,0
400,96,183026,1,0
256,256,183390,1,2
56,272,183754,2,0,B|32:208|64:192|64:192|96:192|96:192|128:208|104:272,1,200
80,368,184299,1,0
80,368,184481,1,0
80,368,184663,1,2
480,368,185026,6,0,B|480:144,1,200
480,64,185572,1,2
384,96,185754,1,0
288,64,185935,1,2
192,96,186117,1,0
96,64,186299,1,2
0,112,186481,1,0
32,208,186663,1,4
0,304,186845,1,0
96,336,187026,1,4
192,304,187208,1,0
288,336,187390,1,4
384,304,187572,1,0
480,336,187754,1,4
480,192,188117,5,0
480,192,188299,1,0
480,192,188481,1,2
32,192,188845,1,0
32,192,189026,1,0
32,192,189208,1,2
256,48,189572,1,0
256,144,189754,1,0
256,240,189935,1,0
256,336,190117,1,0
256,336,190299,1,0
256,336,190481,1,0
480,32,190845,5,0
480,128,191026,1,0
416,32,191208,1,0
416,128,191390,1,2
352,32,191572,1,0
352,128,191754,1,0
288,32,191935,1,0
288,128,192117,1,2
224,32,192299,1,0
224,128,192481,1,0
160,32,192663,1,0
160,128,192845,1,2
96,32,193026,1,0
96,128,193208,1,2
32,32,193390,1,2
320,48,193936,5,8
256,128,194117,1,0
192,48,194299,1,2
256,128,194481,1,0
256,240,194663,1,8
48,240,195026,1,10
152,240,195208,1,0
256,240,195390,1,8
256,240,195572,1,0
360,240,195754,1,8
464,240,195936,1,10
256,32,196299,1,10
160,336,196663,5,0
256,336,196845,1,8
352,336,197026,2,0,B|432:240|352:144,1,200,2|0
160,336,197572,2,0,B|80:240|160:144,1,200,2|0
256,32,198299,1,8
256,32,198481,1,0
256,32,198663,1,8
256,32,198845,1,10
256,32,199026,1,0
256,32,199208,1,10
256,32,199390,1,2
256,32,199572,1,2
256,32,199754,5,4
32,352,200285,1,0
80,352,200376,1,0
128,352,200481,2,0,B|192:352|192:192|128:192,1,200,6|0
256,352,201013,1,0
256,304,201104,1,0
256,256,201208,2,0,B|256:192|416:192|416:256,1,200,6|0
480,352,201740,1,0
480,304,201831,1,0
480,256,201936,2,0,B|544:256|544:96|480:96,1,200,6|0
256,192,202663,5,0
256,192,202845,1,0
256,192,203026,1,0
256,192,203390,1,0
256,192,203754,1,0
256,192,203935,1,0
256,192,204299,1,0
256,192,204481,1,0
256,192,205572,12,0,206663
32,48,206845,6,0,B|48:64|64:48|64:48|80:64|96:48|96:48|112:64|128:48|128:48|144:64|160:48|160:48|176:64|192:48|192:48|208:64|224:48|224:48|240:64,1,200,4|0
416,48,207572,1,0
416,144,207754,1,0
416,352,208117,1,0
144,192,208481,5,0
256,80,208663,1,8
368,192,208845,1,0
256,304,209026,1,8
144,192,209208,1,0
256,80,209390,1,8
368,192,209572,1,0
256,304,209754,1,8
144,192,209935,1,0
256,80,210117,1,8
368,192,210299,1,8
48,336,210663,5,2
48,336,210845,1,2
48,336,211026,1,2
48,336,211208,1,0
240,368,211390,2,2,B|368:368|512:240|368:48|240:48|48:240|240:368,1,600
240,368,212663,1,8
336,336,212845,1,2
384,256,213026,1,8
352,160,213208,1,2
256,144,213390,1,8
176,192,213572,1,10
480,192,213936,1,8
480,192,214117,5,0
480,192,214299,1,2
32,192,214663,1,8
32,192,214845,1,0
32,192,215026,1,2
256,32,215390,1,8
368,240,215754,1,8
256,128,215935,1,0
144,240,216117,1,8
256,352,216299,1,0
368,240,216481,1,8
256,32,216845,5,0
32,192,217208,1,2
256,352,217572,1,2
480,192,217935,1,2
144,192,218299,1,0
256,80,218481,1,8
368,192,218663,1,0
256,304,218845,1,8
144,192,219026,1,0
256,80,219208,1,8
368,192,219390,1,8
144,304,219754,5,0
48,304,219935,1,2
48,208,220117,2,0,B|48:0,1,200,8|8
144,8,220663,1,2
240,8,220845,2,0,B|480:8,1,200,8|8
440,208,221572,1,10
440,208,221936,1,2
256,32,222299,5,0
256,32,222663,1,0
256,368,223026,1,8
352,336,223208,1,2
400,256,223390,1,8
368,160,223572,1,2
272,144,223754,1,8
192,192,223935,1,2
192,288,224117,1,8
96,288,224299,1,2
96,192,224481,1,10
288,240,224845,1,10
480,240,225208,1,10
256,8,225572,1,2
256,8,225754,5,2
208,88,225935,1,8
304,88,226117,1,2
256,280,226481,1,2
256,384,226663,1,8
32,192,227026,1,2
32,192,227208,1,8
32,192,227390,1,4
480,192,227754,1,0
480,192,227935,1,8
480,192,228104,1,4
256,192,228163,12,0,228845
32,352,229208,5,0
96,32,229572,1,0
160,352,229935,1,0
224,32,230299,1,0
224,32,230481,1,0
256,192,230663,1,0
288,352,230845,1,0
288,352,231026,1,0
352,32,231390,1,0
416,192,231572,1,0
480,32,231754,1,4
96,352,241208,6,2,B|112:336|112:336|128:352|144:336|144:336|160:352|176:336|176:336|192:352|208:336|208:336|224:352|240:336|240:336|256:352|272:336|272:336|288:352|304:336|304:336|320:352|336:336|336:336|352:352|368:336|368:336|384:352|400:336|400:336|416:352|432:336|432:336|448:352|464:336|464:336|480:352|496:336|480:320|480:320|496:304|480:288|480:288|496:272|480:256|480:256|496:240|480:224|480:224|496:208|480:192|480:192|496:176|480:160|480:160|496:144|480:128|480:128|496:112|480:96|480:96|496:80|480:64|480:64|496:48|480:32|464:48|464:48|448:32|432:48|432:48|416:32|400:48|400:48|384:32|368:48|368:48|352:32|336:48|336:48|320:32|304:48|304:48|288:32|272:48|272:48|256:32|240:48|240:48|224:32|208:48|208:48|192:32|176:48|176:48|160:32|144:48|144:48|128:32|112:48|112:48|96:32,2,1200,0|0|4
