osu file format v5

[General]
AudioFilename: Ryan_Leslie_-_How_It_Was_Supposed_To_Be_(FULL).mp3
AudioLeadIn: 0
PreviewTime: -1
Countdown: 1
SampleSet: Normal
StackLeniency: 0.7
Mode: 0
LetterboxInBreaks: 1

[Metadata]
Title:How It Was Supposed To Be [FULL]
Artist:Ryan leslie
Creator:Z-Tune
Version:Hard
Source:
Tags:

[Difficulty]
HPDrainRate:5
CircleSize:5
OverallDifficulty:5
SliderMultiplier:2.6
SliderTickRate:1

[Events]
//Background and Video events
0,0,"Ryan%20Leslie%20-%20Used%20To%20Be.jpg"
//Break Periods
//Storyboard Layer 0 (Background)
//Storyboard Layer 1 (Failing)
//Storyboard Layer 2 (Passing)
//Storyboard Layer 3 (Foreground)
//Storyboard Sound Samples
//Background Colour Transformations
3,100,163,162,255

[TimingPoints]
0,960,4,1,0,100,1,0

[HitObjects]
76,76,2880,1,4
145,196,3360,1,4
88,124,5440,1,2
185,231,6080,1,4
278,51,6400,2,2,B|399:52,1,260
157,255,8160,2,2,B|156:103,1,130
216,61,9120,2,2,B|396:62|396:70,1,173.333333333333
344,104,13600,1,2
172,258,14080,5,2
100,99,17120,1,6
256,195,17760,1,6
321,260,18080,1,2
56,86,20640,2,2,B|225:88|155:86,1,130
52,64,23520,1,2
214,60,23840,1,2
323,116,24000,1,2
321,236,24960,1,2
228,239,25280,1,2
127,188,25600,1,2
195,85,25920,1,2
323,85,26240,1,2
84,73,26560,1,2
256,196,26880,1,2
84,73,27520,2,2,B|317:77,1,260
196,256,28800,5,2
55,63,30240,2,2,B,1,86.6666666666667
104,93,31680,1,2
283,131,32160,1,2
308,258,32640,1,2
196,246,32800,1,2
156,70,33440,1,2
222,73,33600,1,2
353,76,33760,1,2
288,72,33920,1,2
415,79,34080,1,2
81,52,35200,2,0,B|168:50,1,43.3333333333333
192,61,36000,1,0
416,310,36160,1,0
416,310,36480,2,0,B,1,86.6666666666667
412,153,36960,5,0
45,64,37440,1,0
141,63,37600,2,0,B|142:63,1,43.3333333333333
256,192,38240,12,0,42240
36,70,42880,5,0
117,70,43040,1,0
216,68,43200,1,0
343,77,43360,1,0
456,163,43520,1,0
457,280,43680,1,0
282,279,43840,1,0
157,279,44000,1,0
52,280,44160,1,0
48,186,44320,1,0
165,180,44480,1,0
264,184,44640,2,0,B|457:183,1,260
24,68,45920,5,0
177,182,46080,1,0
340,99,46240,1,0
452,194,46400,1,0
451,320,46560,1,0
268,324,46720,1,0
128,322,46880,1,0
105,180,47040,1,0
96,62,47200,2,0,B|461:60|453:333|97:344|108:151,1,780
58,75,50400,1,0
271,92,50720,1,0
56,79,53280,1,0
181,77,53440,1,0
320,81,53600,1,0
454,82,53760,1,0
456,200,53920,1,0
461,323,54080,1,0
323,326,54240,1,0
201,324,54400,1,0
95,198,54560,1,0
231,194,54720,1,0
372,191,54880,1,0
364,84,55040,1,0
267,86,55200,1,0
148,88,55360,1,0
38,91,55520,1,0
44,204,55680,1,0
48,301,55840,1,0
165,300,56000,1,0
306,301,56160,1,0
415,300,56320,1,0
408,188,56480,1,0
282,195,56640,1,0
136,197,56800,1,0
44,200,56960,1,0
38,92,57120,1,0
116,92,57280,1,0
214,91,57440,1,0
298,90,57600,2,0,B|475:91|482:348|17:336|29:12|372:28|27:341|466:312|481:26|9:124|12:129,1,736.666666666667
15,61,61280,2,0,B,1,216.666666666667
328,65,62400,1,0
444,192,62720,1,0
100,62,64480,1,0
344,64,64640,1,0
378,268,64800,1,0
111,276,64960,1,0
240,171,65120,1,0
28,171,65760,2,0,B,1,260
404,56,67360,1,0
16,28,68160,2,0,B|460:27,1,476.666666666667
120,91,71040,1,0
120,283,71200,1,0
430,292,71360,1,0
424,79,71520,1,0
264,192,71680,1,0
39,48,73440,2,0,B,1,260
249,200,74880,1,0
50,151,75840,1,0
328,149,76000,1,0
484,348,76160,1,0
52,335,76320,1,0
228,30,76480,1,0
252,313,76800,1,0
366,46,77120,1,0
158,179,77280,1,0
