osu file format v14

[General]
AudioFilename: Ry Legit - Woody VIP.mp3
AudioLeadIn: 0
PreviewTime: 48074
Countdown: 1
SampleSet: Soft
StackLeniency: 0.7
Mode: 0
LetterboxInBreaks: 1
WidescreenStoryboard: 1

[Editor]
Bookmarks: 13253,19896,22789,25467,27503,34574,41324,50539,54396,65324,72717,103039
DistanceSpacing: 2
BeatDivisor: 8
GridSize: 4
TimelineZoom: 4.299998

[Metadata]
Title:Woody VIP
TitleUnicode:Woody VIP
Artist:Ry Legit
ArtistUnicode:Ry Legit
Creator:Bowzaa
Version:VIP
Source:
Tags:
BeatmapID:475780
BeatmapSetID:182536

[Difficulty]
HPDrainRate:6.5
CircleSize:4.5
OverallDifficulty:7.5
ApproachRate:9.4
SliderMultiplier:1.4
SliderTickRate:1

[Events]
//Background and Video events
0,0,"bg.jpg",0,0
//Break Periods
2,110096,116213
2,116953,121356
//Storyboard Layer 0 (Background)
//Storyboard Layer 1 (Fail)
//Storyboard Layer 2 (Pass)
//Storyboard Layer 3 (Foreground)
//Storyboard Sound Samples

[TimingPoints]
182,428.571428571429,4,2,0,100,1,0
13896,-66.6666666666667,4,2,0,100,0,0
48182,-100,4,2,0,100,0,0
49896,-66.6666666666667,4,2,0,100,0,0
55039,-166.666666666667,4,2,0,100,0,1
58467,-69.9300699300699,4,2,0,100,0,1
67574,-66.6666666666667,4,2,0,100,0,1
68753,-153.846153846154,4,2,0,100,0,1
72182,-108.695652173913,4,2,0,100,0,1
72182,-108.695652173913,4,2,0,100,0,1
73467,-133.333333333333,4,2,0,100,0,1
75182,-95.2380952380952,4,2,0,100,0,1
75610,-80,4,2,0,100,0,1
78610,-66.6666666666667,4,2,0,100,0,1
80860,-100,4,2,0,100,0,0
82467,-200,4,2,0,100,0,1
82467,-200,4,2,0,100,0,1
84074,-80,4,2,0,100,0,1
85896,-58.8235294117647,4,2,0,100,0,1
86592,-100,4,2,0,100,0,1
89324,-117.647058823529,4,2,0,100,0,1
90182,-66.6666666666667,4,2,0,100,0,1
92753,-111.111111111111,4,2,0,100,0,1
96182,-100,4,2,0,100,0,1
103467,-66.6666666666667,4,2,0,100,0,1
103896,-100,4,2,0,100,0,1
106467,-133.333333333333,4,2,0,100,0,1
109949,-66.6666666666667,4,2,0,100,0,0
137324,-66.6666666666667,4,2,0,100,0,1
138610,-50,4,2,0,100,0,1
140324,-133.333333333333,4,2,0,100,0,1
147235,-100,4,2,0,5,0,1
147289,-133.333333333333,4,2,0,100,0,1
147396,-100,4,2,0,5,0,1
147503,-100,4,2,0,100,0,1
147610,-100,4,2,0,100,0,1
152324,-50,4,2,0,100,0,1
152753,-100,4,2,0,100,0,1
157467,-66.6666666666667,4,2,0,100,0,1
157896,-100,4,2,0,100,0,1
160896,-50,4,2,0,100,0,1
160949,-50,4,2,0,5,0,1
161057,-50,4,2,0,100,0,1
161110,-50,4,2,0,5,0,1
161217,-50,4,2,0,100,0,1
162182,-100,4,2,0,100,0,1
163092,-100,4,2,0,100,0,0
164753,-100,4,2,0,100,0,1
165610,-80,4,2,0,100,0,1
169467,-80,4,2,0,100,0,1
172896,-50,4,2,0,100,0,1

[HitObjects]
156,100,13896,6,0,P|140:136|184:200,1,105.000004005432
208,104,14324,2,0,P|224:68|288:36,1,105.000004005432
228,188,14753,1,0,0:0:0:0:
360,100,14967,1,0,0:0:0:0:
236,200,15182,1,0,0:0:0:0:
364,292,15396,1,0,0:0:0:0:
432,148,15610,6,0,P|440:104|400:40,1,105.000004005432
392,168,16039,2,0,P|376:232|328:264,1,105.000004005432
300,156,16467,1,0,0:0:0:0:
164,76,16682,1,0,0:0:0:0:
164,232,16896,1,0,0:0:0:0:
308,296,17110,1,0,0:0:0:0:
128,112,17324,6,0,P|168:68|224:52,1,105.000004005432
156,152,17753,2,0,P|154:228|186:264,1,105.000004005432
252,116,18182,1,0,0:0:0:0:
380,28,18396,1,0,0:0:0:0:
360,184,18610,1,0,0:0:0:0:
292,44,18824,1,0,0:0:0:0:
416,144,19039,6,0,P|400:208|364:244,1,105.000004005432
384,112,19467,2,0,P|360:68|320:32,1,105.000004005432
232,164,19896,1,0,0:0:0:0:
380,216,20110,1,0,0:0:0:0:
232,264,20324,1,0,0:0:0:0:
380,320,20539,1,0,0:0:0:0:
160,272,20753,6,0,P|196:236|192:172,1,105.000004005432
248,188,21182,2,0,P|248:128|292:92,1,105.000004005432
144,184,21610,1,0,0:0:0:0:
256,76,21824,1,0,0:0:0:0:
276,232,22039,1,0,0:0:0:0:
144,184,22253,1,0,0:0:0:0:
372,24,22467,6,0,P|356:72|368:128,1,105.000004005432
316,132,22896,2,0,P|332:168|304:232,1,105.000004005432
164,172,23324,1,0,0:0:0:0:
224,316,23539,1,0,0:0:0:0:
196,160,23753,1,0,0:0:0:0:
180,316,23967,1,0,0:0:0:0:
324,248,24182,6,0,P|340:196|380:168,1,105.000004005432
340,140,24610,2,0,P|376:116|388:48,1,105.000004005432
232,52,25039,1,0,0:0:0:0:
144,180,25253,1,0,0:0:0:0:
252,296,25467,1,0,0:0:0:0:
388,216,25682,1,0,0:0:0:0:
256,192,25896,12,0,27396,0:0:0:0:
160,136,27610,6,0,P|168:176|312:212,1,210.000008010865
380,208,28360,1,0,0:0:0:0:
404,256,28467,1,0,0:0:0:0:
452,164,28682,1,0,0:0:0:0:
272,56,29110,5,0,0:0:0:0:
232,64,29324,2,0,P|176:88|120:220,1,210.000008010865
216,176,29967,1,0,0:0:0:0:
360,36,30182,1,0,0:0:0:0:
416,124,30396,1,0,0:0:0:0:
156,84,30610,5,0,0:0:0:0:
208,176,30824,1,0,0:0:0:0:
128,248,31039,6,0,P|176:288|312:252,1,210.000008010865
368,168,31682,1,0,0:0:0:0:
316,76,31896,1,0,0:0:0:0:
212,64,32110,1,0,0:0:0:0:
128,128,32324,1,0,0:0:0:0:
140,232,32539,1,0,0:0:0:0:
392,80,32753,6,0,P|392:140|280:240,1,210.000008010865
188,212,33396,1,0,0:0:0:0:
128,124,33610,1,0,0:0:0:0:
188,36,33824,1,0,0:0:0:0:
292,28,34039,1,0,0:0:0:0:
356,112,34253,1,0,0:0:0:0:
252,92,34467,6,0,B|236:88|236:88|232:100|232:100|228:88|228:88|224:100|224:100|220:88|220:88|216:100|216:100|212:88|212:88|208:100|208:100|204:88|204:88|164:112|168:180,1,210.000008010865
208,264,35110,1,0,0:0:0:0:
312,244,35324,1,0,0:0:0:0:
208,232,35539,1,0,0:0:0:0:
308,268,35753,1,0,0:0:0:0:
220,208,35967,1,0,0:0:0:0:
264,304,36182,6,0,B|264:296|264:296|256:296|256:296|260:288|260:288|252:288|252:288|256:280|256:280|248:280|248:280|256:272|256:272|248:272|248:272|232:240|268:180|332:168,1,210.000008010865
228,80,36824,1,0,0:0:0:0:
332,56,37039,1,0,0:0:0:0:
240,104,37253,1,0,0:0:0:0:
308,24,37467,1,0,0:0:0:0:
268,120,37682,1,0,0:0:0:0:
356,64,37896,6,0,B|420:108|420:188|348:256,1,210.000008010865
276,180,38539,1,0,0:0:0:0:
204,104,38753,1,0,0:0:0:0:
180,204,38967,1,0,0:0:0:0:
204,100,39182,1,0,0:0:0:0:
276,176,39396,1,0,0:0:0:0:
176,144,39610,6,0,B|172:160|172:160|180:160|180:160|172:164|172:164|180:164|180:164|172:168|172:168|180:168|180:168|172:172|172:172|180:172|180:172|172:176|172:176|176:200|280:240|264:144,1,210.000008010865
300,68,40253,1,0,0:0:0:0:
376,140,40467,1,0,0:0:0:0:
300,216,40682,1,0,0:0:0:0:
224,144,40896,1,0,0:0:0:0:
300,72,41110,1,0,0:0:0:0:
256,52,41324,5,0,0:0:0:0:
148,88,41753,1,8,0:0:0:0:
256,112,42182,1,0,0:0:0:0:
148,148,42610,1,8,0:0:0:0:
256,168,43039,1,0,0:0:0:0:
148,204,43467,1,8,0:0:0:0:
256,224,43896,1,0,0:0:0:0:
148,260,44324,1,8,0:0:0:0:
452,160,44753,5,0,0:0:0:0:
452,224,44967,1,8,0:0:0:0:
396,128,45182,1,0,0:0:0:0:
396,256,45396,1,8,0:0:0:0:
344,92,45610,1,0,0:0:0:0:
344,292,45824,1,8,0:0:0:0:
292,52,46039,1,0,0:0:0:0:
292,328,46253,1,8,0:0:0:0:
76,192,46467,5,0,0:0:0:0:
224,188,46682,1,8,0:0:0:0:
96,132,46896,1,0,0:0:0:0:
196,240,47110,1,8,0:0:0:0:
152,96,47324,1,0,0:0:0:0:
140,260,47539,1,8,0:0:0:0:
208,124,47753,1,0,0:0:0:0:
96,240,47967,1,8,0:0:0:0:
352,64,48182,6,0,P|376:76|392:88,3,35,0|0|0|0,0:0|0:0|0:0|0:0,0:0:0:0:
408,104,48610,1,0,0:0:0:0:
432,140,48717,1,0,0:0:0:0:
436,180,48824,1,0,0:0:0:0:
424,220,48932,1,0,0:0:0:0:
404,256,49039,6,0,P|392:272|372:280,3,35,0|0|0|0,0:0|0:0|0:0|0:0,0:0:0:0:
336,288,49467,1,0,0:0:0:0:
296,284,49574,1,0,0:0:0:0:
256,276,49682,1,0,0:0:0:0:
220,252,49789,1,0,0:0:0:0:
184,216,49896,6,0,L|160:192,3,26.2500010013581
204,180,50110,2,0,L|228:200,3,26.2500010013581
220,152,50324,2,0,L|196:128,3,26.2500010013581
244,132,50539,2,0,L|268:160,3,26.2500010013581
280,192,50753,6,0,L|256:168,3,26.2500010013581
300,156,50967,2,0,L|324:176,3,26.2500010013581
316,128,51182,2,0,L|292:104,3,26.2500010013581
340,108,51396,2,0,L|364:136,4,26.2500010013581
256,192,51932,12,0,54503,0:0:0:0:
388,88,55039,6,0,B|316:100|316:100|276:112|256:148|272:192|292:220|336:220|376:212|376:212|400:208,1,304.499990707398,0|8,0:0|0:0,0:0:0:0:
460,296,56753,5,8,0:0:0:0:
324,112,56967,1,8,0:0:0:0:
464,44,57182,1,8,0:0:0:0:
340,340,57396,1,8,0:0:0:0:
112,136,57610,5,8,0:0:0:0:
152,144,57717,1,8,0:0:0:0:
192,152,57824,1,8,0:0:0:0:
160,180,57932,1,8,0:0:0:0:
124,200,58039,1,8,0:0:0:0:
112,136,58253,1,8,0:0:0:0:
440,136,58467,6,0,B|292:32|292:32|264:136|192:232,1,400.400005498657,0|8,0:0|0:0,0:0:0:0:
160,264,59432,1,8,0:0:0:0:
112,276,59539,1,8,0:0:0:0:
68,256,59646,1,8,0:0:0:0:
32,220,59753,1,8,0:0:0:0:
24,172,59860,1,8,0:0:0:0:
40,124,59967,1,8,0:0:0:0:
72,84,60074,1,8,0:0:0:0:
200,52,60182,5,8,0:0:0:0:
248,161,60396,1,8,0:0:0:0:
298,52,60610,1,8,0:0:0:0:
356,156,60824,1,8,0:0:0:0:
428,60,61039,5,8,0:0:0:0:
400,104,61146,1,8,0:0:0:0:
460,104,61253,1,8,0:0:0:0:
464,224,61467,1,8,0:0:0:0:
364,288,61682,1,8,0:0:0:0:
208,288,61896,2,8,B|128:176|128:176|244:56|244:56|276:144,1,350.350004811325,8|0,0:0|0:0,0:0:0:0:
264,184,62753,6,0,L|324:160,1,50.0500006873322,8|0,0:0|0:0,0:0:0:0:
300,128,62967,2,0,L|360:104,1,50.0500006873322,8|0,0:0|0:0,0:0:0:0:
360,144,63182,2,0,L|412:120,1,50.0500006873322,8|0,0:0|0:0,0:0:0:0:
392,88,63396,2,0,L|444:64,1,50.0500006873322,8|0,0:0|0:0,0:0:0:0:
380,48,63610,6,0,L|360:104,2,50.0500006873322,8|0|0,0:0|0:0|0:0,0:0:0:0:
280,100,64039,1,8,0:0:0:0:
424,128,64253,1,8,0:0:0:0:
360,152,64467,5,8,0:0:0:0:
312,164,64574,1,8,0:0:0:0:
392,224,64682,1,8,0:0:0:0:
392,172,64789,1,8,0:0:0:0:
360,192,64896,2,0,L|236:332,1,150.150002061996,8|0,0:0|0:0,0:0:0:0:
259,306,65324,2,0,B|276:196|224:156|120:164|40:304,1,350.350004811325
32,320,66182,5,8,0:0:0:0:
64,360,66289,1,8,0:0:0:0:
112,368,66396,1,8,0:0:0:0:
160,360,66503,1,8,0:0:0:0:
196,328,66610,1,8,0:0:0:0:
208,280,66717,1,8,0:0:0:0:
184,200,66824,5,8,0:0:0:0:
172,156,66932,1,8,0:0:0:0:
176,112,67039,5,8,0:0:0:0:
196,72,67146,1,8,0:0:0:0:
232,44,67253,1,8,0:0:0:0:
276,32,67360,1,8,0:0:0:0:
320,44,67467,1,8,0:0:0:0:
360,72,67574,2,8,L|424:36,2,52.5000020027161
380,116,67896,1,8,0:0:0:0:
372,296,68110,1,8,0:0:0:0:
376,200,68324,2,0,L|300:184,2,52.5000020027161,8|8|8,0:0|0:0|0:0,0:0:0:0:
200,124,68753,6,0,L|240:108,7,22.7499989585877,8|8|8|8|8|8|8|8,0:0|0:0|0:0|0:0|0:0|0:0|0:0|0:0,0:0:0:0:
212,148,69610,1,8,0:0:0:0:
276,124,69824,1,8,0:0:0:0:
300,184,70039,1,8,0:0:0:0:
232,208,70253,1,8,0:0:0:0:
224,80,70467,1,8,0:0:0:0:
344,132,70682,1,8,0:0:0:0:
284,248,70896,1,8,0:0:0:0:
172,188,71110,1,8,0:0:0:0:
312,44,71324,1,8,0:0:0:0:
384,224,71539,1,8,0:0:0:0:
192,280,71753,1,8,0:0:0:0:
132,88,71967,5,12,0:0:0:0:
120,76,72074,1,12,0:0:0:0:
104,64,72182,2,0,B|188:8|188:8|200:96|232:132,1,225.399992433472,4|0,0:0|0:0,0:0:0:0:
256,88,73039,1,8,0:0:0:0:
284,52,73146,1,8,0:0:0:0:
336,40,73253,1,8,0:0:0:0:
384,44,73360,1,8,0:0:0:0:
408,72,73467,6,8,L|404:96,5,17.500000667572,8|8|8|8|8|8,0:0|0:0|0:0|0:0|0:0|0:0,0:0:0:0:
388,120,73896,1,8,0:0:0:0:
396,172,74003,1,8,0:0:0:0:
432,212,74110,1,8,0:0:0:0:
456,260,74217,1,8,0:0:0:0:
428,304,74324,1,8,0:0:0:0:
376,320,74432,1,8,0:0:0:0:
324,320,74539,1,8,0:0:0:0:
276,296,74646,1,8,0:0:0:0:
236,264,74753,1,8,0:0:0:0:
260,184,74967,1,8,0:0:0:0:
260,184,75182,6,0,B|276:124|228:112|240:68,1,110.249996635437,4|0,0:0|0:0,0:0:0:0:
235,73,75610,2,0,B|72:48|72:48|112:144|112:144|104:240,1,350,0|8,0:0|0:0,0:0:0:0:
152,40,76682,1,8,0:0:0:0:
200,228,76896,1,8,0:0:0:0:
256,40,77110,1,8,0:0:0:0:
316,224,77324,2,0,L|316:280,2,43.75,0|0|0,0:0|0:0|0:0,0:0:0:0:
340,28,77753,5,8,0:0:0:0:
480,172,77967,1,8,0:0:0:0:
312,320,78182,1,8,0:0:0:0:
180,148,78396,1,8,0:0:0:0:
340,120,78610,2,0,B|328:120|328:120|336:132|336:132|320:132|320:132|328:144|328:144|312:144|312:144|320:156|320:156|304:156|304:156|312:168|312:168|296:168|296:168|308:180|308:180|292:180|292:180|304:192|304:192|285:192,1,157.500006008148,4|0,0:0|0:0,0:0:0:0:
260,168,79039,6,0,B|112:168|112:168|76:168|132:216|92:264|92:264|220:264,1,367.500014019013,0|8,0:0|0:0,0:0:0:0:
272,264,79896,1,8,0:0:0:0:
324,248,80003,1,8,0:0:0:0:
364,212,80110,1,8,0:0:0:0:
384,164,80217,1,8,0:0:0:0:
384,112,80324,1,8,0:0:0:0:
332,128,80432,1,8,0:0:0:0:
284,144,80539,1,8,0:0:0:0:
236,164,80646,1,8,0:0:0:0:
256,192,80860,12,0,81985,0:0:0:0:
436,192,82467,6,0,B|436:140|436:140|424:108|352:88|300:100|300:100|268:144,1,253.75,0|8,0:0|0:0,0:0:0:0:
128,240,84182,1,8,0:0:0:0:
288,340,84396,1,8,0:0:0:0:
128,336,84610,1,8,0:0:0:0:
288,236,84824,1,8,0:0:0:0:
432,216,85039,6,0,L|408:172,1,43.75
364,196,85253,2,0,L|340:160,1,43.75
288,160,85467,1,0,0:0:0:0:
256,104,85682,1,0,0:0:0:0:
128,104,85896,6,0,B|164:96|197:82|202:64|196:44|168:24|144:12|100:12|52:36|32:64|20:84|28:140|52:168|76:184|104:188|176:172,1,416.500007944107,0|8,0:0|0:0,0:0:0:0:
204,156,86753,1,0,0:0:0:0:
196,212,86860,1,0,0:0:0:0:
216,264,86967,1,0,0:0:0:0:
268,288,87074,1,0,0:0:0:0:
324,288,87182,1,0,0:0:0:0:
372,260,87289,1,0,0:0:0:0:
396,208,87396,1,0,0:0:0:0:
380,156,87503,1,0,0:0:0:0:
272,76,87610,1,8,0:0:0:0:
316,324,87824,1,8,0:0:0:0:
376,76,88039,1,8,0:0:0:0:
212,324,88253,1,8,0:0:0:0:
292,192,88467,6,0,L|256:228,2,35,0|0|0,0:0|0:0|0:0,0:0:0:0:
184,232,88896,1,8,0:0:0:0:
288,300,89110,1,8,0:0:0:0:
400,256,89324,6,0,B|344:196|288:208|260:128,1,193.375003688335,4|0,0:0|0:0,0:0:0:0:
224,152,90182,2,0,L|164:176,1,52.5
296,148,90396,2,0,L|348:128,1,52.5
252,96,90610,2,0,L|204:68,1,52.5,0|0,0:0|0:0,0:0:0:0:
260,208,90824,2,0,L|316:240,1,52.5
428,168,91039,5,8,0:0:0:0:
428,116,91146,1,8,0:0:0:0:
428,64,91253,1,8,0:0:0:0:
368,116,91467,1,0,0:0:0:0:
488,116,91682,1,0,0:0:0:0:
112,184,91896,6,0,B|108:148|144:160,3,52.5000020027161,8|8|8|8,0:0|0:0|0:0|0:0,0:0:0:0:
180,176,92324,2,0,B|188:176|188:176|192:168|192:168|196:180|196:180|200:168|200:168|204:180|204:180|208:168|208:168|212:180|212:180|216:168|216:168|220:180|220:180|224:168|224:168|228:180|228:180|232:172|232:172|252:172,1,157.500006008148,4|0,0:0|0:0,0:0:0:0:
260,173,92753,2,0,L|409:328,1,210.000008010865,0|0,0:0|0:0,0:0:0:0:
424,288,93610,5,8,0:0:0:0:
448,248,93717,1,8,0:0:0:0:
452,200,93824,1,8,0:0:0:0:
416,184,93932,1,8,0:0:0:0:
396,148,94039,5,8,0:0:0:0:
360,128,94146,1,8,0:0:0:0:
320,116,94253,1,8,0:0:0:0:
288,144,94360,1,8,0:0:0:0:
252,128,94467,5,8,0:0:0:0:
212,128,94574,1,8,0:0:0:0:
176,148,94682,1,8,0:0:0:0:
180,188,94789,1,8,0:0:0:0:
148,212,94896,5,8,0:0:0:0:
144,252,95003,1,8,0:0:0:0:
156,292,95110,1,8,0:0:0:0:
204,300,95217,1,8,0:0:0:0:
208,352,95324,5,8,0:0:0:0:
437,80,95539,1,8,0:0:0:0:
332,188,95753,1,8,0:0:0:0:
367,152,95860,1,8,0:0:0:0:
402,116,95967,1,8,0:0:0:0:
148,216,96182,6,0,B|164:148|164:148|180:120|180:120|216:136|216:136|232:116|232:116|248:124|248:124|264:112|264:112|256:88|256:88|276:80|284:72,2,262.5,12|0|12,0:0|0:0|0:0,0:0:0:0:
292,296,97896,1,8,0:0:0:0:
172,300,98110,1,8,0:0:0:0:
352,108,98324,1,8,0:0:0:0:
348,248,98539,1,8,0:0:0:0:
252,132,98753,5,8,0:0:0:0:
212,92,98860,1,8,0:0:0:0:
156,144,98967,1,8,0:0:0:0:
195,183,99074,1,8,0:0:0:0:
196,72,99182,1,8,0:0:0:0:
196,183,99396,1,8,0:0:0:0:
212,228,99610,6,0,B|332:308|332:308|424:208,1,280,4|8,0:0|0:0,0:0:0:0:
456,168,100574,1,8,0:0:0:0:
488,124,100682,1,8,0:0:0:0:
512,72,100789,1,8,0:0:0:0:
460,72,100896,1,8,0:0:0:0:
408,72,101003,1,8,0:0:0:0:
356,72,101110,1,8,0:0:0:0:
304,72,101217,1,8,0:0:0:0:
304,124,101324,5,8,0:0:0:0:
384,352,101539,1,8,0:0:0:0:
192,124,101753,1,8,0:0:0:0:
488,352,101967,1,8,0:0:0:0:
312,208,102182,5,8,0:0:0:0:
280,240,102289,1,8,0:0:0:0:
248,272,102396,1,8,0:0:0:0:
228,192,102610,1,8,0:0:0:0:
332,292,102824,1,8,0:0:0:0:
76,76,103039,6,8,P|128:64|152:128,1,122.5,4|0,0:0|0:0,0:0:0:0:
155,117,103467,2,0,P|208:164|275:127,1,157.5,8|0,0:0|0:0,0:0:0:0:
400,48,103896,6,0,L|436:28,1,35,8|0,0:0|0:0,0:0:0:0:
436,124,104110,2,0,P|464:160|468:164,1,35,8|0,0:0|0:0,0:0:0:0:
364,156,104324,2,0,L|324:180,1,35,8|0,0:0|0:0,0:0:0:0:
328,80,104539,2,0,L|312:48,1,35,8|0,0:0|0:0,0:0:0:0:
204,292,104753,6,0,P|192:296|176:280,2,35,8|8|8,0:0|0:0|0:0,0:0:0:0:
216,232,105182,1,8,0:0:0:0:
164,340,105396,1,8,0:0:0:0:
104,156,105610,5,8,0:0:0:0:
120,108,105717,1,8,0:0:0:0:
160,76,105824,1,8,0:0:0:0:
208,64,105932,1,8,0:0:0:0:
248,64,106039,2,0,B|267:63|267:63|272:76|272:76|276:64|276:64|280:76|280:76|284:64|284:64|288:76|288:76|292:64|292:64|296:76|296:76|312:76,1,122.5,4|0,0:0|0:0,0:0:0:0:
336,96,106467,6,0,B|424:108|424:108|348:176,1,183.750007009506,4|0,0:0|0:0,0:0:0:0:
356,208,107324,1,8,0:0:0:0:
360,244,107432,1,8,0:0:0:0:
340,276,107539,1,8,0:0:0:0:
308,296,107646,1,8,0:0:0:0:
272,300,107753,1,8,0:0:0:0:
236,292,107860,1,8,0:0:0:0:
204,272,107967,5,8,0:0:0:0:
180,244,108074,1,8,0:0:0:0:
164,212,108182,1,8,0:0:0:0:
160,176,108289,1,8,0:0:0:0:
176,144,108396,1,8,0:0:0:0:
200,116,108503,5,8,0:0:0:0:
232,96,108610,1,8,0:0:0:0:
268,84,108717,1,8,0:0:0:0:
304,80,108824,1,8,0:0:0:0:
336,60,108932,1,8,0:0:0:0:
352,28,109039,1,8,0:0:0:0:
108,100,109253,5,8,0:0:0:0:
188,44,109467,1,8,0:0:0:0:
168,60,109574,1,8,0:0:0:0:
144,76,109682,1,8,0:0:0:0:
256,192,109896,5,4,0:0:0:0:
256,192,116753,5,0,0:0:0:0:
256,192,121896,12,8,123396,0:0:0:0:
212,240,123610,5,0,0:0:0:0:
256,128,123824,1,0,0:0:0:0:
304,236,124039,1,0,0:0:0:0:
256,192,124253,1,8,0:0:0:0:
196,260,124467,5,0,0:0:0:0:
256,96,124682,1,0,0:0:0:0:
324,260,124896,1,0,0:0:0:0:
256,192,125110,1,8,0:0:0:0:
176,288,125324,5,0,0:0:0:0:
256,60,125539,1,0,0:0:0:0:
344,288,125753,1,0,0:0:0:0:
256,192,125967,1,8,0:0:0:0:
148,316,126182,5,0,0:0:0:0:
256,24,126396,1,0,0:0:0:0:
372,316,126610,1,0,0:0:0:0:
256,192,126824,1,8,0:0:0:0:
324,192,127039,5,0,0:0:0:0:
256,256,127253,1,0,0:0:0:0:
192,192,127467,1,0,0:0:0:0:
256,128,127682,1,8,0:0:0:0:
332,112,127896,5,0,0:0:0:0:
332,269,128110,1,0,0:0:0:0:
174,269,128324,1,0,0:0:0:0:
174,110,128539,1,8,0:0:0:0:
256,28,128753,5,0,0:0:0:0:
404,176,128967,1,0,0:0:0:0:
255,324,129182,1,0,0:0:0:0:
106,175,129396,1,8,0:0:0:0:
388,28,129610,5,0,0:0:0:0:
388,364,129824,1,0,0:0:0:0:
100,364,130039,1,0,0:0:0:0:
100,28,130253,1,8,0:0:0:0:
156,216,130467,5,0,0:0:0:0:
160,40,130682,1,0,0:0:0:0:
408,132,130896,1,0,0:0:0:0:
408,288,131110,1,8,0:0:0:0:
212,272,131324,5,0,0:0:0:0:
224,88,131539,1,0,0:0:0:0:
468,176,131753,1,0,0:0:0:0:
468,336,131967,1,8,0:0:0:0:
64,116,132182,5,0,0:0:0:0:
248,32,132396,1,0,0:0:0:0:
216,236,132610,1,0,0:0:0:0:
180,120,132824,1,8,0:0:0:0:
456,112,133039,5,0,0:0:0:0:
328,268,133253,1,0,0:0:0:0:
292,88,133467,1,0,0:0:0:0:
368,164,133682,1,8,0:0:0:0:
400,328,133896,5,8,0:0:0:0:
328,208,134110,1,8,0:0:0:0:
264,328,134324,1,8,0:0:0:0:
200,208,134539,1,8,0:0:0:0:
452,88,134753,5,8,0:0:0:0:
432,132,134860,1,8,0:0:0:0:
400,164,134967,1,8,0:0:0:0:
356,180,135074,1,8,0:0:0:0:
308,184,135182,1,8,0:0:0:0:
260,184,135289,1,8,0:0:0:0:
212,192,135396,1,8,0:0:0:0:
164,208,135503,1,8,0:0:0:0:
124,244,135610,1,4,0:0:0:0:
256,192,135771,12,0,137003,0:0:0:0:
256,48,137324,5,0,0:0:0:0:
368,185,137539,1,0,0:0:0:0:
405,222,137646,1,0,0:0:0:0:
367,259,137753,1,0,0:0:0:0:
64,124,137967,1,0,0:0:0:0:
480,124,138182,1,0,0:0:0:0:
64,312,138396,1,0,0:0:0:0:
480,316,138610,6,0,B|460:296|460:296|444:272|444:272|408:280|408:280|400:260|400:260|396:256|396:256|400:248|400:248|396:244|396:244|412:224|412:224|410:207|410:207|356:212,1,210
184,328,139039,1,0,0:0:0:0:
396,40,139253,1,0,0:0:0:0:
276,116,139467,1,0,0:0:0:0:
228,128,139574,1,0,0:0:0:0:
208,172,139682,1,0,0:0:0:0:
156,36,139896,1,0,0:0:0:0:
348,340,140110,1,0,0:0:0:0:
400,156,140324,6,0,L|420:160,1,17.5
348,188,140485,2,0,L|336:208,1,17.5
348,128,140646,2,0,L|336:112,1,17.5
268,208,140753,5,0,0:0:0:0:
264,72,140967,1,0,0:0:0:0:
260,128,141074,1,0,0:0:0:0:
216,92,141182,1,0,0:0:0:0:
308,72,141396,1,0,0:0:0:0:
212,316,141610,1,0,0:0:0:0:
476,36,141824,1,0,0:0:0:0:
32,352,142039,2,0,B|40:352|40:352|40:344|40:344|48:344|48:344|48:336|48:336|56:336|56:336|56:328|56:328|64:328|64:328|64:320|64:320|72:320|72:320|72:312|72:312|80:312|80:312|80:304|80:304|88:304|88:304|88:296|88:296|96:296,1,105
344,312,142467,5,0,0:0:0:0:
144,96,142682,1,0,0:0:0:0:
168,120,142789,1,0,0:0:0:0:
192,144,142896,1,0,0:0:0:0:
352,100,143110,5,0,0:0:0:0:
168,312,143324,1,0,0:0:0:0:
352,100,143539,1,0,0:0:0:0:
327,124,143646,1,0,0:0:0:0:
302,148,143753,2,0,B|310:140|310:140|310:136|310:136|314:136|314:136|314:132|314:132|318:132|318:132|318:128|318:128|322:128|322:128|322:124|322:124|326:124|326:124|326:120|326:120|330:120|330:120|330:116|330:116|334:116|334:116|334:112|334:112|338:112|338:112|338:108|338:108|342:108|342:108|342:104|342:104|346:104|346:104|346:100|346:100|350:100|350:100|350:96|350:96|354:92,1,87.5
200,48,144182,5,0,0:0:0:0:
164,52,144289,1,0,0:0:0:0:
132,64,144396,1,0,0:0:0:0:
108,88,144503,1,0,0:0:0:0:
96,120,144610,1,0,0:0:0:0:
92,156,144717,1,0,0:0:0:0:
92,192,144824,1,0,0:0:0:0:
108,224,144932,1,0,0:0:0:0:
132,248,145039,5,0,0:0:0:0:
160,268,145146,1,0,0:0:0:0:
196,276,145253,1,0,0:0:0:0:
232,272,145360,1,0,0:0:0:0:
312,204,145467,2,0,L|328:184,1,23.3333333333333,0|0,0:0|0:0,0:0:0:0:
368,280,145628,2,0,L|392:296,1,23.3333333333333
424,192,145789,1,0,0:0:0:0:
252,272,145896,5,0,0:0:0:0:
280,272,146003,1,0,0:0:0:0:
304,268,146110,1,0,0:0:0:0:
336,260,146217,1,0,0:0:0:0:
364,240,146324,1,0,0:0:0:0:
388,216,146432,1,0,0:0:0:0:
396,184,146539,1,0,0:0:0:0:
400,148,146646,1,0,0:0:0:0:
400,112,146753,1,0,0:0:0:0:
396,76,146860,5,0,0:0:0:0:
368,52,146967,1,0,0:0:0:0:
336,40,147074,1,0,0:0:0:0:
284,104,147182,2,0,L|276:124,1,13.125000500679
232,176,147342,2,0,L|216:192,1,13.125000500679
144,188,147503,1,0,0:0:0:0:
72,120,147610,5,0,0:0:0:0:
80,84,147717,1,0,0:0:0:0:
96,52,147824,1,0,0:0:0:0:
128,40,147932,1,0,0:0:0:0:
164,40,148039,1,0,0:0:0:0:
192,60,148146,1,0,0:0:0:0:
204,92,148253,1,0,0:0:0:0:
208,128,148360,1,0,0:0:0:0:
212,164,148467,2,0,L|288:160,2,70
292,192,148949,2,0,B|300:200|300:200|308:200|308:200|300:204|300:204|308:204|308:204|300:208|300:208|308:208|308:208|300:212|300:212|308:212|308:212|300:216|300:216|308:216|308:216|300:220|300:220|308:220|308:220|312:232,1,105
328,252,149324,5,0,0:0:0:0:
364,268,149432,1,0,0:0:0:0:
400,260,149539,1,0,0:0:0:0:
432,236,149646,1,0,0:0:0:0:
448,200,149753,1,0,0:0:0:0:
448,160,149860,1,0,0:0:0:0:
428,128,149967,1,0,0:0:0:0:
392,112,150074,1,0,0:0:0:0:
328,68,150182,2,0,L|308:56,1,17.5
280,140,150342,2,0,L|256:152,1,17.5
188,48,150503,1,0,0:0:0:0:
212,76,150610,6,0,B|228:92|228:92|228:136|228:136|228:180|228:180|208:212,1,140
244,316,151253,1,0,0:0:0:0:
196,336,151360,1,0,0:0:0:0:
148,316,151467,1,0,0:0:0:0:
288,40,151682,1,0,0:0:0:0:
372,340,151896,1,0,0:0:0:0:
456,44,152110,1,0,0:0:0:0:
200,260,152324,6,0,B|136:240|104:252|104:252|72:216|72:216|84:168|84:168|164:136|164:136,1,280
364,120,152967,1,0,0:0:0:0:
256,48,153182,1,0,0:0:0:0:
256,84,153289,1,0,0:0:0:0:
256,120,153396,1,0,0:0:0:0:
184,296,153610,5,0,0:0:0:0:
328,296,153824,1,0,0:0:0:0:
256,296,154039,6,0,L|256:248,2,46.6666666666667,0|0|0,0:0|0:0|0:0,0:0:0:0:
72,64,154467,5,0,0:0:0:0:
188,96,154682,1,0,0:0:0:0:
172,140,154789,1,0,0:0:0:0:
128,156,154896,1,0,0:0:0:0:
216,264,155110,5,0,0:0:0:0:
272,60,155324,1,0,0:0:0:0:
448,60,155539,1,0,0:0:0:0:
436,96,155753,2,0,B|400:180|392:192|392:192|396:200|396:200|392:200|392:200|392:204|392:204|388:204|388:204|388:208|388:208|380:212,1,140
364,44,156396,1,0,0:0:0:0:
344,88,156503,1,0,0:0:0:0:
320,128,156610,1,0,0:0:0:0:
256,44,156824,5,0,0:0:0:0:
256,44,157039,1,0,0:0:0:0:
112,52,157253,5,0,0:0:0:0:
152,96,157360,1,0,0:0:0:0:
196,132,157467,2,0,B|280:208|280:208|280:304,1,210.000008010865
244,320,158003,5,0,0:0:0:0:
208,312,158110,1,0,0:0:0:0:
172,300,158217,1,0,0:0:0:0:
144,276,158324,1,0,0:0:0:0:
124,244,158432,1,0,0:0:0:0:
120,208,158539,1,0,0:0:0:0:
120,172,158646,1,0,0:0:0:0:
132,140,158753,5,0,0:0:0:0:
160,116,158860,1,0,0:0:0:0:
192,100,158967,1,0,0:0:0:0:
228,96,159074,1,0,0:0:0:0:
312,60,159182,6,0,L|336:48,1,17.5
336,152,159342,2,0,L|360:168,1,17.5
412,76,159503,1,0,0:0:0:0:
440,104,159610,5,0,0:0:0:0:
452,136,159717,1,0,0:0:0:0:
460,172,159824,1,0,0:0:0:0:
464,208,159932,1,0,0:0:0:0:
460,244,160039,1,0,0:0:0:0:
444,276,160146,1,0,0:0:0:0:
416,296,160253,1,0,0:0:0:0:
384,308,160360,1,0,0:0:0:0:
348,312,160467,5,0,0:0:0:0:
316,304,160574,1,0,0:0:0:0:
288,284,160682,1,0,0:0:0:0:
272,252,160789,1,0,0:0:0:0:
192,172,160896,2,0,L|224:140,1,35
256,36,161057,2,0,L|256:80,1,35
284,136,161217,1,0,0:0:0:0:
256,120,161324,5,0,0:0:0:0:
220,120,161432,1,0,0:0:0:0:
184,124,161539,1,0,0:0:0:0:
152,140,161646,1,0,0:0:0:0:
132,168,161753,1,0,0:0:0:0:
116,200,161860,1,0,0:0:0:0:
112,236,161967,1,0,0:0:0:0:
120,272,162074,1,0,0:0:0:0:
144,300,162182,6,0,L|188:264,2,52.5
156,320,162610,6,0,B|179:337|179:337|187:333|187:333|189:339|189:339|196:332|196:332|200:340|200:340|208:332|208:332|212:340|212:340|268:340,1,140
256,192,163092,12,0,164271,0:0:0:0:
180,56,164753,5,0,0:0:0:0:
360,208,165021,1,0,0:0:0:0:
116,160,165182,1,0,0:0:0:0:
336,80,165342,1,0,0:0:0:0:
200,288,165449,1,0,0:0:0:0:
244,188,165610,6,0,L|260:152,7,21.875
252,160,166039,6,0,P|328:160|360:136,1,105,0|0,0:0|0:0,0:0:0:0:
336,80,166467,5,0,0:0:0:0:
200,288,166735,1,0,0:0:0:0:
180,56,166896,1,0,0:0:0:0:
360,208,167057,1,0,0:0:0:0:
116,160,167164,1,0,0:0:0:0:
244,188,167324,6,0,L|256:152,7,21.875
256,156,167753,6,0,L|192:128,2,65.625
428,52,168182,5,0,0:0:0:0:
428,144,168324,1,0,0:0:0:0:
404,232,168467,1,0,0:0:0:0:
340,300,168610,1,0,0:0:0:0:
248,320,168753,1,0,0:0:0:0:
160,288,168896,1,0,0:0:0:0:
144,280,169039,5,0,0:0:0:0:
128,264,169092,1,0,0:0:0:0:
116,244,169146,1,0,0:0:0:0:
108,224,169199,1,0,0:0:0:0:
108,200,169253,1,0,0:0:0:0:
112,180,169307,1,0,0:0:0:0:
120,160,169360,1,0,0:0:0:0:
140,148,169414,1,0,0:0:0:0:
160,140,169467,6,0,B|216:104|220:288|284:248,1,175.00000667572
312,244,170057,2,0,L|332:224,3,21.875
320,196,170324,5,0,0:0:0:0:
228,320,170467,1,0,0:0:0:0:
328,88,170610,1,0,0:0:0:0:
164,268,170753,1,0,0:0:0:0:
256,60,170896,1,0,0:0:0:0:
152,160,171039,1,0,0:0:0:0:
252,144,171182,5,0,0:0:0:0:
224,228,171324,1,0,0:0:0:0:
292,192,171467,1,0,0:0:0:0:
252,152,171610,5,0,0:0:0:0:
224,84,171896,1,0,0:0:0:0:
288,280,172039,1,0,0:0:0:0:
172,132,172182,1,0,0:0:0:0:
328,228,172324,1,0,0:0:0:0:
332,128,172467,2,0,L|352:96,5,29.1666666666667
364,76,172896,6,0,B|308:168|212:29|200:152,1,210
256,176,173324,5,0,0:0:0:0:
296,80,173610,1,0,0:0:0:0:
208,276,173753,1,0,0:0:0:0:
348,192,173896,1,0,0:0:0:0:
156,192,174039,1,0,0:0:0:0:
320,284,174182,2,0,L|356:316,5,46.6666666666667,0|0|0|0|0|0,0:0|0:0|0:0|0:0|0:0|0:0,0:0:0:0:
412,244,174610,5,0,0:0:0:0:
352,116,174753,1,0,0:0:0:0:
220,80,174896,1,0,0:0:0:0:
112,72,175039,5,0,0:0:0:0:
116,204,175182,1,0,0:0:0:0:
176,88,175324,1,0,0:0:0:0:
68,160,175467,1,0,0:0:0:0:
196,144,175610,1,0,0:0:0:0:
68,112,175753,1,0,0:0:0:0:
172,192,175896,2,0,L|204:228,5,46.6666666666667,0|0|0|0|0|0,0:0|0:0|0:0|0:0|0:0|0:0,0:0:0:0:
228,268,176324,6,0,B|272:124|292:184|292:184|312:240|356:96,1,280
176,320,177039,5,0,0:0:0:0:
252,40,177182,1,0,0:0:0:0:
437,40,177324,1,0,0:0:0:0:
324,200,177467,1,0,0:0:0:0:
137,200,177610,1,0,0:0:0:0:
280,116,177753,1,0,0:0:0:0:
156,256,177896,1,0,0:0:0:0:
192,136,178039,5,0,0:0:0:0:
364,212,178182,1,0,0:0:0:0:
184,20,178324,1,0,0:0:0:0:
