osu file format v7

[General]
AudioFilename: 2 - Pokemon World.mp3
AudioLeadIn: 0
PreviewTime: 24457
Countdown: 1
SampleSet: Normal
StackLeniency: 0.7
Mode: 0
LetterboxInBreaks: 1

[Editor]
DistanceSpacing: 0.800000011920929
BeatDivisor: 4
GridSize: 8

[Metadata]
Title:Pokemon World (TV Size)
Artist:Russell Velazquez
Creator:Andi_the_Fan
Version:Beginner
Source:Pokemon: The Adventures in the Orange Islands
Tags:Pikachu Ash Ketchum Misty Brock Kanto

[Difficulty]
HPDrainRate:1
CircleSize:3
OverallDifficulty:1
SliderMultiplier:1.4
SliderTickRate:2

[Events]
//Background and Video events
0,0,"pkmnworld.PNG"
Video,799,"2 - Pokemon World.avi"
//Break Periods
//Storyboard Layer 0 (Background)
//Storyboard Layer 1 (Fail)
//Storyboard Layer 2 (Pass)
//Storyboard Layer 3 (Foreground)
//Storyboard Sound Samples
//Background Colour Transformations
3,100,0,0,0

[TimingPoints]
1600,571.428571428571,4,1,0,100,1,0
5885,-100,4,2,0,100,0,0
24457,-100,4,1,0,100,0,1
42457,-100,4,2,0,100,0,0
47314,-100,4,1,0,100,0,1

[Colours]
Combo1 : 249,255,0
Combo2 : 2,242,86
Combo3 : 4,217,240
Combo4 : 242,98,2

[HitObjects]
136,120,1600,2,8,B|256:0|384:128|384:128,1,280
384,352,3885,1,0
272,352,4457,1,0
160,352,5028,2,10,B|160:280|160:272,2,70
160,224,6171,5,4
272,224,6742,1,0
384,224,7314,1,0
464,152,7885,1,0
496,32,8457,2,8,B|246:42|438:256|114:221,1,420
159,224,10742,1,12
160,112,11314,5,0
272,112,11885,1,0
384,112,12457,1,0
384,224,13028,2,10,B|216:392|216:176|80:176|16:328|16:328,1,420
21,318,15314,1,12
136,320,15885,5,2
248,320,16457,1,2
360,320,17028,1,2
472,320,17600,2,10,B|472:176|472:176,3,140,10|10|10|14
472,72,19885,5,8
360,72,20457,1,8
248,72,21028,1,8
136,72,21599,1,12
256,192,22171,12,12,24457
160,208,25028,6,0,C|256:304|360:200,1,280
360,96,26742,1,0
248,96,27314,1,0
136,96,27885,2,2,C|56:96|56:168|56:168,2,140
240,128,29600,6,0,B|376:176|360:280|240:312|240:312,1,280
120,312,31314,2,8,B|48:304|32:208|32:208,3,140
32,216,33600,1,12
24,104,34171,6,0,B|80:24|200:72,1,140
256,72,35314,1,8
368,64,35885,2,10,B|472:40|504:144|504:144,2,140,10|10|14
320,128,37457,5,6
264,184,37885,5,6
200,272,38457,5,8
200,272,38742,1,8
256,368,39314,1,8
312,272,39885,1,8
256,192,40457,12,14,42171
256,192,42742,5,8
256,192,43885,1,8
256,192,45028,1,8
256,192,46171,2,14,B|256:120|256:120,2,70
144,192,47314,6,0,C|144:336|144:336,2,140
368,192,49599,2,8,C|368:48|368:48,2,140,8|8|10
304,248,51171,1,2
224,248,51599,1,2
112,248,52171,6,8,C|112:176|168:120|224:120|224:120,1,210
336,144,53599,1,0
256,192,54171,12,2,56457
256,104,57599,5,14
256,192,58028,1,14
256,280,58457,1,14
