osu file format v7

[General]
AudioFilename: 2 - Pokemon World.mp3
AudioLeadIn: 0
PreviewTime: 24457
Countdown: 1
SampleSet: Soft
StackLeniency: 0.7
Mode: 0
LetterboxInBreaks: 1

[Editor]
DistanceSpacing: 0.800000011920929
BeatDivisor: 8
GridSize: 8

[Metadata]
Title:Pokemon World (TV Size)
Artist:Russell Velazquez
Creator:Andi_the_Fan
Version:Advanced
Source:Pokemon: The Adventures in the Orange Islands
Tags:Pikachu Ash Ketchum Misty Brock Kanto

[Difficulty]
HPDrainRate:3
CircleSize:4
OverallDifficulty:3
SliderMultiplier:1.4
SliderTickRate:2

[Events]
//Background and Video events
0,0,"pkmnworld.PNG"
Video,799,"2 - Pokemon World.avi"
//Break Periods
//Storyboard Layer 0 (Background)
//Storyboard Layer 1 (Fail)
//Storyboard Layer 2 (Pass)
//Storyboard Layer 3 (Foreground)
//Storyboard Sound Samples
//Background Colour Transformations
3,100,0,0,0

[TimingPoints]
1600,571.428571428571,4,1,0,100,1,0
5885,-100,4,2,0,100,0,0
24457,-100,4,1,0,100,0,1
42457,-100,4,2,0,100,0,0
47314,-100,4,1,0,100,0,1

[Colours]
Combo1 : 249,255,0
Combo2 : 2,242,86
Combo3 : 4,217,240
Combo4 : 242,98,2

[HitObjects]
144,120,1599,2,0,B|200:64|200:64,1,70
248,64,2171,2,0,B|288:64|288:64,1,35
368,64,2742,2,8,B|368:144|368:144,1,70
368,134,3171,1,8
408,264,3885,1,0
352,264,4171,2,0,B|312:264|312:264,1,35
288,264,4599,2,0,B|240:264|240:264,1,35
256,208,5028,5,8
256,152,5314,1,8
256,96,5599,1,8
200,0,6171,6,4,B|120:0|120:0,2,70,4|0|0
312,0,7314,2,0,B|392:0|392:0,2,70,8|0|0
256,96,8457,2,8,B|216:96|160:152|160:232|224:296|312:296|368:240|368:168|312:112|312:112,1,420
416,136,10742,1,4
416,192,11028,5,0
416,248,11313,1,0
416,360,11885,1,2
360,360,12171,1,2
304,360,12457,1,2
192,368,13028,2,10,B|112:368|0:256|0:136|64:72|104:32|104:32,1,420
208,40,15314,1,12
264,40,15599,5,0
320,40,15885,1,0
432,40,16457,1,2
432,96,16742,1,2
432,152,17028,1,2
432,264,17599,2,10,B|352:264|352:264,4,70,10|2|10|2|10
432,152,19314,1,6
432,40,19885,5,8
376,40,20171,1,0
320,40,20457,1,0
208,40,21028,1,2
152,40,21314,1,2
96,40,21599,1,10
256,192,22171,12,12,24457
160,208,25028,6,0,C|256:304|360:200,1,280
360,96,26742,1,0
304,96,27028,1,0
248,96,27314,1,0
136,96,27885,2,2,C|56:96|56:168|56:168,2,140
136,152,29314,6,8,B|136:224|136:224,3,70,8|8|8|10
136,336,30742,1,0
248,336,31314,2,0,B|328:336|328:336,3,70
320,280,32457,2,8,B|240:280|240:280,3,70
208,240,33600,1,12
96,240,34171,6,0,B|96:200|96:200,1,35
96,152,34599,1,0
96,64,35599,1,8
96,64,35885,2,10,B|136:0|216:0|216:0,2,140,10|10|14
160,120,37457,5,6
224,176,37885,5,6
256,280,38457,5,8
256,280,38742,1,8
208,368,39242,1,8
304,368,39742,1,8
256,192,40457,12,14,42171
32,192,42742,5,8
256,192,43885,1,8
480,192,45028,1,8
256,192,46171,2,14,B|256:264|256:264,2,70
144,192,47314,6,0,C|144:120|144:120,4,70
256,192,49028,1,0
368,192,49599,2,0,B|368:280|368:280,4,70
368,104,51171,1,2
288,104,51599,1,2
176,104,52171,6,8,B|104:104|40:168|40:256|40:256,1,210
144,296,53599,1,0
256,192,54171,12,2,56457
168,8,57599,5,14
256,8,58028,1,14
344,8,58457,1,14
