osu file format v9

[General]
AudioFilename: Ruslana - Wild Dances (Ukraine).mp3
AudioLeadIn: 1996
PreviewTime: 61805
Countdown: 0
SampleSet: Soft
StackLeniency: 0.7
Mode: 0
LetterboxInBreaks: 0

[Editor]
DistanceSpacing: 1.2
BeatDivisor: 2
GridSize: 8

[Metadata]
Title:Wild Dances
Artist:Ruslana
Creator:HellDawn
Version:Dance
Source:Eurovision Song Contest 2004
Tags:Nivalis Aleks719 Gonzvlo ukraine

[Difficulty]
HPDrainRate:3
CircleSize:3
OverallDifficulty:3
ApproachRate:4
SliderMultiplier:0.8
SliderTickRate:2

[Events]
//Background and Video events
0,0,"2uf81dy.jpg"
//Break Periods
2,102470,105485
2,124796,128857
2,152384,153655
//Storyboard Layer 0 (Background)
//Storyboard Layer 1 (Fail)
//Storyboard Layer 2 (Pass)
//Storyboard Layer 3 (Foreground)
//Storyboard Sound Samples
//Background Colour Transformations
3,100,163,162,255

[TimingPoints]
410,348.837209302326,4,2,0,60,1,0
11572,-100,4,1,0,60,0,0
34122,-100,4,1,0,60,0,0
34247,-100,4,1,0,70,0,0
39479,-100,4,1,0,60,0,0
60409,-100,4,1,0,65,0,0
61805,-100,4,1,0,65,0,1
70177,-100,4,1,0,65,0,0
71223,-100,4,1,0,65,0,0
72096,-100,4,1,0,60,0,0
84479,-100,4,1,0,70,0,0
89712,-100,4,1,0,60,0,0
112037,-100,4,1,0,60,0,1
121630,-100,4,1,0,60,0,0
141371,348.837209302326,4,2,0,60,1,0
154944,-100,4,1,0,60,0,1
162096,-100,4,1,0,60,0,0
180061,-100,4,1,0,50,0,0

[Colours]
Combo1 : 236,175,94
Combo2 : 255,255,255
Combo3 : 231,193,175
Combo4 : 248,227,158
SliderBorder : 0,0,0

[HitObjects]
256,192,410,12,0,5119
264,104,5991,6,0,B|208:64|152:104,2,120,4|0|8
336,168,7386,2,0,B|404:168|404:276|320:276,1,160,0|8
240,280,8433,1,8
144,280,8782,5,4
144,184,9130,2,8,B|80:184|80:72|152:72,1,160,0|8
240,72,10177,2,0,B|340:72,1,80,0|8
416,72,10875,2,8,B|416:164,1,80
416,248,11572,5,4
96,248,12968,1,8
416,136,14363,1,8
96,136,15758,1,8
256,192,17154,5,8
48,192,18549,1,8
464,192,19944,1,8
256,192,21340,1,8
424,60,22735,6,0,B|424:176,1,80,10|0
424,236,23433,1,0
328,236,23782,1,0
232,236,24130,1,10
235,148,24479,6,0,B|235:80|131:80|131:152,1,160
128,236,25526,1,4
32,236,25875,1,0
32,140,26223,1,8
32,44,26572,1,0
128,44,26921,6,0,B|194:43|194:147|126:147,1,160,4|8
128,244,27968,2,0,B|224:244,1,80,0|2
304,244,28665,1,0
304,148,29014,1,0
304,52,29363,1,0
400,52,29712,6,0,B|466:51|466:155|398:155,1,160,2|0
400,248,30758,1,0
304,248,31107,2,0,B|305:314|201:314|201:246,1,160,4|8
200,152,32154,1,0
104,148,32503,6,0,B|37:147|37:251|103:250,1,160,4|0
200,252,33549,2,0,B|280:252,1,80,0|4
376,252,34247,5,0
376,156,34596,1,0
280,156,34944,1,0
282,67,35293,2,0,B|282:1|178:1|179:66,2,160,2|0|2
280,156,37037,5,0
280,252,37386,1,2
184,252,37735,1,0
184,156,38084,2,8,B|100:156,3,80,2|2|2|2
104,252,39479,1,4
203,243,39828,6,8,B|287:263|279:179|383:223,1,160
448,224,40875,2,8,B|468:140|384:148|428:44,1,160,8|0
320,72,41921,1,0
128,76,42619,6,8,B|108:160|192:152|148:256,1,160
256,228,43665,2,8,B|340:248|332:164|436:208,1,160,8|0
408,104,44712,1,0
156,72,45410,6,0,B|84:72,1,40
116,192,46107,1,0
256,120,46805,6,0,B|304:168,1,40
396,192,47503,1,0
397,303,47851,6,0,B|305:303,1,80,2|0
232,304,48549,2,0,B|132:304,1,80,2|0
188,192,49247,5,2
256,120,49596,1,2
324,192,49944,1,2
256,268,50293,2,0,B|256:348,1,80,4|4
356,344,50991,6,8,B|372:312|424:308|412:272,2,80
284,280,52037,2,8,B|300:248|352:244|340:208,2,80
212,216,53084,1,0
156,40,53782,6,8,B|140:72|88:76|100:112,2,80
228,104,54828,2,8,B|212:136|160:140|172:176,2,80
300,168,55875,1,0
120,276,56572,6,0,B|168:276,1,40
164,132,57270,1,0
356,132,57968,2,0,B|464:132,2,80
352,232,59014,5,0
352,232,59712,1,0
351,228,60410,2,0,B|351:132,1,80,0|8
352,56,61107,1,0
256,56,61456,1,8
256,152,61805,6,0,B|256:218|152:218|153:153,2,160,8|0|8
268,52,63549,2,0,B|168:52,1,80
92,52,64247,1,0
92,148,64596,6,0,B|92:214|196:214|195:149,2,160,8|0|8
92,52,66340,2,0,B|180:52,1,80
268,56,67037,1,8
268,152,67386,6,0,B|268:240,1,80,8|0
172,232,68084,2,0,B|88:232,1,80,8|0
88,136,68782,2,0,B|88:44,1,80,8|0
184,56,69479,1,0
344,168,70177,6,0,B|344:88|312:56,2,120
320,264,71572,6,0,B|280:272|240:264,1,80
144,248,72270,1,0
144,152,72619,1,0
144,56,72968,6,2,B|196:108|276:108|348:108|412:108|460:44,1,320
176,192,75758,6,0,B|176:112|256:112|256:192,1,160,8|0
336,192,77154,2,0,B|335:272|255:272|255:192,1,160,8|0
176,192,78549,6,0,B|176:272|256:272|256:192,1,160,2|0
328,76,79944,6,0,B|420:76,3,80
392,160,81340,6,0,B|464:160|464:260|380:260,1,160,8|0
292,260,82735,2,0,B|292:332|392:332|392:244,1,160,8|0
392,160,83782,2,0,B|392:68,1,80,0|4
296,80,84479,5,0
208,80,84828,2,0,B|120:80|120:80|120:160,1,160,0|2
120,232,85875,1,0
120,288,86049,1,0
344,256,86921,6,0,B|344:164,1,80,2|0
344,80,87619,2,0,B|252:80,1,80,2|0
280,176,88316,1,2
200,128,88665,1,2
120,184,89014,1,2
200,240,89363,1,4
296,240,89712,6,0,B|368:240|368:340|284:340,1,160,8|0
200,336,90758,2,0,B|104:336,1,80,8|0
120,240,91456,1,0
120,144,91805,2,0,B|120:56,1,80,8|0
308,72,92851,6,0,B|380:72|380:172|296:172,1,160,8|0
212,176,93898,2,0,B|124:176,3,80,8|0|8|0
128,80,95293,5,0
224,80,95642,2,0,B|276:80,1,40
408,80,96340,1,0
408,272,97037,2,0,B|352:272,1,40
224,272,97735,1,0
224,176,98084,6,0,B|224:64,3,80,2|0|2|0
128,96,99479,1,2
32,96,99828,1,2
32,192,100177,1,2
128,192,100526,1,4
256,192,100875,12,0,102270
160,64,106805,6,0,B|216:64,1,40
204,208,107503,1,0
332,64,108200,2,0,B|424:64,2,80
328,160,109247,6,0,B|328:212|384:212,1,80,0|8
432,160,109944,2,0,B|432:212|488:212,1,80,0|8
464,312,110642,5,8
360,312,110991,2,0,B|272:312,1,80
192,312,111689,1,8
192,208,112037,6,0,B|276:228|268:144|372:188,1,160,8|0
428,184,113084,1,0
428,88,113433,2,0,B|340:88,1,80,8|0
252,88,114130,1,0
160,184,114828,6,0,B|235:149|227:233|311:213,1,160,8|0
404,212,115875,1,0
404,308,116223,2,0,B|312:308,1,80,8|0
228,308,116921,2,0,B|132:308,1,80,0|8
144,212,117619,6,0,B|164:128|80:136|124:32,1,160,8|0
212,60,118665,1,0
308,60,119014,1,8
404,60,119363,1,0
404,156,119712,2,0,B|404:252,1,80,0|8
308,236,120409,5,8
212,236,120758,2,0,B|172:236,4,40
256,192,121805,12,0,124596
80,64,130177,6,0,B|120:140,1,80
144,176,130700,2,0,B|184:252,1,80
220,256,131223,2,0,B|312:256,1,80
396,256,131921,2,0,B|396:176,2,80,2|2|2
300,256,132968,6,0,B|216:256,1,80
172,256,133491,2,0,B|89:256,1,80
44,256,134014,1,0
40,160,134363,2,0,B|40:120|32:80,3,80,0|0|0|4
256,192,135758,12,0,140642
48,100,141371,6,0,B|123:65|115:149|199:129,1,160
348,248,142766,2,0,B|273:213|281:297|197:277,1,160
248,92,144161,2,0,B|323:57|315:141|399:121,1,160
256,192,145557,12,0,148347
64,56,149743,5,0
256,56,150440,1,0
256,248,151138,2,0,B|348:248,3,80
144,152,154975,6,0,B|248:152,1,80,2|8
332,152,155673,2,0,B|332:224,4,40,0|0|0|0|0
328,56,156719,1,8
232,56,157068,1,0
144,56,157417,1,0
56,56,157766,1,0
56,152,158115,6,0,B|144:152,1,80,8|0
232,152,158812,1,0
328,152,159161,1,0
424,152,159510,2,0,B|424:234,1,80,8|0
367,296,160208,1,0
280,296,160557,2,0,B|184:296,1,80,2|8
104,296,161254,6,0,B|104:244,4,40
8,296,162301,1,0
8,200,162650,2,0,B|8:88,1,80
104,120,163347,1,0
256,192,163696,12,0,165091
256,40,166487,2,0,B|331:5|323:89|407:69,1,160,0|8
256,176,167882,2,0,B|181:141|189:225|105:205,1,160,0|8
260,308,169277,2,0,B|335:273|327:357|411:337,1,160,2|0
412,148,170673,5,2
412,52,171022,1,0
316,52,171370,1,0
316,148,171719,1,0
220,148,172068,6,0,B|220:76|120:76|120:156,1,160,0|8
120,232,173115,1,0
216,232,173464,22,0,B|215:303|315:303|315:231,1,160,0|8
320,140,174510,1,0
320,44,174859,1,4
80,48,176254,5,4
320,344,177650,6,0,B|320:192,1,120
320,80,178696,2,0,B|216:80,1,80
144,96,179394,2,0,B|144:152,1,40,8|0
144,232,179917,2,0,B|144:304,1,40,0|12
