osu file format v10

[General]
AudioFilename: Rurutia - Seirios.mp3
AudioLeadIn: 0
PreviewTime: 65720
Countdown: 0
SampleSet: Soft
StackLeniency: 0.7
Mode: 0
LetterboxInBreaks: 0

[Editor]
DistanceSpacing: 0.8
BeatDivisor: 8
GridSize: 4

[Metadata]
Title:Seirios
TitleUnicode:Seirios
Artist:Rurutia
ArtistUnicode:Rurutia
Creator:wantuole
Version:Normal
Source:
Tags:DarknessAngel
BeatmapID:182744
BeatmapSetID:60871

[Difficulty]
HPDrainRate:5
CircleSize:4
OverallDifficulty:5
ApproachRate:6
SliderMultiplier:1.92
SliderTickRate:2

[Events]
//Background and Video events
0,0,"bg.jpg"
//Break Periods
//Storyboard Layer 0 (Background)
//Storyboard Layer 1 (Fail)
//Storyboard Layer 2 (Pass)
//Storyboard Layer 3 (Foreground)
//Storyboard Sound Samples
//Background Colour Transformations
3,100,163,162,255

[TimingPoints]
387,888.888888888889,4,2,2,40,1,0
65942,-100,4,2,2,50,0,0
67942,-83.3333333333333,4,2,0,50,0,1
68130,-83.3333333333333,4,2,0,60,0,1
82164,-83.3333333333333,4,2,0,50,0,1
82387,-83.3333333333333,4,2,0,60,0,1
96387,-133.333333333333,4,2,2,40,0,0
106831,-100,4,2,2,40,0,0
147720,-100,4,2,2,50,0,0
149720,-83.3333333333333,4,2,0,50,0,1
149942,-83.3333333333333,4,2,0,60,0,1
178164,-133.333333333333,4,2,0,50,0,1
179720,-83.3333333333333,4,2,0,40,0,1
181720,-83.3333333333333,4,2,0,50,0,1
181942,-83.3333333333333,4,2,0,60,0,1
210164,-83.3333333333333,4,2,0,60,0,0
217164,-100,4,2,2,40,0,0

[Colours]
Combo1 : 255,85,170
Combo2 : 128,191,255
Combo3 : 128,128,255

[HitObjects]
44,96,21720,6,0,B|56:160|108:184|108:184|131:143|188:132,1,192,2|0,0:0|0:0,0:0:0
184,212,23053,1,0,0:0:0
248,168,23498,2,0,B|300:184|324:252,1,96,2|0,0:0|0:0,0:0:0
380,196,24386,2,0,B|384:136|448:124,1,96
384,72,25275,6,0,B|290:49,1,96,2|0,0:0|0:0,0:0:0
252,116,26164,1,0,0:0:0
284,188,26609,1,0,0:0:0
256,260,27053,2,0,B|208:280|208:280|148:256,1,96,2|0,0:0|0:0,0:0:0
92,276,27942,2,0,B|96:228|96:228|144:188,1,96
208,208,28831,6,0,B|196:152|196:152|172:140|116:120|136:52|144:32,1,192,2|0,0:0|0:0,0:0:0
212,76,30164,2,0,B|240:76|260:104|260:104|276:160,2,96,0|2|0,0:0|0:0|0:0,0:0:0
152,124,31498,2,0,B|132:232,1,96
168,288,32386,6,0,B|220:312|276:280,1,96,2|0,0:0|0:0,0:0:0
216,224,33275,2,0,B|220:192|220:192|232:160|232:160|236:124,1,96
252,56,34164,2,0,B|360:36,2,96,2|0|0,0:0|0:0|0:0,0:0:0
176,76,35498,1,0,0:0:0
140,144,35942,6,0,B|112:192|56:188,1,96,2|0,0:0|0:0,0:0:0
76,264,36831,2,0,B|80:276|80:276|84:280|84:280|92:280|92:280|120:332|208:308,1,144,2|0,0:0|0:0,0:0:0
236,292,37720,2,0,B|280:264|340:284,1,96,2|0,0:0|0:0,0:0:0
404,300,38609,2,0,B|440:264|440:200,1,96
428,136,39498,6,0,B|368:144|340:192,1,96,2|0,0:0|0:0,0:0:0
280,220,40386,1,0,0:0:0
208,196,40831,2,0,B|148:176,1,48
124,170,41275,2,0,B|104:244|164:312,1,144,2|0,0:0|0:0,0:0:0
192,324,42164,2,0,B|300:344,1,96
340,288,43053,6,0,B|452:288,2,96,2|0|0,0:0|0:0|0:0,0:0:0
312,216,44386,1,0,0:0:0
360,156,44831,2,0,B|417:159|454:142,2,96,2|0|0,0:0|0:0|0:0,0:0:0
308,100,46164,1,0,0:0:0
256,156,46608,6,0,B|208:132|162:149,1,95.9999999999999,2|0,0:0|0:0,0:0:0
108,204,47498,2,0,B|143:239|197:220,1,96
232,288,48386,2,0,B|288:256|276:192|276:192|236:156|252:108,1,192,2|0,0:0|0:0,0:0:0
208,56,49720,1,0,0:0:0
144,100,50164,6,0,B|84:120|84:188,1,96,4|0,0:0|0:0,0:0:0
168,176,51053,2,0,B|155:237|214:271,1,96
244,196,51942,2,0,B|292:184|352:192,1,96,0|0,0:0|0:0,0:0:0
368,260,52831,1,0,0:0:0
292,276,53275,6,0,B|244:292|180:276,1,96,0|2,0:0|0:0,0:0:0
120,280,54164,1,0,0:0:0
84,212,54609,2,0,B|108:160|72:112,1,96
96,88,55275,2,0,B|152:64,1,48
220,64,55942,5,0,0:0:0
284,104,56386,1,0,0:0:0
360,96,56831,1,0,0:0:0
420,144,57275,2,0,B|420:192|384:232,1,96,2|0,0:0|0:0,0:0:0
336,292,58164,1,0,0:0:0
304,224,58609,2,0,B|232:248|168:212|152:148,1,192
52,40,60386,5,0,0:0:0
52,40,60609,1,0,0:0:0
52,40,60831,2,0,B|80:144,1,96,2|0,0:0|0:0,0:0:0
96,208,61720,1,0,0:0:0
156,160,62164,2,0,B|204:132|200:48,2,96
280,68,63942,1,0,0:0:0
328,128,64386,6,0,B|324:180|372:220,1,96,2|0,0:0|0:0,0:0:0
236,312,65720,1,0,0:0:0
216,236,66164,2,0,B|164:208|108:236,1,96,8|0,0:0|0:0,0:0:0
100,156,67053,2,0,B|150:124|154:62,1,96,8|0,0:0|0:0,0:0:0
240,104,67942,6,0,B|296:140|360:112,1,115.199996484375,4|0,0:0|0:0,0:0:0
392,100,68609,1,0,0:0:0
424,224,69053,1,0,0:0:0
424,224,69275,1,0,0:0:0
424,224,69498,1,0,0:0:0
424,224,69720,6,0,B|358:221|306:268,1,115.199996484375,4|0,0:0|0:0,0:0:0
284,292,70386,1,0,0:0:0
192,280,70831,2,0,B|220:336,2,57.5999982421876,0|0|0,0:0|0:0|0:0,0:0:0
144,264,71498,6,0,B|136:260|136:260|132:268|132:268|76:244|76:172,1,115.199996484375,4|0,0:0|0:0,0:0:0
168,176,72386,2,0,B|164:168|164:168|156:176|156:176|119:124|155:62,1,115.199996484375,8|0,0:0|0:0,0:0:0
232,112,73275,6,0,B|240:104|240:104|232:100|232:100|215:43|277:7,1,115.199996484375,4|0,0:0|0:0,0:0:0
332,76,74163,2,0,B|341:70|341:70|333:66|333:66|352:8|424:8,1,115.199996484375,8|0,0:0|0:0,0:0:0
416,100,75053,6,0,B|448:156|412:224,1,115.199996484375,4|0,0:0|0:0,0:0:0
400,252,75720,1,0,0:0:0
364,280,75942,1,8,0:0:0
288,332,76386,2,0,B|220:320,1,57.5999982421876,0|0,0:0|0:0,0:0:0
184,308,76831,6,0,B|144:248|188:192,2,115.199996484375,4|2|8,0:0|0:0|0:0,0:0:0
260,252,78164,1,0,0:0:0
276,208,78386,1,0,0:0:0
272,160,78609,6,0,B|284:88|204:48,1,115.199996484375,4|0,0:0|0:0,0:0:0
184,44,79275,1,0,0:0:0
140,60,79498,2,0,B|144:124|88:160,1,115.199996484375,8|0,0:0|0:0,0:0:0
52,184,80164,1,0,0:0:0
60,232,80386,6,0,B|92:288|168:292,1,115.199996484375,4|0,0:0|0:0,0:0:0
200,280,81053,1,0,0:0:0
240,300,81275,2,0,B|304:320|368:284,1,115.199996484375,8|0,0:0|0:0,0:0:0
396,212,82164,6,0,B|340:176|276:204,1,115.199996484375,4|0,0:0|0:0,0:0:0
244,216,82831,1,0,0:0:0
160,256,83275,1,0,0:0:0
116,244,83497,1,0,0:0:0
80,212,83720,1,0,0:0:0
64,172,83942,6,0,B|66:95|128:68,1,115.199996484375,4|0,0:0|0:0,0:0:0
156,56,84608,1,0,0:0:0
288,56,85053,1,0,0:0:0
288,56,85275,1,0,0:0:0
288,56,85498,1,0,0:0:0
288,56,85720,6,0,B|324:116|256:184,1,115.199996484375,4|0,0:0|0:0,0:0:0
256,204,86386,1,0,0:0:0
276,244,86608,2,0,B|327:292|389:256,1,115.199996484375,8|0,0:0|0:0,0:0:0
384,168,87497,6,0,B|408:112|376:52,1,115.199996484375,4|0,0:0|0:0,0:0:0
308,116,88387,2,0,B|252:88|176:116,1,115.199996484375,8|0,0:0|0:0,0:0:0
112,72,89275,6,0,B|96:140|136:188,1,115.199996484375,4|0,0:0|0:0,0:0:0
156,228,89942,1,0,0:0:0
200,244,90164,1,8,0:0:0
244,324,90609,1,0,0:0:0
288,336,90831,1,0,0:0:0
324,308,91053,6,0,B|360:260|344:188,2,115.199996484375,4|0|8,0:0|0:0|0:0,0:0:0
268,232,92386,1,0,0:0:0
240,196,92608,1,0,0:0:0
244,152,92831,6,0,B|240:80|312:40,1,115.199996484375,4|0,0:0|0:0,0:0:0
456,172,93942,1,0,0:0:0
456,172,94164,1,0,0:0:0
456,172,94386,1,0,0:0:0
456,172,94608,6,0,B|456:235|391:277,1,115.199996484375,4|0,0:0|0:0,0:0:0
356,272,95275,1,0,0:0:0
332,312,95498,2,0,B|268:332|204:296,1,115.199996484375,8|0,0:0|0:0,0:0:0
256,136,96387,5,4,0:0:0
256,192,96609,12,4,99942,0:0:0
108,144,100831,5,0,0:0:0
256,100,101720,1,0,0:0:0
280,252,102609,1,0,0:0:0
384,176,103498,6,0,B|372:180|372:180|360:176|360:176|356:184|356:184|272:156|180:200,1,216.000008239746,2|0,0:0|0:0,0:0:0
40,284,105275,2,0,B|56:292|56:292|69:288|69:288|72:296|72:296|152:320|252:292,1,216.000008239746,2|0,0:0|0:0,0:0:0
212,224,107053,6,0,B|224:168|280:160,1,96,2|0,0:0|0:0,0:0:0
288,236,107942,1,0,0:0:0
324,304,108387,1,0,0:0:0
396,292,108831,2,0,B|432:244|416:188,1,96,2|0,0:0|0:0,0:0:0
348,176,109720,2,0,B|240:144,1,96
276,76,110609,6,0,B|184:20|84:88,1,192,2|0,0:0|0:0,0:0:0
56,148,111942,1,0,0:0:0
92,216,112386,2,0,B|116:280|208:256|208:256|248:340|344:304,1,288,2|0,0:0|0:0,0:0:0
304,236,114164,6,0,B|408:208,1,96,2|0,0:0|0:0,0:0:0
384,132,115053,1,0,0:0:0
408,60,115498,1,0,0:0:0
460,116,115942,2,0,B|440:228,1,96,2|0,0:0|0:0,0:0:0
366,226,116831,2,0,B|384:132,1,96
308,144,117720,6,0,B|288:256,2,96,2|0|0,0:0|0:0|0:0,0:0:0
252,88,119053,1,0,0:0:0
180,116,119498,2,0,B|136:80|80:84,2,96,2|0|0,0:0|0:0|0:0,0:0:0
188,192,120831,1,0,0:0:0
196,268,121275,6,0,B|248:296|300:280,1,96,2|0,0:0|0:0,0:0:0
340,340,122164,1,0,0:0:0
416,356,122609,1,0,0:0:0
416,316,122831,1,0,0:0:0
396,284,123053,2,0,B|352:252|300:272,1,96,2|0,0:0|0:0,0:0:0
244,320,123942,2,0,B|208:268|244:212,1,96
176,180,124831,6,0,B|116:256,2,96,2|0|0,0:0|0:0|0:0,0:0:0
188,104,126164,1,0,0:0:0
112,104,126609,2,0,B|55:107|12:88,2,96,2|0|0,0:0|0:0|0:0,0:0:0
188,104,127942,1,0,0:0:0
244,156,128386,6,0,B|292:132|344:152,1,95.9999999999999,2|0,0:0|0:0,0:0:0
400,196,129275,2,0,B|368:240|316:224,1,96
336,148,130164,2,0,B|288:244|356:328,1,192,2|0,0:0|0:0,0:0:0
440,328,131498,1,0,0:0:0
460,256,131942,6,0,B|404:176,1,96,4|0,0:0|0:0,0:0:0
368,116,132831,2,0,B|316:124|272:100,1,96
204,72,133720,1,0,0:0:0
128,84,134164,1,0,0:0:0
172,148,134609,1,0,0:0:0
108,188,135053,2,0,B|84:236|112:288,1,96,0|2,0:0|0:0,0:0:0
172,236,135942,6,0,B|200:280|264:280,1,96
440,180,137275,1,0,0:0:0
396,112,137720,1,0,0:0:0
360,180,138164,2,0,B|252:144,1,96
292,76,139053,6,0,B|232:56|192:112,1,96,2|0,0:0|0:0,0:0:0
168,168,139942,1,0,0:0:0
92,168,140386,2,0,B|88:240|136:300|136:300|212:280|284:312,1,288
340,256,142164,2,0,B|408:272,1,48
424,280,142609,6,0,B|372:292|344:344,1,96,2|0,0:0|0:0,0:0:0
272,348,143498,1,0,0:0:0
212,300,143942,2,0,B|232:240|196:200,1,96
136,160,144831,2,0,B|108:216|152:268,1,96
112,324,145720,1,0,0:0:0
60,272,146164,6,0,B|53:247|53:247|60:236|60:236|56:224|56:224|92:160|52:88,1,192,2|0,0:0|0:0,0:0:0
172,48,147498,1,0,0:0:0
188,124,147942,2,0,B|284:148,1,96,8|0,0:0|0:0,0:0:0
344,104,148831,2,0,B|366:153|339:207,1,96,8|0,0:0|0:0,0:0:0
308,284,149720,6,0,B|280:272|248:276|248:276|232:256|180:248,1,115.199996484375,4|0,0:0|0:0,0:0:0
156,236,150386,1,0,0:0:0
124,152,150831,1,0,0:0:0
168,136,151053,1,0,0:0:0
208,112,151275,1,0,0:0:0
236,76,151498,6,0,B|256:64|264:48|264:48|292:76|352:80,1,115.199996484375,4|0,0:0|0:0,0:0:0
376,84,152164,1,0,0:0:0
452,136,152609,1,0,0:0:0
424,172,152831,1,0,0:0:0
384,192,153053,1,0,0:0:0
340,204,153275,6,0,B|270:208|228:156,1,115.199996484375,4|0,0:0|0:0,0:0:0
144,148,154164,2,0,B|144:210|192:248,1,115.199996484375,8|0,0:0|0:0,0:0:0
292,226,155053,6,0,B|240:256|256:328,1,115.199996484375,4|0,0:0|0:0,0:0:0
344,296,155942,2,0,B|396:266|380:194,1,115.199996484375,8|0,0:0|0:0,0:0:0
364,104,156831,6,0,B|340:96|328:76|328:76|296:104|244:96,1,115.199996484375,4|0,0:0|0:0,0:0:0
224,88,157498,1,0,0:0:0
184,68,157720,1,8,0:0:0
96,44,158164,2,0,B|68:64|25:73,1,57.5999982421876,0|0,0:0|0:0,0:0:0
44,116,158609,6,0,B|72:180|36:248,1,115.199996484375,4|0,0:0|0:0,0:0:0
24,268,159275,2,0,B|64:312,1,57.5999982421876,0|8,0:0|0:0,0:0:0
156,316,159942,1,0,0:0:0
156,316,160164,1,0,0:0:0
156,316,160386,6,0,B|148:244|212:224,1,115.199996484375,4|0,0:0|0:0,0:0:0
250,306,161275,2,0,B|312:276|300:212,1,115.199996484375,8|0,0:0|0:0,0:0:0
208,224,162164,6,0,B|192:152|264:120,1,115.199996484375,4|0,0:0|0:0,0:0:0
256,36,163053,2,0,B|328:36|352:124,1,115.199996484375,8|0,0:0|0:0,0:0:0
412,160,163942,6,0,B|312:216,1,115.199996484375,4|0,0:0|0:0,0:0:0
272,236,164609,1,0,0:0:0
188,276,165053,2,0,B|128:312,2,57.5999982421876,0|0|0,0:0|0:0|0:0,0:0:0
184,228,165720,6,0,B|168:160|228:112,1,115.199996484375,4|0,0:0|0:0,0:0:0
256,100,166386,1,0,0:0:0
348,84,166831,1,0,0:0:0
376,120,167053,1,0,0:0:0
416,144,167275,1,0,0:0:0
456,164,167498,6,0,B|472:180|488:184|488:184|452:208|440:248,1,115.199996484375,4|0,0:0|0:0,0:0:0
432,288,168164,1,0,0:0:0
392,308,168386,2,0,B|348:260|265:287,1,115.199996484375,8|0,0:0|0:0,0:0:0
244,264,169053,1,0,0:0:0
200,276,169275,6,0,B|132:304|84:228,1,115.199996484375,4|0,0:0|0:0,0:0:0
92,124,170164,2,0,B|158:153|171:225,1,115.199996484375,8|0,0:0|0:0,0:0:0
228,144,171053,6,0,B|244:84,1,57.5999982421876,4|0,0:0|0:0,0:0:0
256,44,171498,1,0,0:0:0
332,100,171942,2,0,B|336:172|412:208,1,115.199996484375,8|0,0:0|0:0,0:0:0
400,240,172609,1,0,0:0:0
384,284,172831,5,4,0:0:0
296,260,173275,2,0,B|264:240|220:268,1,57.5999982421876,0|0,0:0|0:0,0:0:0
200,240,173720,2,0,B|136:236|92:312,1,115.199996484375,8|0,0:0|0:0,0:0:0
92,200,174609,6,0,B|104:156|88:120|40:108,1,115.199996484375
188,44,175720,1,0,0:0:0
232,64,175942,1,0,0:0:0
268,96,176164,1,0,0:0:0
300,128,176386,6,0,B|340:172|324:248,1,115.199996484375,4|0,0:0|0:0,0:0:0
316,280,177053,2,0,B|308:288|308:288|304:276|304:276|228:244|140:292,1,172.799994726563,0|0,0:0|0:0,0:0:0
84,324,178164,6,0,B|43:269|60:194|104:160|172:172,1,216.000008239746,4|0,0:0|0:0,0:0:0
228,244,179942,6,0,B|236:242|236:242|236:229|236:229|269:197|240:128,1,115.199996484375,4|0,0:0|0:0,0:0:0
348,56,180831,2,0,B|354:60|354:60|347:72|347:72|360:116|323:170,1,115.199996484375,4|0,0:0|0:0,0:0:0
332,256,181720,6,0,B|396:244|420:184,1,115.199996484375,4|0,0:0|0:0,0:0:0
432,144,182386,1,0,0:0:0
356,88,182831,1,0,0:0:0
320,120,183053,1,0,0:0:0
304,164,183275,1,0,0:0:0
304,212,183498,6,0,B|300:280|356:324,1,115.199996484375,4|0,0:0|0:0,0:0:0
384,340,184164,1,0,0:0:0
384,248,184609,1,0,0:0:0
348,220,184831,1,0,0:0:0
304,212,185053,1,0,0:0:0
260,220,185275,6,0,B|196:228|156:292,1,115.199996484375,4|0,0:0|0:0,0:0:0
72,308,186164,2,0,B|108:256|60:192,1,115.199996484375,8|0,0:0|0:0,0:0:0
56,156,186831,1,0,0:0:0
76,116,187053,6,0,B|119:61|200:96,1,115.199996484375,4|0,0:0|0:0,0:0:0
248,140,187942,2,0,B|301:110|304:43,1,115.199996484375,8|0,0:0|0:0,0:0:0
416,96,188831,6,0,B|384:128|379:165|407:209,1,115.199996484375,4|0,0:0|0:0,0:0:0
456,284,189720,1,8,0:0:0
364,284,190164,1,0,0:0:0
320,292,190386,1,0,0:0:0
276,304,190609,6,0,B|245:250|247:183,1,115.199996484375,4|0,0:0|0:0,0:0:0
248,148,191275,1,0,0:0:0
256,100,191498,1,8,0:0:0
152,48,191942,1,0,0:0:0
140,92,192164,1,0,0:0:0
136,136,192386,6,0,B|128:204|152:268,1,115.199996484375,4|0,0:0|0:0,0:0:0
236,268,193275,2,0,B|216:200|220:140,1,115.199996484375,8|0,0:0|0:0,0:0:0
220,108,193942,1,0,0:0:0
224,64,194164,6,0,B|240:44|248:24|248:24|280:56|320:76,1,115.199996484375,4|0,0:0|0:0,0:0:0
384,108,195053,2,0,B|368:88|360:68|360:68|328:100|288:120,1,115.199996484375,8|0,0:0|0:0,0:0:0
220,148,195942,6,0,B|248:200|324:212,1,115.199996484375,4|0,0:0|0:0,0:0:0
360,208,196609,1,0,0:0:0
348,300,197053,1,0,0:0:0
332,256,197275,1,0,0:0:0
360,208,197498,1,0,0:0:0
404,192,197720,6,0,B|416:184|444:180|444:180|436:144|444:80,1,115.199996484375,4|0,0:0|0:0,0:0:0
440,60,198386,1,0,0:0:0
352,36,198831,1,0,0:0:0
352,36,199053,1,0,0:0:0
352,36,199275,1,0,0:0:0
352,36,199498,6,0,B|300:80|224:56,1,115.199996484375,4|0,0:0|0:0,0:0:0
196,64,200164,1,0,0:0:0
152,48,200386,2,0,B|188:108|144:160,1,115.199996484375,8|0,0:0|0:0,0:0:0
112,184,201053,1,0,0:0:0
72,208,201275,6,0,B|136:228|148:304,1,115.199996484375,4|0,0:0|0:0,0:0:0
216,340,202164,2,0,B|244:276|332:273,1,115.199996484375,8|0,0:0|0:0,0:0:0
400,264,203053,6,0,B|364:144,1,115.199996484375,4|0,0:0|0:0,0:0:0
340,64,203942,1,8,0:0:0
284,136,204386,1,0,0:0:0
240,152,204609,1,0,0:0:0
196,156,204831,6,0,B|124:152|84:92,1,115.199996484375,4|0,0:0|0:0,0:0:0
64,72,205498,1,0,0:0:0
52,116,205720,2,0,B|35:178|70:247,1,115.199996484375,8|0,0:0|0:0,0:0:0
56,320,206609,6,0,B|104:312|124:284|124:284|156:324|164:328,1,115.199996484375
284,316,207720,1,0,0:0:0
300,272,207942,1,0,0:0:0
308,228,208164,1,0,0:0:0
312,184,208386,6,0,B|328:124|280:64,1,115.199996484375,4|0,0:0|0:0,0:0:0
244,60,209053,1,0,0:0:0
200,64,209275,2,0,B|140:88|128:168,1,115.199996484375,8|0,0:0|0:0,0:0:0
120,228,210164,5,4,0:0:0
256,192,210498,12,4,213720,0:0:0
256,192,214053,12,2,217275,0:0:0
