osu file format v5

[General]
AudioFilename: Elements.mp3
AudioLeadIn: 0
PreviewTime: 105667
Countdown: 1
SampleSet: Soft
StackLeniency: 1
Mode: 0
LetterboxInBreaks: 1
EditorBookmarks: 38712,66756,96269,133858,172025
EditorDistanceSpacing: 0.800000011920929

[Metadata]
Title:Elements
Artist:Rurutia
Creator:HarryOrunitia
Version:
Source:
Tags:

[Difficulty]
HPDrainRate:7
CircleSize:5
OverallDifficulty:6
SliderMultiplier:1.4
SliderTickRate:1

[Events]
//Background and Video events
0,0,"rurutia12.jpg"
//Break Periods
2,58734,67612
2,125102,133392
2,209672,226923
//Storyboard Layer 0 (Background)
//Storyboard Layer 1 (Failing)
//Storyboard Layer 2 (Passing)
//Storyboard Layer 3 (Foreground)
//Storyboard Sound Samples
//Background Colour Transformations
3,100,163,162,255

[TimingPoints]
40612,587.32427184466,4,2,1,100,1,0
54937,-100,4,1,1,100,0,0
55083,-100,4,2,1,100,0,0

[Colours]
Combo1 : 234,219,187
Combo2 : 31,7,10
Combo3 : 85,31,19
Combo4 : 201,161,65

[HitObjects]
56,96,40613,1,0
128,96,40905,1,8
200,96,41199,1,2
272,96,41492,1,2
168,192,42080,1,8
240,192,42373,2,0,B|320:272|376:136|448:200,1,210,0|8
432,224,43401,1,2
432,256,43548,2,0,B|376:184|328:328|224:232,1,210,0|8
240,176,44723,5,0
240,136,44870,1,0
240,104,45016,1,2
96,104,45604,1,8
96,176,45897,1,0
96,248,46191,2,0,B|168:304|168:192|248:264,1,140,2|8
296,248,47072,1,0
368,48,47953,1,8
296,48,48247,1,2
256,256,49128,5,8
152,312,50009,5,0
360,224,50302,1,8
152,136,50596,1,0
360,56,50890,1,0
261,184,51477,5,8
192,184,51771,2,0,B|216:88|320:88|336:216,1,210,0|8
384,232,52945,1,0
320,272,53239,1,0
248,280,53533,1,0
184,256,53826,1,8
128,216,54120,1,0
56,200,54414,2,8,B|248:24|256:344|432:128,1,420,0|8
256,192,56469,12,8,57350
256,192,57644,12,8,58525
352,104,68803,5,0
152,104,69097,1,8
152,280,69390,1,0
352,272,69684,1,0
256,168,70271,1,8
256,240,70565,1,0
256,240,71446,1,8
96,80,72621,5,8
168,80,72914,1,0
200,80,73061,1,0
232,80,73208,2,0,B|328:80|336:160,1,140,0|8
264,152,74089,1,0
192,152,74383,1,0
192,288,74970,2,0,B|272:288,1,70,8|0
248,216,75557,1,0
208,152,75851,1,0
256,80,76145,2,0,B|168:80,1,70,8|0
256,280,77319,5,8
392,120,78200,5,0
320,120,78494,1,8
248,120,78788,1,0
176,120,79081,2,0,B|136:176|256:176|160:272,1,140,0|8
256,192,79962,12,8,80843
272,360,82018,6,0,B|208:328|336:264|232:232,1,140,8|0
432,208,83193,6,0,B|400:144|336:272|304:168,1,140,8|0
240,32,84367,6,0,B|304:64|176:128|280:160,1,140,8|0
80,208,85542,6,0,B|112:144|176:272|208:168,1,140,8|0
256,192,86423,12,0,87010
432,40,87304,6,0,B|432:96|352:96,1,105,0|0
320,96,87891,1,8
280,152,88185,1,0
208,152,88478,2,0,B|136:152|136:232,1,105,0|0
136,248,89066,5,8
176,304,89359,1,0
248,304,89653,1,0
336,248,90094,1,0
336,248,90240,1,8
280,200,90534,6,0,B|192:200,1,70
248,104,91268,1,0
248,104,91415,1,8
320,104,91709,1,0
320,104,92002,2,0,B|424:104|392:208,1,140,0|8
392,256,92883,1,0
256,192,93177,12,8,96114
96,72,96407,6,0,B|136:72|168:88,1,70
168,192,97141,1,0
168,192,97288,1,8
232,160,97582,1,0
304,152,97876,2,0,B|400:160|352:248,1,105
360,248,98463,1,8
288,248,98757,5,0
216,248,99050,1,0
112,248,99491,1,0
112,208,99638,1,8
112,136,99931,1,0
184,136,100225,1,0
288,136,100665,6,0,B|344:136,1,35,0|8
344,200,101106,1,0
272,200,101400,1,0
128,200,101987,2,0,B|128:280|232:280,1,140,8|0
328,280,103015,1,0
360,264,103162,1,8
376,224,103308,1,0
360,192,103455,1,0
328,168,103602,1,0
296,176,103749,2,0,B|296:80|384:80,1,140,0|8
80,152,105511,5,8
120,96,105804,1,0
152,88,105951,1,0
184,96,106098,1,0
288,104,106539,1,0
320,104,106685,2,0,B|400:104,1,70,8|0
392,176,107273,2,0,B|464:216|384:272,1,105
368,256,107860,1,8
296,256,108154,5,0
224,256,108447,2,0,B|176:192|232:136,1,105
216,160,109035,1,8
288,160,109328,1,0
288,88,109622,1,0
392,88,110063,1,0
392,88,110209,1,8
392,160,110503,1,0
392,232,110797,1,0
248,232,111384,1,8
144,136,111971,6,0,B|144:64|240:64,1,105
208,66,112559,2,0,B|280:64|280:112,1,70,8|0
304,144,113146,2,0,B|256:200|360:232|288:296,1,140,0|8
256,320,114027,1,0
256,112,114908,5,8
256,184,115202,1,0
256,216,115349,1,0
256,248,115495,2,0,B|184:248|184:176,1,105
184,152,116083,1,8
136,104,116376,1,0
184,56,116670,1,0
184,56,116817,1,8
232,104,117110,1,0
232,104,117257,1,8
304,96,117551,1,0
368,128,117845,5,0
384,160,117991,1,8
384,232,118285,1,0
368,264,118432,1,8
296,272,118726,1,0
224,272,119019,2,0,B|184:320|152:224|104:296,1,105
128,272,119607,1,8
128,200,119900,1,0
128,128,120194,1,0
264,128,120781,1,8
336,224,121369,5,0
320,256,121515,1,0
288,272,121662,1,0
216,256,121956,1,8
192,224,122103,1,0
192,184,122250,1,0
216,152,122396,1,0
248,136,122543,2,0,B|296:80|336:184|392:104,1,140,0|8
432,160,123424,1,0
256,128,124305,6,0,B|192:184|320:208|240:280,1,140,8|0
368,104,134583,5,0
312,144,134877,1,8
256,184,135171,1,0
200,224,135464,2,0,B|96:224|112:120,1,140,0|8
160,96,136345,1,0
216,56,136639,2,0,B|320:56|304:160,1,140,0|8
304,208,137520,1,0
304,240,137667,1,0
216,296,138107,6,0,B|160:264|168:216,2,70,0|8|0
248,296,138841,1,0
280,296,138988,2,0,B|368:296|368:192,1,140,0|8
368,136,139869,1,0
296,120,140163,2,0,B|208:120|208:224,1,140,0|8
224,272,141044,2,0,B|360:280|352:128,2,210,0|8|0
224,272,143100,1,8
264,24,143981,5,0
224,80,144274,1,8
264,136,144568,1,0
224,192,144862,2,0,B|216:280|304:216|304:312,1,140,0|8
232,288,145743,1,0
160,288,146036,1,0
120,232,146330,1,0
160,176,146624,1,8
144,104,146917,5,0
168,80,147064,1,0
200,72,147211,1,0
232,72,147358,1,0
264,80,147505,1,0
328,104,147798,1,8
360,168,148092,5,0
304,216,148386,2,0,B|232:264|152:200,1,140,0|8
128,168,149266,1,0
176,120,149560,2,0,B|248:72|328:136,1,140,0|8
360,160,150441,1,0
312,216,150735,1,0
184,272,151322,5,8
256,272,151616,1,0
328,272,151909,1,0
368,208,152203,1,8
360,176,152350,1,0
336,144,152497,1,8
304,128,152644,1,8
272,120,152790,1,8
240,128,152937,1,8
216,152,153084,1,8
128,296,153378,5,0
384,216,153671,1,8
128,136,153965,1,0
384,48,154259,1,0
320,128,154699,5,0
296,152,154846,1,8
256,208,155140,2,0,B|344:160|344:304|472:264,1,210,0|8
440,336,156314,1,0
408,336,156461,1,0
368,336,156608,1,0
328,336,156755,1,0
296,336,156902,2,0,B|240:336|240:280,1,70,0|8
168,192,157489,6,0,B|192:152,5,35
208,136,158370,1,8
264,96,158664,1,0
336,96,158957,2,0,B|424:120|408:216,1,140,0|8
376,216,159691,1,0
336,216,159838,1,0
128,216,160719,5,8
200,216,161013,1,0
232,216,161160,1,0
264,216,161307,1,0
400,176,161894,1,8
400,176,162041,1,0
400,248,162334,1,0
400,248,162481,1,0
400,320,162775,6,0,B|368:368|312:336,1,70,0|8
280,320,163362,2,0,B|312:368|368:336,1,70,0|0
336,240,164096,1,0
336,200,164243,2,0,B|312:152|264:152,1,70,8|0
216,152,164831,1,0
144,152,165124,1,0
104,208,165418,1,8
144,264,165712,1,0
176,264,165858,1,0
208,264,166005,1,0
240,248,166152,1,0
264,216,166299,1,0
280,144,166593,1,8
448,192,166886,5,0
376,192,167180,1,0
304,192,167474,1,0
256,48,167767,5,8
256,120,168061,1,0
256,192,168355,1,0
256,336,168648,5,0
256,264,168942,1,8
256,192,169236,1,0
72,192,169529,5,0
144,192,169823,1,0
216,192,170117,1,8
288,192,170410,1,0
360,192,170704,1,0
432,192,170997,5,8
432,192,171144,1,0
432,192,171291,1,8
432,192,171438,1,8
432,192,171585,1,8
432,192,171732,1,8
432,192,171878,1,8
432,264,172172,5,0
360,264,172466,1,8
288,264,172759,1,0
216,264,173053,2,0,B|144:240|192:176,1,105,0|0
184,184,173640,1,8
256,184,173934,5,0
328,184,174228,2,0,B|400:160|376:88,1,105
379,105,174815,1,8
304,104,175109,1,0
232,104,175402,1,0
248,208,175843,1,0
248,208,175990,1,8
160,232,176283,5,0
200,288,176577,1,0
272,296,176871,1,0
336,264,177164,1,8
352,192,177458,1,0
320,128,177752,1,0
256,104,178045,1,0
192,136,178339,1,8
184,208,178633,5,0
184,208,178780,1,0
184,208,178926,1,0
256,200,179220,5,0
256,200,179367,1,0
256,200,179514,1,8
312,248,179807,5,0
312,248,179954,1,0
312,248,180101,1,0
264,304,180395,5,0
192,304,180688,1,8
136,256,180982,1,0
136,184,181276,1,0
184,128,181569,5,0
216,128,181716,1,0
248,128,181863,1,8
280,128,182010,1,0
312,128,182157,2,0,B|368:120|368:192,1,70
368,232,182744,2,0,B|376:288|304:288,1,70,0|8
266,279,183331,1,0
296,344,183625,2,0,B|248:360|208:312,2,70,0|0|8
368,344,184506,1,0
416,296,184800,1,0
416,192,185240,5,0
416,192,185387,1,8
344,192,185681,1,0
312,192,185827,1,0
272,192,185974,2,0,B|248:240|184:136|128:200,2,140,0|8|0
272,192,187589,1,0
272,192,187736,1,8
256,192,188030,12,8,190086
256,80,190379,5,0
256,112,190526,1,0
256,144,190673,2,0,B|216:200|304:200|240:264,1,105
256,272,191260,1,8
224,336,191554,1,0
296,336,191848,1,0
376,336,192288,6,0,B|400:336|408:304,1,35,0|8
432,272,192728,1,0
448,216,193022,1,0
424,136,193463,2,0,B|448:136|456:168,1,35,0|8
408,192,193903,1,0
352,192,194197,1,0
264,192,194637,5,0
264,192,194784,1,8
208,192,195078,2,0,B|160:176|120:224,1,70
200,296,195959,1,8
368,136,196546,6,0,B|368:64|272:64,1,105
304,66,197134,2,0,B|232:64|232:112,1,70,8|0
208,144,197721,2,0,B|256:200|152:232|224:296,1,140,0|8
256,320,198602,1,0
120,224,199483,1,8
136,96,199776,1,0
144,112,199923,1,0
160,128,200070,1,0
216,184,200511,1,0
240,200,200657,1,0
256,240,200951,1,0
272,280,201245,1,0
344,256,201685,1,0
312,248,201832,1,0
288,304,202126,1,0
320,264,202419,1,0
288,304,202860,1,0
264,288,203007,1,0
320,264,203300,1,0
288,304,203594,1,0
232,232,204034,1,0
208,224,204181,1,0
296,296,204475,1,0
256,240,204769,1,0
312,344,205356,1,0
264,232,205943,1,0
280,320,206384,1,0
256,304,206531,1,0
264,232,206824,1,0
264,232,207118,1,0
176,352,207999,1,0
288,208,208880,1,0
224,272,209174,1,0
312,160,209467,1,0
216,96,227968,5,0
216,96,228115,1,0
216,96,228262,1,0
184,184,228702,1,0
192,160,228849,1,0
224,112,229143,1,0
192,160,229436,1,0
280,176,229877,1,0
256,168,230024,1,0
192,176,230317,1,0
248,192,230611,1,0
248,192,230905,1,0
248,192,231198,1,0
248,192,231345,1,0
248,192,231492,1,0
248,192,231639,1,0
248,192,231786,1,0
248,192,231932,1,0
248,192,232079,1,0
248,192,232226,1,0
328,152,232667,1,0
280,192,232960,1,0
144,168,233548,1,0
216,200,233841,1,0
216,200,233988,1,0
320,208,234429,1,0
232,256,234869,1,0
232,256,235016,1,0
232,256,235163,1,0
232,256,235309,1,0
288,208,235603,1,0
232,256,235897,1,0
280,208,236190,1,0
256,232,236337,1,0
256,232,236484,1,0
256,232,236631,1,0
256,232,236778,1,0
304,208,237071,1,0
256,232,237365,1,0
256,232,237659,1,0
176,168,238099,1,0
192,176,238246,1,0
256,200,238540,1,0
320,208,238833,1,0
232,256,239274,1,0
256,240,239421,1,0
320,224,239714,1,0
264,256,240008,1,0
264,256,240449,1,0
264,256,240742,1,0
352,248,241183,1,0
288,184,241623,1,0
288,184,241770,1,0
336,224,242064,1,0
296,184,242357,1,0
176,152,242945,1,0
296,168,243532,1,0
240,208,243826,1,0
328,216,244266,1,0
248,192,244560,1,0
440,336,245588,1,0
280,216,246469,1,0
280,216,247056,1,0
256,192,247203,12,8,255866
